osu file format v14

[General]
AudioFilename: audio.mp3
AudioLeadIn: 0
PreviewTime: 37963
Countdown: 0
SampleSet: Soft
StackLeniency: 0.7
Mode: 0
LetterboxInBreaks: 0
WidescreenStoryboard: 1

[Editor]
Bookmarks: 16122,26500,56663
DistanceSpacing: 0.4
BeatDivisor: 4
GridSize: 8
TimelineZoom: 1.8

[Metadata]
Title:Inferno (TV Size)
TitleUnicode:インフェルノ (TV Size)
Artist:Mrs. GREEN APPLE
ArtistUnicode:Mrs. GREEN APPLE
Creator:sanairrt
Version:TheBlank's Insane
Source:炎炎ノ消防隊
Tags:fire force brigade of flames enen no shouboutai opening op anime japanese male vocal Akitoshi Livia Creamy Candy Kowari TimeCapsule TheBlank
BeatmapID:2278450
BeatmapSetID:1066094

[Difficulty]
HPDrainRate:5
CircleSize:3.4
OverallDifficulty:8.1
ApproachRate:9
SliderMultiplier:1.9
SliderTickRate:1

[Events]
//Background and Video events
0,0,"BG.jpg",0,0
//Break Periods
2,64352,72633
//Storyboard Layer 0 (Background)
//Storyboard Layer 1 (Fail)
//Storyboard Layer 2 (Pass)
//Storyboard Layer 3 (Foreground)
//Storyboard Layer 4 (Overlay)
//Storyboard Sound Samples

[TimingPoints]
585,324.324324324324,4,2,99,88,1,0
747,-100,4,2,1,60,0,0
909,-100,4,2,99,88,0,0
1152,-100,4,2,99,88,0,0
1233,-100,4,2,99,88,0,0
2449,-100,4,2,99,88,0,0
2530,-100,4,2,99,88,0,0
3098,-100,4,2,1,60,0,0
3179,-100,4,2,99,88,0,0
3341,-100,4,2,1,60,0,0
3503,-100,4,2,99,88,0,0
5206,-100,4,2,1,60,0,0
5287,-250,4,2,99,88,0,0
5530,-250,4,2,1,5,0,0
5612,-125,4,2,1,60,0,0
5774,-125,4,2,99,75,0,0
6260,-125,4,2,1,60,0,0
6422,-125,4,2,99,75,0,0
7233,-125,4,2,1,60,0,0
7395,-125,4,2,99,75,0,0
8206,-125,4,2,1,60,0,0
8368,-125,4,2,99,75,0,0
8855,-125,4,2,1,60,0,0
9017,-125,4,2,99,75,0,0
9260,-125,4,2,1,60,0,0
9341,-125,4,2,99,75,0,0
9503,-125,4,2,1,60,0,0
9666,-125,4,2,99,75,0,0
10557,-125,4,2,1,5,0,0
10638,-125,4,2,1,60,0,0
10639,-125,4,2,99,75,0,0
11449,-125,4,2,1,60,0,0
11612,-125,4,2,99,75,0,0
12422,-125,4,2,1,60,0,0
12584,-125,4,2,99,75,0,0
13476,-125,4,2,1,60,0,0
13557,-125,4,2,99,75,0,0
14125,-125,4,2,1,5,0,0
14206,-125,4,2,99,75,0,0
15179,-125,4,2,1,60,0,0
15341,-125,4,2,99,75,0,0
15665,-125,4,2,1,60,0,0
15828,-250,4,2,99,75,0,0
16071,-250,4,2,1,60,0,0
16152,-100,4,2,99,75,0,0
16639,-100,4,2,1,60,0,0
16801,-111.111111111111,4,2,99,75,0,0
17368,-111.111111111111,4,2,1,60,0,0
17449,-111.111111111111,4,2,99,75,0,0
18665,-111.111111111111,4,2,1,5,0,0
18666,-111.111111111111,4,2,1,5,0,0
18747,-111.111111111111,4,2,99,75,0,0
19638,-111.111111111111,4,2,1,5,0,0
19639,-111.111111111111,4,2,1,5,0,0
19720,-111.111111111111,4,2,99,75,0,0
21179,-111.111111111111,4,2,1,60,0,0
21341,-111.111111111111,4,2,99,75,0,0
24422,-111.111111111111,4,2,1,60,0,0
24584,-111.111111111111,4,2,99,75,0,0
26206,-250,4,2,1,60,0,0
26449,-250,4,2,1,5,0,0
26530,-133.333333333333,4,2,99,60,0,0
26854,-133.333333333333,4,2,1,60,0,0
27017,-133.333333333333,4,2,99,60,0,0
27990,-133.333333333333,4,2,1,60,0,0
28476,-133.333333333333,4,2,99,60,0,0
29936,-133.333333333333,4,2,1,60,0,0
30098,-133.333333333333,4,2,99,60,0,0
30746,-133.333333333333,4,2,1,60,0,0
30909,-133.333333333333,4,2,99,60,0,0
31152,-133.333333333333,4,2,1,60,0,0
31233,-133.333333333333,4,2,99,60,0,0
34476,-133.333333333333,4,2,1,60,0,0
34639,-133.333333333333,4,2,99,60,0,0
35125,-133.333333333333,4,2,1,60,0,0
35287,-133.333333333333,4,2,99,60,0,0
35652,-133.333333333333,4,2,1,60,0,0
35855,-133.333333333333,4,2,99,60,0,0
35895,-133.333333333333,4,2,0,60,0,0
36098,-133.333333333333,4,2,99,60,0,0
36138,-133.333333333333,4,2,0,60,0,0
36260,-133.333333333333,4,2,99,60,0,0
36300,-133.333333333333,4,2,0,60,0,0
36422,-133.333333333333,4,2,99,60,0,0
36909,-111.111111111111,4,2,99,60,0,0
37125,-111.111111111111,4,2,0,60,0,0
37557,-111.111111111111,4,2,99,60,0,0
37882,-111.111111111111,4,2,99,60,0,0
38044,-111.111111111111,4,2,1,60,0,0
38206,-83.3333333333333,4,2,99,88,0,0
40963,-83.3333333333333,4,2,1,60,0,0
41125,-71.4285714285714,4,2,99,88,0,0
41368,-71.4285714285714,4,2,99,88,0,0
41449,-83.3333333333333,4,2,99,88,0,0
42017,-83.3333333333333,4,2,1,5,0,0
42098,-83.3333333333333,4,2,99,88,0,0
42260,-83.3333333333333,4,2,1,80,0,0
42422,-83.3333333333333,4,2,99,88,0,0
43882,-83.3333333333333,4,2,1,80,0,0
44044,-83.3333333333333,4,2,99,88,0,0
45909,-83.3333333333333,4,2,1,5,0,0
45990,-83.3333333333333,4,2,99,88,0,0
46152,-83.3333333333333,4,2,99,88,0,0
46314,-83.3333333333333,4,2,99,88,0,0
46963,-71.4285714285714,4,2,99,88,0,0
47206,-71.4285714285714,4,2,1,5,0,0
47287,-71.4285714285714,4,2,99,88,0,0
50044,-71.4285714285714,4,2,99,88,0,0
50206,-71.4285714285714,4,2,99,88,0,0
51098,-71.4285714285714,4,2,1,80,0,0
51179,-71.4285714285714,4,2,99,88,0,0
51341,-71.4285714285714,4,2,1,60,0,0
51503,-71.4285714285714,4,2,99,88,0,0
52639,-71.4285714285714,4,2,1,80,0,0
52801,-71.4285714285714,4,2,99,88,0,0
53044,-71.4285714285714,4,2,1,5,0,0
53125,-71.4285714285714,4,2,99,88,0,0
53774,-83.3333333333333,4,2,99,88,0,0
53936,-83.3333333333333,4,2,1,80,0,0
54098,-83.3333333333333,4,2,99,88,0,0
54584,-83.3333333333333,4,2,1,80,0,0
54747,-83.3333333333333,4,2,99,88,0,0
55233,-83.3333333333333,4,2,1,60,0,0
55395,-83.3333333333333,4,2,99,88,0,0
55557,-83.3333333333333,4,2,99,88,0,0
55720,-83.3333333333333,4,2,99,88,0,0
55882,-83.3333333333333,4,2,1,80,0,0
56044,-83.3333333333333,4,2,99,88,0,0
56611,-83.3333333333333,4,2,99,5,0,0
56693,-83.3333333333333,4,2,99,88,0,0
56936,-83.3333333333333,4,2,1,60,0,0
57017,-83.3333333333333,4,2,99,88,0,0
57179,-83.3333333333333,4,2,1,80,0,0
57341,-83.3333333333333,4,2,99,88,0,0
57828,-83.3333333333333,4,2,1,80,0,0
57990,-83.3333333333333,4,2,99,88,0,0
58476,-83.3333333333333,4,2,1,60,0,0
58638,-83.3333333333333,4,2,99,88,0,0
58800,-83.3333333333333,4,2,99,88,0,0
58963,-83.3333333333333,4,2,99,88,0,0
62530,-71.4285714285714,4,2,99,88,0,0
62773,-71.4285714285714,4,2,1,5,0,0
62774,-71.4285714285714,4,2,1,5,0,0
62855,-71.4285714285714,4,2,99,88,0,0
63990,-71.4285714285714,4,2,1,60,0,0
64152,-71.4285714285714,4,2,99,88,0,0
73233,-71.4285714285714,4,2,99,88,0,0
74368,-71.4285714285714,4,2,99,88,0,0
74530,-83.3333333333333,4,2,99,88,0,0
77449,-83.3333333333333,4,2,1,80,0,0
77612,-83.3333333333333,4,2,99,88,0,0
78341,-83.3333333333333,4,2,1,5,0,0
78422,-83.3333333333333,4,2,99,88,0,0
78584,-83.3333333333333,4,2,1,80,0,0
78747,-83.3333333333333,4,2,99,88,0,0
79882,-83.3333333333333,4,2,1,80,0,0
80044,-83.3333333333333,4,2,99,88,0,0
80206,-83.3333333333333,4,2,1,80,0,0
80368,-83.3333333333333,4,2,99,88,0,0
80530,-83.3333333333333,4,2,1,80,0,0
80693,-83.3333333333333,4,2,99,88,0,0
80855,-83.3333333333333,4,2,1,80,0,0
81017,-83.3333333333333,4,2,99,88,0,0
81179,-83.3333333333333,4,2,1,60,0,0
81341,-83.3333333333333,4,2,99,88,0,0
81503,-83.3333333333333,4,2,1,60,0,0
81666,-83.3333333333333,4,2,99,88,0,0
81828,-83.3333333333333,4,2,1,80,0,0
81990,-83.3333333333333,4,2,99,88,0,0
82152,-83.3333333333333,4,2,1,80,0,0
82314,-83.3333333333333,4,2,99,88,0,0
82476,-83.3333333333333,4,2,1,60,0,0
82639,-83.3333333333333,4,2,99,88,0,0
82801,-83.3333333333333,4,2,1,80,0,0
82963,-83.3333333333333,4,2,99,88,0,0
83125,-83.3333333333333,4,2,1,80,0,0
83288,-83.3333333333333,4,2,99,88,0,0
83450,-83.3333333333333,4,2,1,80,0,0
83612,-83.3333333333333,4,2,99,88,0,0
83774,-83.3333333333333,4,2,1,80,0,0
83937,-83.3333333333333,4,2,99,88,0,0
84099,-83.3333333333333,4,2,1,80,0,0
84260,-83.3333333333333,4,2,99,88,0,0
84747,-83.3333333333333,4,2,1,80,0,0
84909,-83.3333333333333,4,2,99,88,0,0
87341,-83.3333333333333,4,2,1,80,0,0
87503,-142.857142857143,4,2,99,88,0,0

[Colours]
Combo1 : 26,116,242
Combo2 : 164,32,240
Combo3 : 37,185,239
Combo4 : 23,209,116
Combo5 : 255,75,255

[HitObjects]
30,29,585,6,0,P|54:50|34:124,1,95,4|0,1:2|0:0,0:0:0:0:
205,158,909,2,0,P|127:109|38:114,1,142.5,10|0,0:0|0:0,0:0:0:0:
51,108,1233,5,2,1:2:0:0:
18,195,1395,1,0,1:0:0:0:
180,256,1558,5,10,0:0:0:0:
213,169,1720,1,0,0:0:0:0:
78,289,1882,6,0,P|113:257|160:250,1,95,2|0,1:2|1:0,0:0:0:0:
315,135,2206,2,0,P|282:253|288:294,1,142.5,10|0,0:0|0:0,0:0:0:0:
292,296,2530,1,2,1:2:0:0:
379,221,2693,1,0,1:0:0:0:
512,384,2855,2,0,B|483:380|483:380|498:239,1,142.5,10|0,0:0|0:0,0:0:0:0:
499,243,3179,6,0,P|486:196|531:143,1,95,4|0,1:2|0:0,0:0:0:0:
332,117,3503,2,0,P|378:114|410:80,1,95,4|0,1:3|0:0,0:0:0:0:
200,13,3828,6,0,L|207:140,1,95,4|0,1:3|0:0,0:0:0:0:
49,161,4152,2,0,L|42:288,1,95,4|0,1:3|0:0,0:0:0:0:
170,378,4476,5,2,1:2:0:0:
170,378,4639,1,0,1:0:0:0:
44,275,4801,1,0,3:0:0:0:
65,286,4882,1,0,3:0:0:0:
88,287,4963,1,0,3:0:0:0:
111,278,5044,1,0,3:0:0:0:
126,261,5125,2,0,P|121:299|147:329,1,47.5,0|0,1:0|0:0,0:0:0:0:
257,384,5287,6,0,P|255:364|252:383,1,57,2|0,1:3|0:0,0:0:0:0:
295,367,5612,5,0,0:0:0:0:
295,367,5774,2,0,P|280:314|342:228,1,152,4|0,1:0|1:0,0:0:0:0:
446,280,6260,1,0,0:0:0:0:
446,280,6422,2,0,P|415:231|421:198,1,76,0|0,1:0|0:0,0:0:0:0:
512,115,6747,2,0,L|504:190,1,76,0|0,1:0|0:0,0:0:0:0:
394,34,7071,6,0,B|426:37|426:37|430:34|430:34|468:37,2,76,0|0|0,1:0|0:0|1:0,0:0:0:0:
283,104,7557,1,0,0:0:0:0:
151,0,7720,2,0,P|162:72|148:156,1,152,0|0,1:0|1:0,0:0:0:0:
26,258,8206,1,0,0:0:0:0:
26,258,8368,6,0,P|28:220|37:183,1,76,0|0,1:0|0:0,0:0:0:0:
118,282,8693,2,0,P|129:245|148:212,1,76,0|0,1:0|0:0,0:0:0:0:
287,116,9017,6,0,B|255:135|255:135|263:212,1,114,0|0,1:0|0:0,0:0:0:0:
267,234,9341,1,0,1:0:0:0:
366,283,9503,1,0,0:0:0:0:
366,283,9666,6,0,L|373:207,1,76,0|0,1:0|0:0,0:0:0:0:
505,309,9990,2,0,L|512:384,1,76,0|0,1:0|0:0,0:0:0:0:
373,207,10314,2,0,L|386:65,1,114,0|0,1:0|0:0,0:0:0:0:
387,70,10639,1,0,1:0:0:0:
507,7,10801,1,0,0:0:0:0:
507,7,10963,6,0,P|502:72|483:109,1,76,0|0,1:0|0:0,0:0:0:0:
394,0,11287,2,0,P|385:32|387:70,1,76,0|0,1:0|0:0,0:0:0:0:
285,193,11612,6,0,P|286:155|277:118,1,76,0|0,1:0|0:0,0:0:0:0:
173,203,11936,2,0,P|163:166|165:128,1,76,0|0,1:0|0:0,0:0:0:0:
233,17,12260,6,0,B|218:0|218:0|221:61,2,76,0|0|0,1:0|0:0|1:0,0:0:0:0:
47,63,12747,1,0,0:0:0:0:
47,63,12909,2,0,P|121:68|164:127,1,152,0|0,1:0|1:0,0:0:0:0:
23,213,13395,1,2,0:0:0:0:
23,213,13476,1,0,0:0:0:0:
23,213,13557,6,0,P|54:164|100:155,1,76,0|0,1:0|0:0,0:0:0:0:
215,308,13882,2,0,P|187:259|135:237,1,114,0|0,1:0|0:0,0:0:0:0:
116,239,14206,2,0,P|97:271|97:309,3,76,0|0|0|0,1:0|0:0|1:0|0:0,2:0:0:0:
236,307,14855,5,0,1:0:0:0:
236,307,15017,2,0,P|259:278|293:261,1,76,0|2,0:0|0:0,0:0:0:0:
348,186,15341,1,0,0:0:0:0:
348,185,15503,2,0,P|385:191|416:212,1,76,0|0,1:0|0:0,0:0:0:0:
447,354,15828,6,0,P|437:318|443:285,1,57,2|0,0:0|0:0,0:0:0:0:
469,350,16152,6,0,B|444:250|527:271|494:158,1,190,4|8,1:2|0:0,0:0:0:0:
341,80,16639,1,0,0:0:0:0:
341,80,16801,2,0,P|332:136|354:179,1,85.4999973907472,0|0,1:0|1:0,0:0:0:0:
156,118,17125,2,0,P|214:94|245:39,1,128.249996086121,8|0,0:0|0:0,0:0:0:0:
249,24,17449,5,0,1:0:0:0:
143,115,17612,1,0,1:0:0:0:
36,0,17774,1,8,0:0:0:0:
165,128,17936,1,0,0:0:0:0:
165,128,18017,1,0,0:0:0:0:
165,128,18098,2,0,P|188:177|160:240,1,85.4999973907472,0|0,1:0|1:0,0:0:0:0:
0,334,18422,2,0,P|49:293|110:273,1,128.249996086121,8|2,0:0|0:0,0:0:0:0:
130,273,18747,5,0,1:0:0:0:
151,355,18909,1,0,1:0:0:0:
310,317,19071,2,0,L|284:216,1,85.4999973907472,8|0,0:0|0:0,0:0:0:0:
221,59,19395,2,0,L|186:191,1,128.249996086121,0|0,1:0|0:0,0:0:0:0:
183,206,19720,2,0,L|88:185,1,85.4999973907472,8|0,0:0|0:0,0:0:0:0:
224,44,20044,5,0,1:0:0:0:
307,62,20206,1,0,1:0:0:0:
445,0,20368,2,0,B|416:29|416:29|441:137,1,128.249996086121,8|0,0:0|0:0,0:0:0:0:
444,138,20693,1,0,1:0:0:0:
386,200,20855,1,0,1:0:0:0:
512,314,21017,2,0,B|473:326|473:326|469:335|469:335|417:352,1,85.4999973907472,8|2,0:0|0:0,0:0:0:0:
236,196,21341,6,0,B|276:187|276:187|305:325,2,170.999994781494,4|8|0,1:2|0:0|1:0,0:0:0:0:
309,338,22152,1,0,1:0:0:0:
147,373,22314,2,0,P|164:334|202:317,1,85.4999973907472,8|0,0:0|0:0,0:0:0:0:
102,160,22639,6,0,P|126:194|40:270,1,170.999994781494,0|8,1:0|0:0,0:0:0:0:
12,91,23125,1,0,0:0:0:0:
12,91,23206,1,0,0:0:0:0:
12,91,23287,1,0,1:0:0:0:
109,150,23449,1,0,1:0:0:0:
235,18,23612,2,0,B|295:8|295:8|307:12|307:12|378:0,1,128.249996086121,8|0,0:0|0:0,0:0:0:0:
382,0,23936,5,0,1:0:0:0:
446,73,24098,1,0,1:0:0:0:
392,210,24260,5,8,0:0:0:0:
377,192,24422,1,0,0:0:0:0:
490,335,24584,6,0,P|484:284|451:230,1,85.4999973907472,0|0,1:0|1:0,0:0:0:0:
395,356,24909,2,0,P|376:308|330:264,1,85.4999973907472,8|0,0:0|0:0,0:0:0:0:
201,231,25233,5,0,1:0:0:0:
201,231,25395,2,0,L|220:326,2,85.4999973907472,0|8|0,1:0|0:0|1:0,0:0:0:0:
0,384,25882,1,8,0:0:0:0:
15,372,26206,6,0,L|7:311,1,57
42,367,26530,2,0,L|22:211,1,142.500005435944,4|0,1:0|0:0,0:0:0:0:
10,98,27017,1,0,1:0:0:0:
160,76,27179,2,0,P|126:19|32:31,1,142.500005435944,0|0,3:0|0:0,0:0:0:0:
102,139,27666,1,0,3:0:0:0:
102,139,27828,6,0,P|138:108|182:113,2,71.2500027179719,0|0|0,1:0|0:0|0:0,0:0:0:0:
102,139,28476,6,0,P|127:196|126:232,1,71.2500027179719,0|0,3:0|0:0,0:0:0:0:
191,107,28801,2,0,P|216:164|215:200,1,71.2500027179719,0|0,0:0|3:0,0:0:0:0:
207,295,29125,2,0,B|288:274|262:348|365:324,1,142.500005435944,0|0,1:0|1:0,0:0:0:0:
469,259,29612,1,0,1:0:0:0:
469,259,29774,2,0,P|435:249|400:262,1,71.2500027179719,0|0,3:0|0:0,0:0:0:0:
380,132,30098,2,0,P|372:167|348:192,1,71.2500027179719,0|0,0:0|3:0,0:0:0:0:
208,133,30422,6,0,P|265:142|345:195,1,142.500005435944,0|0,1:0|0:0,0:0:0:0:
191,135,30909,1,0,1:0:0:0:
191,135,30990,1,0,0:0:0:0:
191,135,31071,2,0,P|186:107|196:78,1,35.625001358986,0|0,3:0|0:0,0:0:0:0:
257,15,31233,6,0,L|259:43,4,17.812500679493,0|0|0|0|0,0:0|0:0|0:0|0:0|1:0,0:0:0:0:
174,74,31557,1,0,3:0:0:0:
46,8,31720,6,0,B|24:75|24:75|46:143,3,142.500005435944,0|0|0|0,1:0|0:0|3:0|0:0,0:0:0:0:
92,360,33017,2,0,B|114:293|114:293|91:224,3,142.500005435944,0|0|0|0,1:0|0:0|3:0|0:0,0:0:0:0:
81,384,34152,1,0,3:0:0:0:
146,293,34314,6,0,L|228:312,1,71.2500027179719,0|0,1:0|0:0,0:0:0:0:
299,373,34639,1,0,1:0:0:0:
314,272,34801,1,0,1:0:0:0:
468,340,34963,2,0,L|397:335,2,71.2500027179719,0|0|0,3:0|0:0|0:0,0:0:0:0:
500,366,35652,6,0,L|493:336,1,17.812500679493
413,229,35855,6,0,L|419:200,1,17.812500679493,8|0,0:3|0:0,0:0:0:0:
500,91,36098,6,0,L|494:64,1,17.812500679493,4|0,0:3|0:0,0:0:0:0:
413,229,36260,6,0,L|416:211,1,17.812500679493,0|0,3:0|0:0,0:0:0:0:
496,348,36422,6,0,L|500:366,4,17.812500679493,0|0|0|0|0,1:0|3:0|3:0|3:0|3:0,0:0:0:0:
500,91,36747,5,0,3:0:0:0:
256,0,36909,2,0,B|240:25|255:52|255:52|269:84|256:111,3,113.999996520996,0|0|0|0,1:0|0:0|0:0|3:0,0:0:0:0:
256,109,37720,2,0,P|230:102|210:103,2,42.7499986953736,0|0|2,1:0|1:0|1:3,0:0:0:0:
336,207,38044,1,0,0:0:0:0:
95,239,38206,6,0,B|67:226|36:235|36:235|109:186|133:272|200:239,1,227.999993041992,4|10,1:0|0:0,0:0:0:0:
336,207,38693,1,0,0:0:0:0:
301,330,38855,5,2,1:2:0:0:
331,227,39017,1,0,1:0:0:0:
496,268,39179,5,10,0:0:0:0:
466,371,39341,1,0,0:0:0:0:
341,187,39503,6,0,B|298:148|303:68|347:29|347:29|436:50,1,227.999993041992,2|10,1:2|0:0,0:0:0:0:
493,151,39990,1,0,0:0:0:0:
415,48,40152,5,2,1:2:0:0:
481,136,40314,1,0,1:0:0:0:
306,62,40476,5,10,0:0:0:0:
262,163,40639,1,0,0:0:0:0:
90,88,40801,2,0,P|151:64|205:91,1,113.999996520996,2|0,1:2|0:0,0:0:0:0:
108,311,41125,6,0,P|157:225|237:168,1,199.499993911743,10|0,0:0|0:0,0:0:0:0:
262,163,41449,1,2,1:2:0:0:
240,20,41612,1,0,1:0:0:0:
458,0,41774,2,0,B|494:5|510:46|510:46|462:12|393:33,1,170.999994781494,10|0,0:0|0:0,0:0:0:0:
390,38,42098,5,2,1:2:0:0:
351,134,42260,1,4,0:3:0:0:
459,263,42422,2,0,P|469:207|430:154,1,113.999996520996,10|0,0:0|0:0,0:0:0:0:
384,42,42747,5,2,1:2:0:0:
345,138,42909,1,0,1:0:0:0:
453,267,43071,2,0,P|463:211|424:158,1,113.999996520996,10|0,0:0|0:0,0:0:0:0:
219,341,43395,6,0,P|299:277|442:269,1,227.999993041992,4|10,1:0|0:0,0:0:0:0:
509,348,43882,1,2,0:0:0:0:
420,263,44044,5,2,1:2:0:0:
339,353,44206,1,0,1:0:0:0:
181,225,44368,5,10,0:0:0:0:
219,341,44530,1,0,0:0:0:0:
17,360,44693,6,0,B|30:257|30:257|43:245|43:245|62:112,1,227.999993041992,2|10,1:2|0:0,0:0:0:0:
162,40,45179,1,0,0:0:0:0:
140,38,45260,1,0,0:0:0:0:
118,45,45341,1,2,1:2:0:0:
211,142,45503,1,0,1:0:0:0:
392,0,45666,2,0,B|363:31|363:31|387:181,1,170.999994781494,10|0,0:0|0:0,0:0:0:0:
390,186,45990,5,2,1:2:0:0:
329,288,46152,1,0,1:0:0:0:
512,384,46314,2,0,L|411:330,1,113.999996520996,10|0,0:0|0:0,0:0:0:0:
381,181,46639,5,2,1:2:0:0:
320,283,46801,1,0,1:0:0:0:
68,157,46963,2,0,B|81:247|81:247|76:252|76:252|93:352,1,199.499993911743,12|0,0:0|0:0,0:0:0:0:
98,373,47287,5,2,1:3:0:0:
63,138,47449,1,2,1:3:0:0:
98,373,47936,5,2,1:3:0:0:
63,138,48098,1,12,0:0:0:0:
209,55,48260,1,0,3:0:0:0:
187,39,48341,1,0,3:0:0:0:
163,32,48422,1,0,3:0:0:0:
139,33,48503,1,0,3:0:0:0:
115,42,48584,6,0,B|206:84|206:84|260:71|260:71|378:130,1,265.999991882324,4|10,1:0|0:0,0:0:0:0:
368,252,49071,1,0,0:0:0:0:
512,91,49233,5,2,1:2:0:0:
421,64,49395,1,0,1:0:0:0:
359,280,49557,2,0,B|393:287|417:257|417:257|441:225|474:229,1,132.999995941162,10|0,0:0|0:0,0:0:0:0:
512,384,49882,5,2,1:2:0:0:
421,293,50044,1,0,1:0:0:0:
201,384,50206,2,0,P|185:332|257:251,1,132.999995941162,10|0,0:0|0:0,0:0:0:0:
238,257,50449,1,0,0:0:0:0:
238,257,50530,1,2,1:2:0:0:
109,288,50693,1,0,1:0:0:0:
55,67,50855,2,0,B|86:22|86:22|119:179,1,199.499993911743,10|0,0:0|0:0,0:0:0:0:
121,189,51179,5,2,1:2:0:0:
215,85,51341,1,0,0:0:0:0:
380,218,51503,2,0,B|347:61,1,132.999995941162,10|0,0:0|0:0,0:0:0:0:
385,239,51828,5,2,1:2:0:0:
291,343,51990,1,0,1:0:0:0:
126,210,52152,2,0,B|159:367,1,132.999995941162,10|0,0:0|0:0,0:0:0:0:
121,189,52476,5,2,1:2:0:0:
158,357,52639,1,4,0:3:0:0:
414,322,52801,2,0,B|392:293|362:283|362:283|352:195|463:151,1,199.499993911743,12|0,0:0|0:0,0:0:0:0:
332,289,53125,2,0,P|296:300|218:244,1,132.999995941162,0|0,1:0|3:0,0:0:0:0:
154,72,53449,1,0,3:0:0:0:
167,81,53530,1,0,3:0:0:0:
177,94,53611,1,0,3:0:0:0:
181,110,53692,1,0,3:0:0:0:
179,126,53774,6,0,P|128:103|73:112,1,113.999996520996,4|0,1:0|0:0,0:0:0:0:
256,39,54098,2,0,P|307:15|362:24,1,113.999996520996,8|0,1:3|0:0,0:0:0:0:
469,175,54422,6,0,B|462:118|462:118|467:107|467:107|461:48,1,113.999996520996,4|0,0:3|0:0,0:0:0:0:
366,241,54747,2,0,B|359:298|359:298|364:309|364:309|358:368,1,113.999996520996,8|0,1:3|0:0,0:0:0:0:
160,328,55071,6,0,L|297:348,1,113.999996520996,4|0,0:3|0:0,0:0:0:0:
151,167,55395,2,0,L|14:187,1,113.999996520996,8|0,1:3|0:0,0:0:0:0:
18,374,55720,2,0,P|-7:324|16:253,1,113.999996520996,4|0,0:3|0:0,0:0:0:0:
151,167,56044,2,0,P|176:217|153:288,1,113.999996520996,8|0,1:3|0:0,0:0:0:0:
17,69,56368,6,0,B|96:57|96:57|114:63|114:63|219:44,1,170.999994781494,4|0,1:0|0:0,0:0:0:0:
207,45,56693,2,0,P|247:19|309:33,1,113.999996520996,8|0,1:3|0:0,0:0:0:0:
325,46,56936,1,0,0:0:0:0:
325,46,57017,2,0,L|342:170,1,113.999996520996,4|0,0:3|0:0,0:0:0:0:
480,265,57341,2,0,L|495:152,1,113.999996520996,8|0,1:3|0:0,0:0:0:0:
364,361,57666,6,0,P|353:291|384:225,1,113.999996520996,4|0,0:3|0:0,0:0:0:0:
269,384,57990,2,0,P|240:319|253:247,1,113.999996520996,8|0,1:3|0:0,0:0:0:0:
127,150,58314,6,0,P|154:201|154:257,1,113.999996520996,4|0,0:3|0:0,0:0:0:0:
32,173,58638,2,0,P|45:229|31:283,1,113.999996520996,8|0,1:3|0:0,0:0:0:0:
269,384,58963,6,0,B|268:327|268:327|242:277,1,113.999996520996,12|0,0:0|1:0,0:0:0:0:
33,173,59287,2,0,B|89:176|89:176|139:204,1,113.999996520996,10|0,0:0|1:0,0:0:0:0:
352,365,59612,6,0,B|351:308|351:308|325:258,1,113.999996520996,10|0,0:0|1:0,0:0:0:0:
52,92,59936,2,0,B|108:94|108:94|157:122,1,113.999996520996,10|0,0:0|1:0,0:0:0:0:
356,68,60260,6,0,L|281:154,1,113.999996520996,10|0,0:0|0:0,0:0:0:0:
159,287,60584,2,0,L|84:373,1,113.999996520996,10|0,0:0|1:0,0:0:0:0:
361,75,60909,6,0,L|286:161,1,113.999996520996,10|0,0:0|1:0,0:0:0:0:
89,380,61233,2,0,L|164:294,1,113.999996520996,10|0,0:0|0:0,0:0:0:0:
491,366,61557,6,0,P|471:303|384:271,1,113.999996520996,4|0,1:0|0:0,0:0:0:0:
154,352,61882,2,0,P|208:367|260:347,1,113.999996520996,10|0,0:0|1:0,0:0:0:0:
334,66,62206,2,0,P|294:105|285:160,1,113.999996520996,10|0,0:0|1:0,0:0:0:0:
491,366,62530,2,0,B|406:356|406:356|385:336|385:336|254:318,1,199.499993911743,10|0,0:0|0:0,0:0:0:0:
271,321,62855,5,2,1:3:0:0:
307,57,63017,1,2,1:3:0:0:
271,321,63503,5,2,1:3:0:0:
307,57,63665,1,2,1:3:0:0:
307,57,63990,5,0,0:0:0:0:
300,67,64152,1,4,1:0:0:0:
0,0,73233,5,2,1:3:0:0:
45,248,73395,1,2,1:3:0:0:
0,0,73882,5,2,1:3:0:0:
45,248,74044,1,2,1:3:0:0:
45,248,74368,5,0,0:0:0:0:
264,78,74530,2,0,B|250:150|250:150|185:182|185:182|166:278,1,227.999993041992,4|10,1:0|0:0,0:0:0:0:
259,333,75017,5,0,0:0:0:0:
151,256,75179,1,2,1:2:0:0:
30,311,75341,1,0,1:0:0:0:
259,348,75503,5,10,0:0:0:0:
259,238,75666,1,0,0:0:0:0:
421,384,75828,2,0,B|368:326|368:326|404:168,1,227.999993041992,2|10,1:2|0:0,0:0:0:0:
512,98,76314,1,0,0:0:0:0:
407,154,76476,5,2,1:2:0:0:
331,62,76639,1,0,1:0:0:0:
512,98,76801,5,10,0:0:0:0:
313,57,76963,1,0,0:0:0:0:
177,208,77125,6,0,P|136:132|242:24,1,227.999993041992,4|8,1:2|0:0,0:0:0:0:
297,139,77612,1,0,0:0:0:0:
187,218,77774,1,2,1:2:0:0:
85,79,77936,1,0,1:0:0:0:
197,232,78098,2,0,P|197:293|96:351,1,170.999994781494,10|0,0:0|0:0,0:0:0:0:
90,351,78422,1,2,1:2:0:0:
187,218,78584,1,4,0:3:0:0:
419,384,78747,2,0,B|365:359|365:359|336:250|433:187,1,227.999993041992,12|0,0:0|1:0,0:0:0:0:
507,132,79233,1,0,3:0:0:0:
321,95,79395,1,0,3:0:0:0:
341,75,79476,1,0,3:0:0:0:
368,65,79557,1,0,3:0:0:0:
396,67,79638,1,0,3:0:0:0:
420,79,79720,6,0,P|367:97|339:145,1,113.999996520996,4|0,1:0|0:0,0:0:0:0:
202,1,80044,2,0,P|230:49|219:103,1,113.999996520996,8|0,1:3|0:0,0:0:0:0:
33,222,80368,6,0,L|50:109,1,113.999996520996,4|0,0:3|0:0,0:0:0:0:
202,1,80693,2,0,L|220:120,1,113.999996520996,8|0,1:3|0:0,0:0:0:0:
33,232,81017,6,0,B|87:221|87:221|93:214|93:214|185:198,1,113.999996520996,4|0,0:3|0:0,0:0:0:0:
257,357,81341,2,0,B|203:346|203:346|197:339|197:339|105:323,1,113.999996520996,8|0,1:3|0:0,0:0:0:0:
349,156,81666,6,0,P|328:208|344:262,1,113.999996520996,4|0,0:3|0:0,0:0:0:0:
496,384,81990,2,0,P|516:332|500:278,1,113.999996520996,8|0,1:3|0:0,0:0:0:0:
385,156,82314,6,0,L|395:293,1,113.999996520996,4|0,1:2|0:0,0:0:0:0:
503,153,82639,2,0,L|513:290,1,113.999996520996,8|2,1:3|0:0,0:0:0:0:
288,113,82963,6,0,L|279:0,1,113.999996520996,4|0,0:3|0:0,0:0:0:0:
170,116,83288,2,0,L|161:2,1,113.999996520996,8|0,1:3|0:0,0:0:0:0:
0,201,83612,6,0,L|10:338,1,113.999996520996,4|0,0:3|0:0,0:0:0:0:
118,198,83937,2,0,L|128:335,1,113.999996520996,10|0,1:3|0:0,0:0:0:0:
362,384,84260,2,0,B|342:290|342:290|303:266|303:266|284:181,1,227.999993041992,6|10,0:3|1:3,0:0:0:0:
253,44,84747,1,0,0:0:0:0:
383,145,84909,6,0,P|371:83|407:25,1,113.999996520996,12|0,0:0|1:0,0:0:0:0:
504,155,85233,2,0,P|525:103|512:48,1,113.999996520996,10|0,0:0|1:0,0:0:0:0:
304,264,85557,6,0,B|317:210|317:210|295:157,1,113.999996520996,10|0,0:0|1:0,0:0:0:0:
183,275,85881,2,0,B|160:222|160:222|174:167,1,113.999996520996,10|0,0:0|0:0,0:0:0:0:
411,362,86206,6,0,B|353:370|353:370|349:367|349:367|288:375,1,113.999996520996,10|0,0:0|1:0,0:0:0:0:
70,263,86530,2,0,B|128:271|128:271|132:268|132:268|193:276,1,113.999996520996,10|0,0:0|1:0,0:0:0:0:
425,280,86855,6,0,B|367:288|367:288|363:285|363:285|302:293,1,113.999996520996,10|0,0:0|0:0,0:0:0:0:
57,183,87179,2,0,B|115:191|115:191|119:188|119:188|180:196,1,113.999996520996,10|2,0:0|0:0,0:0:0:0:
256,0,87503,6,0,L|256:142,3,132.999995941162
256,133,88801,5,0,0:0:0:0:
