osu file format v14

[General]
AudioFilename: audio.mp3
AudioLeadIn: 0
PreviewTime: 37963
Countdown: 0
SampleSet: Soft
StackLeniency: 0.7
Mode: 0
LetterboxInBreaks: 0
WidescreenStoryboard: 1

[Editor]
Bookmarks: 16152,26530,56693
DistanceSpacing: 0.2
BeatDivisor: 4
GridSize: 8
TimelineZoom: 1.8

[Metadata]
Title:Inferno (TV Size)
TitleUnicode:インフェルノ (TV Size)
Artist:Mrs. GREEN APPLE
ArtistUnicode:Mrs. GREEN APPLE
Creator:sanairrt
Version:Livia's Extra
Source:炎炎ノ消防隊
Tags:fire force brigade of flames enen no shouboutai opening op anime japanese male vocal Akitoshi Livia Creamy Candy Kowari TimeCapsule TheBlank
BeatmapID:2232316
BeatmapSetID:1066094

[Difficulty]
HPDrainRate:6
CircleSize:3.9
OverallDifficulty:8.3
ApproachRate:9.2
SliderMultiplier:1.9
SliderTickRate:1

[Events]
//Background and Video events
0,0,"BG.jpg",0,0
//Break Periods
2,64352,72663
//Storyboard Layer 0 (Background)
//Storyboard Layer 1 (Fail)
//Storyboard Layer 2 (Pass)
//Storyboard Layer 3 (Foreground)
//Storyboard Layer 4 (Overlay)
//Storyboard Sound Samples

[TimingPoints]
585,324.324324324324,4,2,99,88,1,0
585,-100,4,2,99,88,0,0
747,-100,4,2,1,60,0,0
909,-100,4,2,99,88,0,0
1719,-100,4,2,99,88,0,0
1882,-100,4,2,99,88,0,0
3017,-100,4,2,1,60,0,0
3179,-100,4,2,99,88,0,0
3341,-100,4,2,1,60,0,0
3503,-100,4,2,99,88,0,0
5774,-125,4,2,99,75,0,0
6260,-125,4,2,1,60,0,0
6422,-125,4,2,99,75,0,0
7720,-200,4,2,99,75,0,0
8044,-125,4,2,99,75,0,0
8206,-125,4,2,1,60,0,0
8368,-125,4,2,99,75,0,0
8855,-125,4,2,1,60,0,0
9017,-125,4,2,99,75,0,0
9260,-125,4,2,1,60,0,0
9341,-125,4,2,99,75,0,0
9503,-125,4,2,1,60,0,0
9666,-125,4,2,99,75,0,0
10476,-125,4,2,1,60,0,0
10639,-125,4,2,99,75,0,0
10963,-83.3333333333333,4,2,99,75,0,0
11287,-166.666666666667,4,2,99,75,0,0
11449,-166.666666666667,4,2,1,60,0,0
11612,-83.3333333333333,4,2,99,75,0,0
11936,-166.666666666667,4,2,99,75,0,0
12260,-125,4,2,99,75,0,0
13476,-125,4,2,1,60,0,0
13557,-125,4,2,99,75,0,0
13882,-166.666666666667,4,2,99,75,0,0
14125,-166.666666666667,4,2,1,60,0,0
14206,-166.666666666667,4,2,99,75,0,0
15179,-166.666666666667,4,2,1,60,0,0
15341,-166.666666666667,4,2,99,75,0,0
15503,-250.000000000001,4,2,99,75,0,0
15665,-250.000000000001,4,2,1,60,0,0
15828,-333.333333333333,4,2,99,75,0,0
16071,-333.333333333333,4,2,1,60,0,0
16152,-100,4,2,99,75,0,0
16638,-100,4,2,1,60,0,0
16720,-100,4,2,1,60,0,0
16801,-100,4,2,99,75,0,0
17287,-100,4,2,99,75,0,0
17449,-100,4,2,99,75,0,0
18584,-100,4,2,1,60,0,0
18747,-100,4,2,99,75,0,0
19314,-100,4,2,99,75,0,0
19395,-100,4,2,99,75,0,0
20693,-133.333333333333,4,2,99,75,0,0
20774,-133.333333333333,4,2,1,60,0,0
20855,-133.333333333333,4,2,99,75,0,0
20936,-133.333333333333,4,2,1,60,0,0
21017,-83.3333333333333,4,2,99,75,0,0
21179,-83.3333333333333,4,2,1,60,0,0
21341,-83.3333333333333,4,2,99,75,0,0
21666,-133.333333333333,4,2,99,75,0,0
21909,-133.333333333333,4,2,1,60,0,0
21990,-100,4,2,99,75,0,0
22476,-100,4,2,99,75,0,0
22639,-100,4,2,99,75,0,0
23855,-100,4,2,99,75,0,0
23936,-100,4,2,99,75,0,0
24422,-100,4,2,1,60,0,0
24503,-100,4,2,99,5,0,0
24584,-100,4,2,99,75,0,0
25476,-100,4,2,1,60,0,0
25557,-100,4,2,99,75,0,0
25882,-66.6666666666667,4,2,99,75,0,0
26530,-166.666666666667,4,2,99,60,0,0
26854,-166.666666666667,4,2,1,60,0,0
27017,-166.666666666667,4,2,99,60,0,0
27828,-250.000000000001,4,2,99,60,0,0
28152,-250.000000000001,4,2,1,60,0,0
28476,-250.000000000001,4,2,99,60,0,0
28801,-142.857142857143,4,2,99,60,0,0
29125,-100,4,2,99,60,0,0
29774,-133.333333333333,4,2,99,60,0,0
29936,-133.333333333333,4,2,1,60,0,0
30098,-133.333333333333,4,2,99,60,0,0
30746,-133.333333333333,4,2,1,60,0,0
30909,-133.333333333333,4,2,99,60,0,0
32368,-200,4,2,99,60,0,0
32855,-200,4,2,1,60,0,0
33017,-133.333333333333,4,2,99,60,0,0
34071,-133.333333333333,4,2,1,60,0,0
34152,-133.333333333333,4,2,99,60,0,0
34476,-133.333333333333,4,2,1,60,0,0
34639,-133.333333333333,4,2,99,60,0,0
34882,-133.333333333333,4,2,1,60,0,0
34963,-133.333333333333,4,2,99,60,0,0
35125,-133.333333333333,4,2,1,60,0,0
35287,-133.333333333333,4,2,99,60,0,0
35612,-133.333333333333,4,2,99,60,0,0
35936,-133.333333333333,4,2,0,60,0,0
36098,-133.333333333333,4,2,99,60,0,0
36341,-133.333333333333,4,2,0,60,0,0
36422,-133.333333333333,4,2,99,60,0,0
37030,-133.333333333333,4,2,0,60,0,0
37071,-133.333333333333,4,2,99,60,0,0
37273,-133.333333333333,4,2,0,60,0,0
37314,-133.333333333333,4,2,99,60,0,0
37516,-133.333333333333,4,2,0,60,0,0
37557,-133.333333333333,4,2,99,60,0,0
37882,-200,4,2,99,60,0,0
38125,-333.333333333333,4,2,1,60,0,0
38206,-66.6666666666667,4,2,99,88,0,1
38855,-100,4,2,99,88,0,1
39179,-66.6666666666667,4,2,99,88,0,1
40071,-66.6666666666667,4,2,1,80,0,1
40152,-66.6666666666667,4,2,99,88,0,1
40233,-66.6666666666667,4,2,1,60,0,1
40314,-66.6666666666667,4,2,99,88,0,1
40395,-66.6666666666667,4,2,1,60,0,1
40476,-66.6666666666667,4,2,99,88,0,1
41530,-66.6666666666667,4,2,1,60,0,1
41612,-66.6666666666667,4,2,99,88,0,1
41693,-66.6666666666667,4,2,1,60,0,1
41774,-100,4,2,99,88,0,1
42017,-100,4,2,1,60,0,1
42098,-66.6666666666667,4,2,99,88,0,1
42179,-66.6666666666667,4,2,1,60,0,1
42260,-66.6666666666667,4,2,1,80,0,1
42341,-66.6666666666667,4,2,99,5,0,1
42422,-100,4,2,99,88,0,1
42665,-100,4,2,1,60,0,1
42747,-66.6666666666667,4,2,99,88,0,1
42828,-66.6666666666667,4,2,1,60,0,1
42909,-66.6666666666667,4,2,99,88,0,1
42990,-66.6666666666667,4,2,1,60,0,1
43071,-100,4,2,99,88,0,1
43395,-66.6666666666667,4,2,99,88,0,1
43882,-66.6666666666667,4,2,1,80,0,1
44044,-66.6666666666667,4,2,99,88,0,1
44125,-66.6666666666667,4,2,1,60,0,1
44206,-66.6666666666667,4,2,99,88,0,1
44287,-66.6666666666667,4,2,1,60,0,1
44368,-66.6666666666667,4,2,99,88,0,1
45422,-66.6666666666667,4,2,1,60,0,1
45503,-66.6666666666667,4,2,99,88,0,1
45584,-66.6666666666667,4,2,1,60,0,1
45666,-66.6666666666667,4,2,99,88,0,1
46720,-66.6666666666667,4,2,1,60,0,1
46801,-66.6666666666667,4,2,99,88,0,1
46882,-66.6666666666667,4,2,1,60,0,1
46963,-66.6666666666667,4,2,99,88,0,1
47287,-90.9090909090909,4,2,99,88,0,0
48260,-90.9090909090909,4,2,99,88,0,1
48584,-66.6666666666667,4,2,99,88,0,1
49314,-66.6666666666667,4,2,1,60,0,1
49395,-66.6666666666667,4,2,99,88,0,1
49476,-66.6666666666667,4,2,1,60,0,1
49557,-66.6666666666667,4,2,99,88,0,1
50611,-66.6666666666667,4,2,1,60,0,1
50693,-66.6666666666667,4,2,99,88,0,1
50774,-66.6666666666667,4,2,1,60,0,1
50855,-66.6666666666667,4,2,99,88,0,1
51909,-66.6666666666667,4,2,1,60,0,1
51990,-66.6666666666667,4,2,99,88,0,1
52071,-66.6666666666667,4,2,1,60,0,1
52152,-66.6666666666667,4,2,99,88,0,1
52557,-66.6666666666667,4,2,1,60,0,1
52639,-66.6666666666667,4,2,1,80,0,1
52720,-66.6666666666667,4,2,99,5,0,1
52801,-66.6666666666667,4,2,99,88,0,1
53044,-66.6666666666667,4,2,1,60,0,1
53125,-90.9090909090909,4,2,99,88,0,0
53774,-66.6666666666667,4,2,99,88,0,0
54017,-66.6666666666667,4,2,99,5,0,0
54098,-100,4,2,99,88,0,0
54422,-66.6666666666667,4,2,99,88,0,0
54665,-66.6666666666667,4,2,99,5,0,0
54747,-100,4,2,99,88,0,0
55071,-66.6666666666667,4,2,99,88,0,0
55314,-66.6666666666667,4,2,99,5,0,0
55395,-100,4,2,99,88,0,0
55557,-100,4,2,99,88,0,0
55720,-66.6666666666667,4,2,99,88,0,0
55963,-66.6666666666667,4,2,99,5,0,0
56044,-100,4,2,99,88,0,0
56368,-66.6666666666667,4,2,99,88,0,0
56611,-66.6666666666667,4,2,99,5,0,0
56693,-100,4,2,99,88,0,0
57017,-66.6666666666667,4,2,99,88,0,0
57260,-66.6666666666667,4,2,99,5,0,0
57341,-100,4,2,99,88,0,0
57666,-66.6666666666667,4,2,99,88,0,0
57909,-66.6666666666667,4,2,99,5,0,0
57990,-100,4,2,99,88,0,0
58314,-76.9230769230769,4,2,99,88,0,0
58557,-76.9230769230769,4,2,99,5,0,0
58639,-133.333333333333,4,2,99,88,0,0
58801,-133.333333333333,4,2,99,88,0,0
58963,-133.333333333333,4,2,99,88,0,1
59287,-79.9999999999999,4,2,99,88,0,1
59612,-57.1428571428571,4,2,99,88,0,1
59936,-133.333333333333,4,2,99,88,0,1
60260,-57.1428571428571,4,2,99,88,0,1
60584,-79.9999999999999,4,2,99,88,0,1
60909,-100,4,2,99,88,0,1
61233,-133.333333333333,4,2,99,88,0,1
61557,-57.1428571428571,4,2,99,88,0,1
61881,-79.9999999999999,4,2,1,80,0,1
61882,-79.9999999999999,4,2,99,88,0,1
62206,-100,4,2,99,88,0,1
62530,-133.333333333333,4,2,99,88,0,1
62855,-90.9090909090909,4,2,99,88,0,0
64152,-200,4,2,99,88,0,0
73233,-90.9090909090909,4,2,99,88,0,0
74530,-66.6666666666667,4,2,99,88,0,1
75260,-66.6666666666667,4,2,1,60,0,1
75341,-66.6666666666667,4,2,99,88,0,1
75422,-66.6666666666667,4,2,1,60,0,1
75503,-66.6666666666667,4,2,99,88,0,1
75990,-66.6666666666667,4,2,1,60,0,1
76152,-66.6666666666667,4,2,99,88,0,1
77449,-66.6666666666667,4,2,1,80,0,1
77612,-66.6666666666667,4,2,99,88,0,1
77855,-66.6666666666667,4,2,1,60,0,1
77936,-66.6666666666667,4,2,99,88,0,1
78017,-66.6666666666667,4,2,1,60,0,1
78098,-66.6666666666667,4,2,99,88,0,1
78584,-66.6666666666667,4,2,1,80,0,1
78747,-66.6666666666667,4,2,99,88,0,1
79720,-66.6666666666667,4,2,99,88,0,0
79963,-66.6666666666667,4,2,99,5,0,0
80044,-79.9999999999999,4,2,99,88,0,0
80287,-79.9999999999999,4,2,99,5,0,0
80368,-100,4,2,99,88,0,0
80611,-100,4,2,99,5,0,0
80693,-133.333333333333,4,2,99,88,0,0
80936,-133.333333333333,4,2,99,5,0,0
81017,-133.333333333333,4,2,99,88,0,0
81260,-133.333333333333,4,2,99,5,0,0
81341,-100,4,2,99,88,0,0
81584,-100,4,2,99,5,0,0
81666,-79.9999999999999,4,2,99,88,0,0
81909,-79.9999999999999,4,2,99,5,0,0
81990,-133.333333333333,4,2,99,88,0,0
82233,-133.333333333333,4,2,99,5,0,0
82314,-79.9999999999999,4,2,99,88,0,0
82557,-79.9999999999999,4,2,99,5,0,0
82639,-100,4,2,99,88,0,0
82801,-100,4,2,1,60,0,0
82882,-133.333333333333,4,2,99,5,0,0
82963,-100,4,2,99,88,0,0
83206,-100,4,2,99,5,0,0
83287,-133.333333333333,4,2,99,88,0,0
83530,-133.333333333333,4,2,99,5,0,0
83612,-79.9999999999999,4,2,99,88,0,0
83855,-79.9999999999999,4,2,99,5,0,0
83936,-133.333333333333,4,2,99,88,0,0
84098,-133.333333333333,4,2,1,60,0,0
84179,-133.333333333333,4,2,1,50,0,0
84260,-79.9999999999999,4,2,99,88,0,0
84422,-79.9999999999999,4,2,1,60,0,0
84584,-133.333333333333,4,2,99,88,0,0
84746,-133.333333333333,4,2,1,60,0,0
84909,-90.9090909090909,4,2,99,88,0,1
87341,-90.9090909090909,4,2,1,80,0,1
87503,-142.857142857143,4,2,99,88,0,0
88801,-285.714285714286,4,2,99,88,0,0
89125,-285.714285714286,4,2,1,5,0,0

[Colours]
Combo1 : 26,116,242
Combo2 : 164,32,240
Combo3 : 37,185,239
Combo4 : 23,209,116
Combo5 : 255,75,255

[HitObjects]
365,30,585,6,0,L|356:150,1,95,4|0,1:2|0:0,0:0:0:0:
428,351,909,2,0,B|443:324|443:324|431:251,1,95,10|0,0:0|0:0,0:0:0:0:
364,213,1152,1,0,0:0:0:0:
364,213,1233,1,2,1:2:0:0:
284,299,1395,1,0,1:0:0:0:
116,228,1557,2,0,B|167:231|167:231|169:237|169:237|239:241,1,95,10|0,0:0|0:0,0:0:0:0:
17,347,1882,6,0,P|17:295|47:256,1,95,2|0,1:2|1:0,0:0:0:0:
239,216,2206,2,0,B|201:213|201:213|199:207|199:207|148:204,1,95,10|0,0:0|0:0,0:0:0:0:
62,159,2449,1,0,0:0:0:0:
62,159,2530,1,2,1:2:0:0:
136,303,2693,1,0,1:0:0:0:
187,76,2855,2,0,P|164:123|181:191,1,95,10|0,0:0|0:0,0:0:0:0:
373,192,3179,5,4,1:2:0:0:
251,139,3341,1,0,0:0:0:0:
314,322,3503,5,4,1:3:0:0:
205,360,3666,1,0,0:0:0:0:
13,257,3828,5,4,1:3:0:0:
227,276,3990,1,0,0:0:0:0:
121,45,4152,2,0,B|107:85|107:85|114:147,1,95,4|0,1:3|0:0,0:0:0:0:
393,202,4476,5,2,1:2:0:0:
21,140,4639,1,0,1:0:0:0:
201,106,4801,1,0,3:0:0:0:
200,117,4882,1,0,3:0:0:0:
199,129,4963,1,0,3:0:0:0:
198,141,5044,1,0,3:0:0:0:
150,206,5125,5,0,1:0:0:0:
498,58,5287,1,2,1:3:0:0:
377,11,5774,6,0,B|367:43|367:43|376:89,1,76,4|0,1:0|0:0,0:0:0:0:
488,164,6098,2,0,P|458:149|395:161,1,76,0|0,1:0|0:0,0:0:0:0:
358,217,6422,2,0,B|365:260|365:260|364:262|364:262|374:320,1,76,0|0,1:0|0:0,0:0:0:0:
178,375,6747,2,0,B|164:353|164:353|177:297,1,76,0|0,1:0|0:0,0:0:0:0:
252,219,7071,6,0,B|216:200|179:216|192:230|149:248|102:224,1,152,0|0,1:0|1:0,0:0:0:0:
13,142,7557,1,0,0:0:0:0:
63,236,7720,2,0,L|68:297,1,47.5,0|0,1:0|0:0,0:0:0:0:
149,75,8044,2,0,L|142:154,1,76,0|0,1:0|0:0,0:0:0:0:
62,315,8368,5,0,1:0:0:0:
223,289,8530,1,0,0:0:0:0:
162,350,8693,1,0,1:0:0:0:
218,205,8855,1,0,0:0:0:0:
295,338,9017,2,0,B|329:333|329:333|337:328|337:328|370:325,1,76,0|0,1:0|0:0,0:0:0:0:
450,345,9260,1,0,0:0:0:0:
450,345,9341,1,0,1:0:0:0:
301,255,9503,1,0,0:0:0:0:
408,179,9666,5,0,1:0:0:0:
306,227,9828,1,0,0:0:0:0:
243,49,9990,1,0,1:0:0:0:
325,145,10152,1,0,0:0:0:0:
448,24,10314,2,0,B|456:59|456:59|438:121,1,76,0|0,1:0|0:0,0:0:0:0:
346,138,10639,1,0,1:0:0:0:
442,122,10801,1,0,0:0:0:0:
496,253,10963,6,0,B|474:268|474:268|360:259,1,113.999996520996,0|0,1:0|0:0,0:0:0:0:
188,176,11287,2,0,L|251:183,1,56.9999982604981,0|0,1:0|0:0,0:0:0:0:
356,109,11612,2,0,P|326:158|339:255,1,113.999996520996,0|0,1:0|0:0,0:0:0:0:
277,375,11936,2,0,P|273:347|250:309,1,56.9999982604981,0|0,1:0|0:0,0:0:0:0:
168,277,12260,6,0,B|111:276|111:276|82:295|82:295|7:292,1,152,0|0,1:0|1:0,0:0:0:0:
141,354,12747,1,0,0:0:0:0:
34,130,12909,1,0,1:0:0:0:
53,217,13071,1,0,0:0:0:0:
174,18,13233,1,0,1:0:0:0:
119,160,13395,1,2,0:0:0:0:
119,160,13476,1,0,0:0:0:0:
119,160,13557,5,0,1:0:0:0:
26,98,13720,1,0,0:0:0:0:
162,53,13882,2,0,B|207:55|207:55|211:59|211:59|271:61,1,85.4999973907472,0|0,1:0|0:0,0:0:0:0:
313,15,14206,1,0,1:0:0:0:
236,199,14368,1,0,0:0:0:0:
366,277,14530,1,0,1:0:0:0:
471,202,14693,1,0,0:0:0:0:
471,202,14774,1,0,0:0:0:0:
471,202,14855,5,0,1:0:0:0:
427,317,15017,2,0,L|363:316,1,56.9999982604981,0|2,0:0|0:0,0:0:0:0:
505,278,15341,1,0,0:0:0:0:
270,355,15503,2,0,L|218:355,1,38,0|0,1:0|0:0,0:0:0:0:
358,108,15828,6,0,P|353:136|356:157,1,42.7499986953736,2|0,0:0|0:0,0:0:0:0:
411,219,16152,6,0,P|374:195|299:211,1,95,4|0,1:2|0:0,0:0:0:0:
215,268,16476,2,0,B|235:245|235:245|224:160,1,95,8|0,0:0|0:0,0:0:0:0:
165,102,16720,1,0,0:0:0:0:
165,102,16801,1,0,1:0:0:0:
279,126,16963,1,0,1:0:0:0:
30,206,17125,2,0,P|25:146|52:99,1,95,8|0,0:0|0:0,0:0:0:0:
220,43,17449,6,0,B|198:18|159:6|118:20|95:52|95:52|72:32|26:33,1,190,0|8,1:0|0:0,0:0:0:0:
121,169,17936,1,0,0:0:0:0:
21,239,18098,1,0,1:0:0:0:
118,190,18260,1,0,1:0:0:0:
181,342,18422,2,0,B|232:338|232:338|236:334|236:334|291:330,1,95,8|2,0:0|0:0,0:0:0:0:
448,243,18747,5,0,1:0:0:0:
328,227,18909,1,0,1:0:0:0:
359,337,19071,1,8,0:0:0:0:
450,335,19233,1,0,0:0:0:0:
450,335,19314,1,0,0:0:0:0:
450,335,19395,5,0,1:0:0:0:
323,208,19557,1,0,1:0:0:0:
191,360,19720,1,8,0:0:0:0:
282,300,19882,1,0,0:0:0:0:
161,144,20044,5,0,1:0:0:0:
85,330,20206,1,0,1:0:0:0:
55,121,20368,2,0,P|97:106|151:140,1,95,8|0,0:0|0:0,0:0:0:0:
190,226,20612,1,0,0:0:0:0:
190,226,20693,2,0,L|187:159,1,35.625001358986,0|0,1:0|0:0,0:0:0:0:
265,200,20855,2,0,L|262:132,1,35.625001358986,0|0,1:0|0:0,0:0:0:0:
410,82,21017,2,0,P|355:52|285:104,1,113.999996520996,8|2,0:0|0:0,0:0:0:0:
293,220,21341,6,0,B|326:225|335:256|335:256|354:231|406:231,1,113.999996520996,4|0,1:2|0:0,0:0:0:0:
221,162,21666,2,0,B|201:200|201:200|209:257,1,71.2500027179719,8|0,0:0|0:0,0:0:0:0:
253,290,21909,1,2,0:0:0:0:
247,309,21990,2,0,P|201:301|151:328,1,95,0|0,1:0|1:0,0:0:0:0:
333,375,22314,2,0,B|353:354|353:354|335:278,1,95,8|0,0:0|0:0,0:0:0:0:
221,162,22639,6,0,P|276:93|371:124,1,190,0|8,1:0|0:0,0:0:0:0:
410,264,23125,1,0,0:0:0:0:
503,79,23287,1,0,1:0:0:0:
418,182,23449,1,0,1:0:0:0:
322,18,23612,2,0,B|283:16|283:16|264:28|264:28|220:25,1,95,8|0,0:0|0:0,0:0:0:0:
141,0,23855,1,0,0:0:0:0:
141,0,23936,5,0,1:0:0:0:
163,105,24098,1,0,1:0:0:0:
0,164,24260,1,8,0:0:0:0:
133,108,24422,1,0,0:0:0:0:
133,108,24503,1,0,0:0:0:0:
133,108,24584,1,0,1:0:0:0:
168,307,24747,1,0,1:0:0:0:
40,360,24909,1,8,0:0:0:0:
103,205,25071,1,0,0:0:0:0:
259,347,25233,5,0,1:0:0:0:
385,329,25395,2,0,L|327:325,1,47.5,0|0,1:0|0:0,0:0:0:0:
253,266,25557,2,0,B|295:271|295:271|306:280|306:280|362:284,1,95,8|0,0:0|1:0,0:0:0:0:
500,67,25882,1,8,0:0:0:0:
512,244,26530,6,0,P|470:214|397:226,1,113.999996520996,4|0,1:0|0:0,0:0:0:0:
360,303,27017,1,0,1:0:0:0:
370,328,27179,2,0,B|318:325|318:325|297:335|297:335|241:332,1,113.999996520996,0|0,3:0|0:0,0:0:0:0:
98,296,27666,1,0,3:0:0:0:
108,310,27828,2,0,L|197:305,1,76,0|0,1:0|0:0,0:0:0:0:
262,208,28476,6,0,P|250:225|245:249,1,38,0|0,3:0|0:0,0:0:0:0:
162,163,28801,2,0,P|153:204|163:247,1,66.4999979705811,0|0,0:0|3:0,0:0:0:0:
351,250,29125,2,0,P|362:205|338:147,1,95,0|0,1:0|0:0,0:0:0:0:
196,80,29449,1,0,1:0:0:0:
218,78,29612,1,0,1:0:0:0:
103,29,29774,6,0,B|119:46|119:46|113:108,1,71.2500027179719,0|0,3:0|0:0,0:0:0:0:
22,138,30098,1,0,0:0:0:0:
22,138,30260,1,0,3:0:0:0:
166,202,30422,2,0,P|98:183|50:235,1,142.500005435944,0|0,1:0|0:0,0:0:0:0:
164,284,30909,1,0,1:0:0:0:
82,307,31071,6,0,B|115:304|115:304|125:308|125:308|176:304,1,71.2500027179719,0|0,3:0|0:0,0:0:0:0:
145,345,31314,1,0,0:0:0:0:
160,350,31395,1,0,1:0:0:0:
12,379,31557,1,0,3:0:0:0:
252,202,31720,6,0,P|196:176|151:244,1,142.500005435944,0|0,1:0|0:0,0:0:0:0:
278,359,32206,1,0,1:0:0:0:
325,283,32368,2,0,B|351:271|351:271|425:286,1,95,0|0,3:0|0:0,0:0:0:0:
463,347,32855,1,4,0:3:0:0:
459,355,33017,6,0,P|435:280|461:206,1,142.500005435944,0|0,1:0|0:0,0:0:0:0:
512,32,33666,2,0,P|476:57|427:54,1,71.2500027179719,0|0,3:0|0:0,0:0:0:0:
360,37,33990,2,0,P|350:21|346:0,1,35.625001358986
313,102,34152,1,0,3:0:0:0:
221,35,34314,6,0,P|235:70|215:128,1,71.2500027179719,0|0,1:0|0:0,0:0:0:0:
104,137,34639,1,0,1:0:0:0:
122,128,34801,2,0,L|163:132,1,35.625001358986,0|0,1:0|0:0,0:0:0:0:
80,53,34963,1,0,3:0:0:0:
37,177,35125,2,0,L|46:269,1,71.2500027179719
18,343,35449,1,0,1:0:0:0:
6,353,35612,5,0,3:0:0:0:
124,286,35774,1,0,3:0:0:0:
134,289,35855,1,8,0:3:0:0:
144,292,35936,1,0,0:0:0:0:
199,356,36098,1,4,0:3:0:0:
240,247,36260,6,0,L|282:244,1,35.625001358986,0|0,3:0|0:0,0:0:0:0:
357,289,36422,2,0,L|385:291,2,17.812500679493,0|0|0,1:0|3:0|3:0,0:0:0:0:
384,189,36584,1,0,3:0:0:0:
448,360,36747,1,0,3:0:0:0:
329,359,36909,6,0,P|326:333|335:301,1,53.4375020384789,0|0,1:0|0:0,0:0:0:0:
316,284,37071,5,0,3:0:0:0:
329,283,37152,2,0,P|345:262|374:246,1,53.4375020384789,0|0,1:0|0:0,0:0:0:0:
369,220,37314,5,0,3:0:0:0:
381,228,37395,2,0,P|406:222|439:228,1,53.4375020384789,0|0,1:0|0:0,0:0:0:0:
492,285,37557,5,0,3:0:0:0:
220,337,37720,1,0,1:0:0:0:
353,36,37882,2,0,B|354:70|354:70|349:77|349:77|350:114,1,71.25,2|0,1:3|0:0,0:0:0:0:
437,156,38206,6,0,B|409:131|361:113|315:130|288:169|288:169|278:165|278:165|237:211|171:185,1,285.000010871888,4|10,1:0|0:0,0:0:0:0:
40,80,38693,1,0,0:0:0:0:
89,206,38855,2,0,P|42:203|1:225,1,95,2|0,1:2|1:0,0:0:0:0:
59,381,39179,2,0,P|92:310|167:275,1,142.500005435944,10|0,0:0|0:0,0:0:0:0:
390,323,39503,6,0,B|428:348|410:390|362:399|298:385|268:293|332:202,1,285.000010871888,2|10,1:2|0:0,0:0:0:0:
512,78,39990,1,0,0:0:0:0:
512,78,40071,1,2,0:0:0:0:
512,78,40152,2,0,P|486:107|446:118,1,71.2500027179719,2|0,1:2|0:0,0:0:0:0:
362,144,40314,2,0,P|323:135|294:106,1,71.2500027179719,0|0,1:0|0:0,0:0:0:0:
217,0,40476,2,0,B|230:44|230:44|195:163,1,142.500005435944,10|0,0:0|0:0,0:0:0:0:
15,254,40801,6,0,B|37:207|111:193|156:248|154:299|154:299|153:343|171:358|201:366,1,285.000010871888,2|10,1:2|0:0,0:0:0:0:
482,325,41287,1,0,0:0:0:0:
459,312,41368,1,0,0:0:0:0:
433,311,41449,2,0,P|393:320|369:361,1,71.2500027179719,2|0,1:2|0:0,0:0:0:0:
279,312,41612,2,0,L|273:227,1,71.2500027179719,0|0,1:0|0:0,0:0:0:0:
327,60,41774,2,0,B|348:42|348:42|334:176,1,142.5,10|0,0:0|0:0,0:0:0:0:
190,176,42098,6,0,P|229:160|272:172,1,71.2500027179719,2|0,1:2|0:0,0:0:0:0:
424,231,42260,2,0,B|402:242|402:242|343:229,1,71.2500027179719,4|0,0:3|0:0,0:0:0:0:
173,19,42422,2,0,P|200:84|190:170,1,142.5,10|0,0:0|0:0,0:0:0:0:
109,192,42747,6,0,P|149:179|191:195,1,71.2500027179719,2|0,1:2|0:0,0:0:0:0:
353,147,42909,2,0,B|331:136|331:136|272:149,1,71.2500027179719,0|0,1:0|0:0,0:0:0:0:
412,306,43071,2,0,P|426:266|394:191,1,95,10|0,0:0|0:0,0:0:0:0:
110,347,43395,6,0,B|57:358|31:301|125:249|186:323|144:357|221:384|283:348,1,285.000010871888,4|10,1:0|0:0,0:0:0:0:
353,147,43882,1,2,0:0:0:0:
428,274,44044,2,0,P|432:232|414:198,1,71.2500027179719,2|0,1:2|0:0,0:0:0:0:
340,157,44206,2,0,P|336:115|354:81,1,71.2500027179719,0|0,1:0|0:0,0:0:0:0:
512,46,44368,2,0,P|455:2|369:24,1,142.500005435944,10|0,0:0|0:0,0:0:0:0:
233,109,44693,6,0,B|173:90|113:115|149:137|76:162|1:142|16:59|83:35|131:77|112:119,1,285.000010871888,2|10,1:2|0:0,0:0:0:0:
134,301,45179,1,0,0:0:0:0:
124,315,45260,1,0,0:0:0:0:
109,323,45341,2,0,P|65:324|18:295,1,71.2500027179719,2|0,1:2|0:0,0:0:0:0:
191,192,45503,2,0,B|206:219|206:219|198:288,1,71.2500027179719,0|0,1:0|0:0,0:0:0:0:
259,378,45666,2,0,B|265:316|265:316|273:315|273:315|285:209,1,142.500005435944,10|0,0:0|0:0,0:0:0:0:
412,80,45990,6,0,B|440:24|402:-23|359:16|370:53|400:93|432:132|457:95|471:172|448:228,1,285.000010871888,2|10,1:2|0:0,0:0:0:0:
300,312,46476,1,0,0:0:0:0:
312,300,46557,1,0,0:0:0:0:
328,294,46639,2,0,P|361:286|414:305,1,71.2500027179719,2|0,1:2|0:0,0:0:0:0:
510,369,46801,2,0,B|492:350|492:350|484:255,1,71.2500027179719,0|0,1:0|0:0,0:0:0:0:
443,75,46963,2,0,B|469:119|469:119|450:243,1,142.500005435944,12|0,0:0|0:0,0:0:0:0:
108,296,47287,5,2,1:3:0:0:
489,218,47449,1,2,1:3:0:0:
76,199,47936,5,2,1:3:0:0:
375,212,48098,1,12,0:0:0:0:
181,77,48260,5,0,3:0:0:0:
160,104,48341,1,0,3:0:0:0:
153,138,48422,1,0,3:0:0:0:
163,171,48503,1,0,3:0:0:0:
152,209,48584,6,0,B|153:262|104:317|15:256|91:195|168:244|205:257|176:277|217:308|286:280,1,285.000010871888,4|10,1:0|0:0,0:0:0:0:
462,215,49071,1,0,0:0:0:0:
360,356,49233,2,0,B|344:335|344:335|349:272,1,71.2500027179719,2|0,1:2|0:0,0:0:0:0:
450,147,49395,2,0,P|465:186|458:224,1,71.2500027179719,0|0,1:0|0:0,0:0:0:0:
239,136,49557,2,0,B|299:125|299:125|329:147|329:147|386:137,1,142.500005435944,10|0,0:0|0:0,0:0:0:0:
498,0,49882,6,0,B|460:5|430:30|427:57|423:100|423:100|414:279,1,285.000010871888,2|10,1:2|0:0,0:0:0:0:
253,345,50368,1,0,0:0:0:0:
97,286,50530,2,0,P|135:269|192:286,1,71.2500027179719,2|0,1:2|0:0,0:0:0:0:
314,321,50693,2,0,B|287:334|287:334|200:314,1,71.2500027179719,0|0,1:0|0:0,0:0:0:0:
181,159,50855,2,0,P|250:172|259:274,1,142.500005435944,10|0,0:0|0:0,0:0:0:0:
27,355,51179,6,0,B|16:275|85:245|85:245|126:197|94:144|94:144|97:174|82:194,1,285.000010871888,2|10,1:2|0:0,0:0:0:0:
190,242,51666,1,0,0:0:0:0:
0,82,51828,2,0,P|0:130|20:161,1,71.2500027179719,2|0,1:2|0:0,0:0:0:0:
110,165,51990,2,0,P|160:162|213:155,1,71.2500027179719,0|0,1:0|0:0,0:0:0:0:
331,57,52152,2,0,B|297:71|297:71|264:128|301:205,1,142.500005435944,10|0,0:0|0:0,0:0:0:0:
476,308,52476,6,0,P|448:294|390:298,1,71.2500027179719,2|0,1:2|0:0,0:0:0:0:
216,366,52639,2,0,B|252:367|252:367|298:345,1,71.2500027179719,4|0,0:3|0:0,0:0:0:0:
450,162,52801,6,0,P|360:124|300:210,1,213.750008153916,12|0,0:0|0:0,0:0:0:0:
332,301,53125,1,0,1:0:0:0:
308,290,53206,1,0,1:0:0:0:
282,285,53287,1,0,3:0:0:0:
256,287,53368,1,0,3:0:0:0:
225,313,53449,5,0,3:0:0:0:
235,262,53530,1,0,3:0:0:0:
220,212,53612,1,0,3:0:0:0:
185,174,53693,1,0,3:0:0:0:
108,168,53774,6,0,P|46:253|98:338,1,213.750008153916,4|0,1:0|0:0,0:0:0:0:
200,302,54098,2,0,B|240:288|240:288|297:297,1,95,8|0,1:3|0:0,0:0:0:0:
469,370,54422,6,0,P|393:302|399:191,1,213.750008153916,4|0,0:3|0:0,0:0:0:0:
512,59,54747,2,0,B|481:79|481:79|397:64,1,95,8|0,1:3|0:0,0:0:0:0:
296,37,55071,6,0,B|329:33|354:-1|354:-1|301:76|359:140,1,213.750008153916,4|0,0:3|0:0,0:0:0:0:
484,192,55395,2,0,P|440:180|383:209,1,95,8|0,1:3|0:0,0:0:0:0:
329,293,55720,6,0,B|315:323|332:362|332:362|292:277|208:296,1,213.750008153916,4|0,0:3|0:0,0:0:0:0:
16,343,56044,2,0,P|60:349|108:321,1,95,8|0,1:3|0:0,0:0:0:0:
176,182,56368,6,0,B|149:201|144:243|144:243|152:150|69:124,1,213.750008153916,4|0,1:0|0:0,0:0:0:0:
0,0,56693,2,0,P|35:35|95:40,1,95,8|0,1:3|0:0,0:0:0:0:
208,71,57017,6,0,B|241:66|265:32|265:32|212:110|270:173,1,213.750008153916,4|0,0:3|0:0,0:0:0:0:
458,220,57341,2,0,P|413:209|360:230,1,95,8|0,1:3|0:0,0:0:0:0:
290,383,57666,6,0,P|358:324|330:191,1,213.750008153916,4|0,0:3|0:0,0:0:0:0:
150,123,57990,2,0,P|192:150|260:126,1,95,8|0,1:3|0:0,0:0:0:0:
425,34,58314,6,0,P|339:55|378:141,1,185.249991519928,4|0,0:3|0:0,0:0:0:0:
505,213,58639,2,0,P|469:203|413:219,1,71.2500027179719,8|0,1:3|0:0,0:0:0:0:
359,349,58963,6,0,B|373:327|373:327|363:253,1,71.2500027179719,12|0,0:0|1:0,0:0:0:0:
269,346,59287,2,0,B|289:313|289:313|273:205,1,118.75,10|0,0:0|1:0,0:0:0:0:
183,337,59612,2,0,B|204:303|204:303|185:161,1,166.250001585484,10|0,0:0|1:0,0:0:0:0:
47,6,59936,2,0,L|43:80,1,71.2500027179719,10|0,0:0|1:0,0:0:0:0:
0,211,60260,6,0,P|65:157|157:201,1,166.250001585484,10|0,0:0|0:0,0:0:0:0:
164,52,60584,2,0,P|217:92|219:157,1,118.75,10|0,0:0|1:0,0:0:0:0:
344,121,60909,2,0,P|329:171|281:202,1,95,10|0,0:0|1:0,0:0:0:0:
330,291,61233,2,0,P|291:296|254:267,1,71.2500027179719,10|0,0:0|0:0,0:0:0:0:
428,41,61557,6,0,B|457:87|457:87|432:222,1,166.250001585484,4|0,1:0|0:0,0:0:0:0:
177,384,61882,2,0,L|160:256,1,118.75,10|0,0:0|1:0,0:0:0:0:
377,101,62206,2,0,L|358:198,1,95,10|0,0:0|1:0,0:0:0:0:
264,280,62530,2,0,P|298:265|351:277,1,71.2500027179719,10|0,0:0|0:0,0:0:0:0:
413,340,62855,5,2,1:3:0:0:
47,277,63017,1,2,1:3:0:0:
273,31,63503,5,2,1:3:0:0:
311,343,63666,1,2,1:3:0:0:
157,233,64152,5,4,1:0:0:0:
73,116,73233,5,2,1:3:0:0:
450,236,73395,1,2,1:3:0:0:
52,23,73882,5,2,1:3:0:0:
322,336,74044,1,2,1:3:0:0:
97,291,74368,5,0,0:0:0:0:
23,259,74530,6,0,B|54:205|112:193|185:225|172:303|172:303|197:274|243:263,1,285.000010871888,4|10,1:0|0:0,0:0:0:0:
489,278,75017,1,0,0:0:0:0:
482,293,75098,1,0,0:0:0:0:
473,306,75179,2,0,P|433:319|396:300,1,71.2500027179719,2|0,1:2|0:0,0:0:0:0:
368,113,75341,2,0,B|380:134|380:134|372:221,1,71.2500027179719,0|0,1:0|0:0,0:0:0:0:
250,355,75503,2,0,B|245:292|245:292|251:281|251:281|243:170,1,142.500005435944,10|0,0:0|0:0,0:0:0:0:
58,17,75828,5,2,1:2:0:0:
123,191,75990,1,0,0:0:0:0:
232,84,76152,2,0,B|264:77|291:96|291:96|300:89|300:89|326:108|375:95,1,142.500005435944,10|0,0:0|0:0,0:0:0:0:
506,0,76476,5,2,1:2:0:0:
409,194,76639,1,0,1:0:0:0:
501,333,76801,2,0,B|468:311|468:311|348:335,1,142.500005435944,10|0,0:0|0:0,0:0:0:0:
82,347,77125,6,0,B|126:341|153:365|153:365|211:343|211:343|222:332|222:332|289:314|289:314|318:338|365:325,1,285.000010871888,4|8,1:2|0:0,0:0:0:0:
44,231,77612,1,0,0:0:0:0:
202,260,77774,2,0,P|209:222|177:163,1,71.2500027179719,2|0,1:2|0:0,0:0:0:0:
10,123,77936,2,0,B|40:142|40:142|105:137,1,71.2500027179719,0|0,1:0|0:0,0:0:0:0:
202,33,78098,2,0,P|159:90|180:181,1,142.500005435944,10|0,0:0|0:0,0:0:0:0:
403,302,78422,5,2,1:2:0:0:
290,200,78584,1,4,0:3:0:0:
473,50,78747,2,0,B|502:94|502:94|487:201,1,142.500005435944,12|0,0:0|0:0,0:0:0:0:
382,331,79071,6,0,P|346:317|307:319,1,71.2500027179719,0|0,1:0|1:0,0:0:0:0:
225,262,79233,2,0,P|186:267|154:289,1,71.2500027179719,0|0,3:0|3:0,0:0:0:0:
57,377,79395,1,0,3:0:0:0:
72,355,79476,1,0,3:0:0:0:
81,330,79557,1,0,3:0:0:0:
82,303,79639,1,0,3:0:0:0:
74,278,79720,6,0,B|61:248|29:226|29:226|39:233|39:233|100:274|144:262|197:229,1,213.750008153916,4|0,1:0|0:0,0:0:0:0:
216,165,80044,2,0,B|232:125|210:75|210:75|236:128|298:143,1,178.125,8|0,1:3|0:0,0:0:0:0:
363,139,80368,2,0,B|394:127|414:94|414:94|395:134|412:183,1,142.5,4|0,0:3|0:0,0:0:0:0:
466,230,80693,2,0,B|498:235|523:225|523:225|496:242|487:276,1,106.875004076958,8|0,1:3|0:0,0:0:0:0:
428,363,81017,6,0,B|433:330|423:305|423:305|440:332|459:337,1,106.875004076958,4|0,0:3|0:0,0:0:0:0:
399,293,81341,2,0,P|376:227|406:165,1,142.500005435944,8|0,1:3|0:0,0:0:0:0:
494,118,81666,2,0,B|466:123|445:97|445:97|406:170|318:136,1,178.125,4|0,0:3|0:0,0:0:0:0:
279,81,81990,2,0,P|310:115|301:181,1,106.875004076958,8|0,1:3|0:0,0:0:0:0:
239,232,82314,6,0,B|166:227|166:227|152:205|152:205|56:215,1,178.125,4|0,1:2|0:0,0:0:0:0:
0,269,82639,2,0,B|37:263|37:263|52:248|52:248|96:244,1,95,8|0,1:3|0:0,0:0:0:0:
153,89,82882,1,0,0:0:0:0:
153,89,82963,2,0,B|135:80|125:63|125:63|155:112|143:177,1,142.5,4|0,0:3|0:0,0:0:0:0:
66,174,83287,2,0,P|122:169|167:221,1,106.875004076958,8|0,1:3|0:0,0:0:0:0:
186,278,83612,6,0,B|196:240|187:223|187:223|195:224|195:224|247:195|247:195|251:190|251:190|268:212|303:224,1,178.125,4|0,0:3|0:0,0:0:0:0:
334,302,83936,1,10,1:3:0:0:
434,291,84098,1,0,0:0:0:0:
505,216,84260,6,0,B|480:224|471:251|474:277|474:277|481:336,1,118.75,6|0,0:3|0:0,0:0:0:0:
352,36,84584,2,0,B|375:60|375:60|368:120,1,71.2500027179719,10|0,1:3|0:0,0:0:0:0:
285,183,84909,5,12,0:0:0:0:
165,123,85071,1,0,1:0:0:0:
0,275,85233,1,10,0:0:0:0:
112,243,85395,1,0,1:0:0:0:
149,26,85557,1,10,0:0:0:0:
226,268,85720,1,0,1:0:0:0:
290,88,85882,1,10,0:0:0:0:
392,217,86044,1,0,0:0:0:0:
465,8,86206,5,10,0:0:0:0:
296,181,86368,1,0,1:0:0:0:
419,352,86530,1,10,0:0:0:0:
415,223,86693,1,0,1:0:0:0:
212,356,86855,1,10,0:0:0:0:
83,308,87017,1,0,0:0:0:0:
26,120,87179,1,10,0:0:0:0:
0,364,87341,1,2,0:0:0:0:
256,173,87503,6,0,B|240:133|240:133|207:207|207:207|202:206|202:206|172:263|172:263|165:269|165:269|175:266|175:266|246:263|246:263|253:253|253:253|290:281|290:281|295:271|295:271|362:264,1,398.999987823487
496,180,88801,2,0,P|481:211|479:244,1,66.4999979705811
