osu file format v14

[General]
AudioFilename: audio.mp3
AudioLeadIn: 0
PreviewTime: 37963
Countdown: 0
SampleSet: Soft
StackLeniency: 0.4
Mode: 0
LetterboxInBreaks: 0
WidescreenStoryboard: 1

[Editor]
Bookmarks: 56693
DistanceSpacing: 1.3
BeatDivisor: 4
GridSize: 8
TimelineZoom: 1.8

[Metadata]
Title:Inferno (TV Size)
TitleUnicode:インフェルノ (TV Size)
Artist:Mrs. GREEN APPLE
ArtistUnicode:Mrs. GREEN APPLE
Creator:sanairrt
Version:Kowari's Hard
Source:炎炎ノ消防隊
Tags:fire force brigade of flames enen no shouboutai opening op anime japanese male vocal Akitoshi Livia Creamy Candy Kowari TimeCapsule TheBlank
BeatmapID:2234392
BeatmapSetID:1066094

[Difficulty]
HPDrainRate:4.5
CircleSize:4
OverallDifficulty:6.5
ApproachRate:8
SliderMultiplier:1.41
SliderTickRate:1

[Events]
//Background and Video events
0,0,"BG.jpg",0,0
//Break Periods
2,64352,72483
//Storyboard Layer 0 (Background)
//Storyboard Layer 1 (Fail)
//Storyboard Layer 2 (Pass)
//Storyboard Layer 3 (Foreground)
//Storyboard Layer 4 (Overlay)
//Storyboard Sound Samples

[TimingPoints]
585,324.324324324324,4,2,99,88,1,0
585,-100,4,2,99,88,0,0
1719,-100,4,2,99,88,0,0
1882,-100,4,2,99,88,0,0
3017,-100,4,2,1,60,0,0
3179,-100,4,2,99,88,0,0
5612,-100,4,2,1,60,0,0
5774,-125,4,2,99,75,0,0
8206,-125,4,2,1,60,0,0
8368,-125,4,2,99,75,0,0
8855,-125,4,2,1,60,0,0
9017,-125,4,2,99,75,0,0
9503,-125,4,2,1,60,0,0
9666,-125,4,2,99,75,0,0
11449,-125,4,2,1,60,0,0
11612,-125,4,2,99,75,0,0
13476,-125,4,2,1,60,0,0
13557,-125,4,2,99,75,0,0
16152,-111.111111111111,4,2,99,75,0,0
16639,-111.111111111111,4,2,1,70,0,0
16801,-111.111111111111,4,2,99,75,0,0
17287,-111.111111111111,4,2,99,75,0,0
17449,-111.111111111111,4,2,99,75,0,0
18584,-111.111111111111,4,2,1,70,0,0
18747,-111.111111111111,4,2,99,75,0,0
20612,-111.111111111111,4,2,1,70,0,0
20693,-111.111111111111,4,2,99,75,0,0
21179,-111.111111111111,4,2,1,70,0,0
21341,-111.111111111111,4,2,99,75,0,0
21909,-111.111111111111,4,2,1,70,0,0
21990,-111.111111111111,4,2,99,75,0,0
22476,-111.111111111111,4,2,99,75,0,0
22639,-111.111111111111,4,2,99,75,0,0
24503,-111.111111111111,4,2,99,5,0,0
24584,-111.111111111111,4,2,99,75,0,0
26530,-142.857142857143,4,2,99,60,0,0
26854,-142.857142857143,4,2,1,60,0,0
27017,-142.857142857143,4,2,99,60,0,0
29936,-142.857142857143,4,2,1,60,0,0
30098,-142.857142857143,4,2,99,60,0,0
30746,-142.857142857143,4,2,1,60,0,0
30909,-142.857142857143,4,2,99,60,0,0
32855,-142.857142857143,4,2,1,60,0,0
33017,-142.857142857143,4,2,99,60,0,0
35125,-142.857142857143,4,2,1,60,0,0
35449,-142.857142857143,4,2,99,60,0,0
35612,-142.857142857143,4,2,99,60,0,0
35774,-100,4,2,0,60,0,0
35855,-100,4,2,99,60,0,0
37882,-166.666666666667,4,2,99,60,0,0
38125,-333.333333333333,4,2,1,60,0,0
38206,-90.9090909090909,4,2,99,88,0,1
40720,-90.9090909090909,4,2,1,80,0,1
40801,-90.9090909090909,4,2,99,88,0,1
42260,-90.9090909090909,4,2,1,80,0,1
42422,-90.9090909090909,4,2,99,88,0,1
43882,-90.9090909090909,4,2,1,80,0,1
44044,-90.9090909090909,4,2,99,88,0,1
47287,-100,4,2,99,88,0,0
48260,-90.9090909090909,4,2,99,88,0,1
51098,-90.9090909090909,4,2,1,80,0,1
51179,-90.9090909090909,4,2,99,88,0,1
52639,-90.9090909090909,4,2,1,80,0,1
52719,-100,4,2,1,5,0,1
52720,-100,4,2,1,5,0,1
52801,-100,4,2,99,88,0,1
53125,-100,4,2,99,88,0,0
53774,-100,4,2,99,88,0,0
55882,-100,4,2,1,80,0,0
56044,-100,4,2,99,88,0,0
58963,-100,4,2,99,88,0,1
64152,-100,4,2,99,88,0,0
73233,-100,4,2,99,88,0,0
74530,-90.9090909090909,4,2,99,88,0,1
77449,-90.9090909090909,4,2,1,80,0,1
77612,-90.9090909090909,4,2,99,88,0,1
78584,-90.9090909090909,4,2,1,80,0,1
78666,-90.9090909090909,4,2,1,5,0,1
78747,-90.9090909090909,4,2,99,88,0,1
79720,-100,4,2,99,88,0,0
80206,-100,4,2,1,60,0,0
80368,-100,4,2,99,88,0,0
80855,-100,4,2,1,60,0,0
81017,-100,4,2,99,88,0,0
81828,-100,4,2,1,60,0,0
81990,-100,4,2,99,88,0,0
82152,-100,4,2,1,60,0,0
82314,-100,4,2,99,88,0,0
82801,-100,4,2,1,60,0,0
82963,-100,4,2,99,88,0,0
83449,-100,4,2,1,60,0,0
83612,-100,4,2,99,88,0,0
84909,-100,4,2,99,88,0,1
87341,-100,4,2,1,80,0,1
87503,-142.857142857143,4,2,99,88,0,0
89125,-142.857142857143,4,2,1,5,0,0

[Colours]
Combo1 : 26,116,242
Combo2 : 164,32,240
Combo3 : 37,185,239
Combo4 : 23,209,116
Combo5 : 255,75,255

[HitObjects]
34,339,585,6,0,P|104:334|181:327,1,141,4|10,1:2|0:0,0:0:0:0:
246,372,1071,1,0,0:0:0:0:
296,304,1233,2,0,P|325:284|366:288,1,70.5,2|0,1:2|1:0,0:0:0:0:
383,204,1557,2,0,P|419:206|464:209,1,70.5,10|0,0:0|0:0,0:0:0:0:
495,134,1882,5,2,1:2:0:0:
495,134,2044,1,0,1:0:0:0:
444,66,2206,2,0,P|390:55|354:90,1,105.75,10|0,0:0|0:0,0:0:0:0:
313,85,2530,2,0,P|319:129|322:170,1,70.5,2|0,1:2|1:0,0:0:0:0:
280,229,2855,1,10,0:0:0:0:
280,229,3179,6,0,B|227:225|227:225|198:206|198:206|139:201,3,141,4|4|4|4,1:2|1:3|1:3|1:3,0:0:0:0:
48,61,4476,5,2,1:2:0:0:
48,61,4639,1,0,1:0:0:0:
120,104,4801,2,0,L|163:95,3,35.25,0|0|0|0,3:0|3:0|3:0|3:0,0:0:0:0:
195,86,5125,5,0,1:0:0:0:
271,120,5287,1,2,1:3:0:0:
426,51,5612,5,0,0:0:0:0:
426,51,5774,2,0,P|421:109|417:176,2,112.8,4|0|0,1:0|1:0|1:0,0:0:0:0:
362,13,6584,1,0,0:0:0:0:
362,13,6747,2,0,P|336:36|307:40,1,56.4,0|0,1:0|0:0,0:0:0:0:
264,92,7071,6,0,P|220:63|159:76,1,112.8,0|0,1:0|1:0,0:0:0:0:
121,133,7557,1,0,0:0:0:0:
146,201,7720,2,0,P|179:195|207:191,1,56.4,0|0,1:0|0:0,0:0:0:0:
252,244,8044,2,0,P|303:220|313:221,1,56.4,0|0,1:0|0:0,0:0:0:0:
364,170,8368,5,0,1:0:0:0:
364,170,8530,1,0,0:0:0:0:
424,212,8693,2,0,P|421:240|419:270,1,56.4,0|0,1:0|0:0,0:0:0:0:
469,321,9017,2,0,B|432:344|432:344|356:325,1,112.8,0|0,1:0|1:0,0:0:0:0:
295,302,9503,1,0,0:0:0:0:
234,344,9666,6,0,P|188:348|155:351,1,56.4,0|0,1:0|0:0,0:0:0:0:
108,326,9990,2,0,P|164:311|184:253,2,112.8,0|0|0,1:0|1:0|1:0,0:0:0:0:
47,284,10801,1,0,0:0:0:0:
86,222,10963,6,0,B|61:162|61:162|89:106,1,112.8,0|0,1:0|1:0,0:0:0:0:
134,67,11449,1,0,0:0:0:0:
71,27,11612,2,0,P|125:21|193:13,1,112.8,0|0,1:0|1:0,0:0:0:0:
314,79,12260,6,0,B|303:126|303:126|312:146|312:146|300:191,1,112.8,0|0,1:0|1:0,0:0:0:0:
352,253,12747,1,0,0:0:0:0:
352,253,12909,2,0,P|393:234|422:235,1,56.4,0|0,1:0|0:0,0:0:0:0:
465,271,13233,1,0,1:0:0:0:
439,339,13395,5,2,0:0:0:0:
435,348,13476,1,0,0:0:0:0:
432,356,13557,2,0,B|370:360|392:326|308:328,1,112.8,0|0,1:0|1:0,0:0:0:0:
255,354,14044,1,0,0:0:0:0:
199,305,14206,2,0,P|203:272|210:241,1,56.4,0|0,1:0|0:0,0:0:0:0:
265,203,14530,2,0,P|246:165|249:133,1,56.4,0|0,1:0|0:0,0:0:0:0:
254,78,14855,5,0,1:0:0:0:
254,78,15017,2,0,P|193:85|129:93,1,112.8
81,50,15503,1,0,1:0:0:0:
51,193,15828,2,0,P|23:215|-13:216,1,56.4,2|0,0:0|0:0,0:0:0:0:
126,169,16152,6,0,P|163:198|148:284,1,126.899996127319,4|8,1:2|0:0,0:0:0:0:
88,315,16639,1,0,0:0:0:0:
159,272,16801,2,0,P|225:280|251:283,1,63.4499980636597,0|0,1:0|1:0,0:0:0:0:
262,351,17125,2,0,P|300:332|332:333,1,63.4499980636597,8|0,0:0|0:0,0:0:0:0:
395,364,17449,5,0,1:0:0:0:
395,364,17612,1,0,1:0:0:0:
444,298,17774,2,0,P|436:241|434:212,1,63.4499980636597,8|0,0:0|0:0,0:0:0:0:
483,167,18098,1,0,1:0:0:0:
483,167,18260,1,0,1:0:0:0:
417,117,18422,2,0,P|385:144|347:148,1,63.4499980636597,8|2,0:0|0:0,0:0:0:0:
295,102,18747,6,0,P|297:64|302:25,1,63.4499980636597,0|0,1:0|1:0,0:0:0:0:
218,31,19071,2,0,P|215:68|211:108,1,63.4499980636597,8|0,0:0|0:0,0:0:0:0:
159,157,19395,1,0,1:0:0:0:
159,157,19557,1,0,1:0:0:0:
103,95,19720,6,0,P|48:84|5:140,1,126.899996127319,8|0,0:0|1:0,0:0:0:0:
59,195,20206,1,0,1:0:0:0:
0,254,20368,2,0,P|50:248|110:244,1,95.1749970954896,8|0,0:0|0:0,0:0:0:0:
136,243,20693,2,0,P|117:278|126:306,1,63.4499980636597,0|0,1:0|1:0,0:0:0:0:
179,358,21017,2,0,P|230:351|255:349,1,63.4499980636597,8|2,0:0|0:0,0:0:0:0:
291,283,21341,6,0,B|328:311|328:311|415:287,1,126.899996127319,4|8,1:2|0:0,0:0:0:0:
483,318,21828,1,0,0:0:0:0:
405,289,21990,2,0,P|392:251|405:220,1,63.4499980636597,0|0,1:0|1:0,0:0:0:0:
439,158,22314,2,0,P|472:166|506:173,1,63.4499980636597,8|0,0:0|0:0,0:0:0:0:
385,92,22639,5,0,1:0:0:0:
385,92,22801,1,0,1:0:0:0:
336,25,22963,2,0,P|297:33|261:39,1,63.4499980636597,8|0,0:0|0:0,0:0:0:0:
261,40,23206,1,0,0:0:0:0:
249,43,23287,2,0,P|217:77|244:156,1,126.899996127319,0|8,1:0|0:0,0:0:0:0:
310,181,23774,1,0,0:0:0:0:
259,246,23936,6,0,P|225:240|188:235,1,63.4499980636597,0|0,1:0|1:0,0:0:0:0:
149,170,24260,2,0,P|100:203|53:199,1,95.1749970954896,8|0,0:0|0:0,0:0:0:0:
27,186,24584,1,0,1:0:0:0:
34,268,24747,1,0,1:0:0:0:
43,349,24909,2,0,P|76:341|114:335,1,63.4499980636597,8|0,0:0|0:0,0:0:0:0:
182,306,25233,5,0,1:0:0:0:
260,280,25395,1,0,1:0:0:0:
328,322,25557,6,0,P|306:360|308:395,1,63.4499980636597,8|0,0:0|1:0,0:0:0:0:
387,384,25882,1,8,0:0:0:0:
501,198,26530,6,0,P|450:194|393:189,1,98.6999969879151,4|0,1:0|0:0,0:0:0:0:
344,137,27017,1,0,1:0:0:0:
344,137,27179,2,0,P|380:98|373:55,1,98.6999969879151,0|0,3:0|0:0,0:0:0:0:
319,6,27666,1,0,3:0:0:0:
319,6,27828,1,0,1:0:0:0:
63,25,28476,6,0,P|70:82|81:144,1,98.6999969879151,0|0,3:0|0:0,0:0:0:0:
44,195,28963,1,0,3:0:0:0:
44,195,29125,2,0,P|85:220|89:279,1,98.6999969879151,0|0,1:0|1:0,0:0:0:0:
49,333,29612,1,0,1:0:0:0:
49,333,29774,2,0,P|19:328|-4:324,2,49.3499984939576,0|0|0,3:0|0:0|0:0,0:0:0:0:
116,371,30260,5,0,3:0:0:0:
116,371,30422,2,0,B|148:349|148:349|226:366,1,98.6999969879151,0|0,1:0|0:0,0:0:0:0:
271,318,30909,1,0,1:0:0:0:
271,318,31071,2,0,P|267:288|262:261,1,49.3499984939576,0|0,3:0|0:0,0:0:0:0:
311,213,31395,2,0,P|290:182|291:161,1,49.3499984939576,0|0,1:0|3:0,0:0:0:0:
339,111,31720,6,0,P|386:117|451:124,1,98.6999969879151,0|0,1:0|0:0,0:0:0:0:
485,182,32206,1,0,1:0:0:0:
485,182,32368,2,0,P|444:211|441:268,1,98.6999969879151,0|0,3:0|0:0,0:0:0:0:
486,323,32855,1,4,0:3:0:0:
486,323,33017,2,0,P|433:329|376:337,1,98.6999969879151,0|0,1:0|0:0,0:0:0:0:
277,270,33666,1,0,3:0:0:0:
358,170,33990,2,0,P|350:125|345:100,1,49.3499984939576,0|0,0:0|3:0,0:0:0:0:
300,63,34314,6,0,B|266:88|266:88|195:76,1,98.6999969879151,0|0,1:0|1:0,0:0:0:0:
139,46,34801,1,0,1:0:0:0:
139,46,34963,2,0,P|134:79|130:100,1,49.3499984939576,0|0,3:0|0:0,0:0:0:0:
71,208,35449,1,0,1:0:0:0:
143,176,35612,6,0,P|186:184|207:224,2,74.0249977409363,0|8|4,3:0|0:3|0:3,0:0:0:0:
71,208,36260,2,0,P|79:246|86:288,1,70.5,0|0,3:0|1:0,0:0:0:0:
87,291,36503,1,0,3:0:0:0:
90,305,36584,1,0,3:0:0:0:
152,349,36747,1,0,3:0:0:0:
217,285,36909,6,0,P|265:286|285:312,1,70.5,0|0,1:0|3:0,0:0:0:0:
287,320,37152,2,0,P|323:345|353:339,1,70.5,0|0,1:0|3:0,0:0:0:0:
372,336,37395,2,0,P|373:300|376:258,1,70.5,0|0,1:0|3:0,0:0:0:0:
443,231,37720,1,0,1:0:0:0:
390,173,37882,6,0,P|358:180|321:188,1,63.4499980636597,2|0,1:3|0:0,0:0:0:0:
306,188,38206,6,0,P|271:155|332:60,1,155.100004733277,4|10,1:0|0:0,0:0:0:0:
405,71,38693,1,0,0:0:0:0:
479,138,38855,2,0,P|472:177|467:220,1,77.5500023666383,2|0,1:2|1:0,0:0:0:0:
379,263,39179,2,0,P|405:298|404:342,1,77.5500023666383,10|0,0:0|0:0,0:0:0:0:
322,384,39503,6,0,B|233:385|273:334|153:342,1,155.100004733277,2|10,1:2|0:0,0:0:0:0:
85,384,39990,1,0,0:0:0:0:
176,341,40152,2,0,P|192:292|180:262,1,77.5500023666383,2|0,1:2|1:0,0:0:0:0:
124,188,40476,2,0,P|81:195|44:200,1,77.5500023666383,10|0,0:0|0:0,0:0:0:0:
34,200,40720,1,0,0:0:0:0:
20,200,40801,6,0,P|5:155|76:82,1,155.100004733277,2|10,1:2|0:0,0:0:0:0:
153,25,41287,1,0,0:0:0:0:
225,95,41449,2,0,P|217:139|212:174,1,77.5500023666383,2|0,1:2|1:0,0:0:0:0:
289,237,41774,2,0,P|258:272|248:313,1,77.5500023666383,10|0,0:0|0:0,0:0:0:0:
321,370,42098,5,2,1:2:0:0:
321,370,42260,1,4,0:3:0:0:
321,370,42422,2,0,P|361:364|408:358,1,77.5500023666383,10|0,0:0|0:0,0:0:0:0:
470,289,42747,5,2,1:2:0:0:
399,217,42909,1,0,1:0:0:0:
442,126,43071,2,0,P|486:109|521:115,1,77.5500023666383,10|0,0:0|0:0,0:0:0:0:
399,217,43395,6,0,P|346:235|269:160,1,155.100004733277,4|10,1:0|0:0,0:0:0:0:
288,79,43882,1,2,0:0:0:0:
229,1,44044,2,0,P|181:6|137:9,1,77.5500023666383,2|0,1:2|1:0,0:0:0:0:
75,73,44368,2,0,P|119:113|121:144,1,77.5500023666383,10|0,0:0|0:0,0:0:0:0:
38,185,44693,6,0,P|108:176|199:166,1,155.100004733277,2|10,1:2|0:0,0:0:0:0:
276,221,45179,1,0,0:0:0:0:
342,145,45341,2,0,P|313:106|316:72,1,77.5500023666383,2|0,1:2|1:0,0:0:0:0:
387,8,45666,2,0,P|432:14|481:20,1,77.5500023666383,10|0,0:0|0:0,0:0:0:0:
507,108,45990,6,0,B|462:140|462:140|485:237,1,155.100004733277,2|10,1:2|0:0,0:0:0:0:
433,323,46476,1,0,0:0:0:0:
351,263,46639,2,0,P|314:286|273:291,1,77.5500023666383,2|0,1:2|1:0,0:0:0:0:
220,372,46963,2,0,P|181:367|130:362,1,77.5500023666383,12|0,0:0|0:0,0:0:0:0:
63,319,47287,5,2,1:3:0:0:
37,231,47449,1,2,1:3:0:0:
239,44,47936,5,2,1:3:0:0:
265,132,48098,1,12,0:0:0:0:
196,192,48260,6,0,L|152:187,3,38.7750011833191,0|0|0|0,3:0|3:0|3:0|3:0,0:0:0:0:
123,150,48584,6,0,P|69:177|72:271,1,155.100004733277,4|10,1:0|0:0,0:0:0:0:
146,325,49071,1,0,0:0:0:0:
235,278,49233,2,0,P|272:286|322:295,1,77.5500023666383,2|0,1:2|1:0,0:0:0:0:
376,369,49557,2,0,P|417:343|454:340,1,77.5500023666383,10|0,0:0|0:0,0:0:0:0:
507,259,49882,6,0,P|499:181|490:85,1,155.100004733277,2|10,1:2|0:0,0:0:0:0:
409,45,50368,1,0,0:0:0:0:
333,111,50530,2,0,P|285:85|251:86,1,77.5500023666383,2|0,1:2|1:0,0:0:0:0:
177,138,50855,2,0,P|185:183|193:225,1,77.5500023666383,10|0,0:0|0:0,0:0:0:0:
195,231,51098,1,0,0:0:0:0:
200,246,51179,6,0,B|114:252|146:207|38:215,1,155.100004733277,2|10,1:2|0:0,0:0:0:0:
3,303,51666,1,0,0:0:0:0:
78,369,51828,2,0,P|123:361|162:355,1,77.5500023666383,2|0,1:2|1:0,0:0:0:0:
206,270,52152,2,0,P|252:298|290:295,1,77.5500023666383,10|0,0:0|0:0,0:0:0:0:
346,227,52476,5,2,1:2:0:0:
346,227,52639,1,4,0:3:0:0:
346,227,52801,2,0,B|336:173|336:173|348:143|348:143|332:75,1,141,12|0,0:0|1:0,0:0:0:0:
391,18,53287,1,0,3:0:0:0:
473,58,53449,2,0,L|466:108,3,35.25,0|0|0|0,3:0|3:0|3:0|3:0,0:0:0:0:
442,131,53774,6,0,P|453:203|466:272,1,141,4|8,1:0|1:3,0:0:0:0:
510,349,54260,1,0,0:0:0:0:
465,269,54422,2,0,P|407:265|353:333,1,141,4|8,0:3|1:3,0:0:0:0:
281,377,54909,1,0,0:0:0:0:
214,314,55071,6,0,B|257:284|257:284|242:184,2,141,4|8|4,0:3|1:3|0:3,0:0:0:0:
126,343,55882,1,0,0:0:0:0:
58,281,56044,2,0,P|72:229|79:204,1,70.5,8|0,1:3|0:0,0:0:0:0:
28,135,56368,6,0,P|74:177|151:167,1,141,4|8,1:0|1:3,0:0:0:0:
196,90,56855,1,0,0:0:0:0:
230,5,57017,2,0,B|284:18|284:18|306:43|306:43|365:54,1,141,4|8,0:3|1:3,0:0:0:0:
441,16,57503,1,0,0:0:0:0:
483,97,57666,6,0,P|470:170|455:245,2,141,4|8|4,0:3|1:3|0:3,0:0:0:0:
315,171,58639,1,8,1:3:0:0:
149,93,58963,6,0,P|142:58|135:23,1,70.5,12|0,0:0|1:0,0:0:0:0:
44,36,59287,2,0,P|50:70|57:105,1,70.5,10|0,0:0|1:0,0:0:0:0:
108,181,59612,6,0,P|87:219|47:235,1,70.5,10|0,0:0|1:0,0:0:0:0:
106,313,59936,2,0,P|64:325|24:308,1,70.5,10|0,0:0|1:0,0:0:0:0:
181,252,60260,5,10,0:0:0:0:
181,252,60422,1,0,0:0:0:0:
181,252,60584,2,0,P|219:258|262:264,1,70.5,10|0,0:0|1:0,0:0:0:0:
327,313,60909,5,10,0:0:0:0:
408,271,61071,1,0,1:0:0:0:
429,182,61233,2,0,P|406:146|418:97,1,70.5,10|0,0:0|0:0,0:0:0:0:
479,63,61557,6,0,L|308:79,1,141,4|10,1:0|0:0,0:0:0:0:
263,22,62044,1,0,1:0:0:0:
216,100,62206,2,0,B|257:136|257:136|230:223,1,141,10|10,0:0|0:0,0:0:0:0:
192,302,62693,1,0,0:0:0:0:
261,361,62855,5,2,1:3:0:0:
340,315,63017,1,2,1:3:0:0:
208,73,63503,5,2,1:3:0:0:
129,119,63666,1,2,1:3:0:0:
102,293,64152,5,4,1:0:0:0:
395,350,73233,5,2,1:3:0:0:
314,306,73395,1,2,1:3:0:0:
393,42,73882,5,2,1:3:0:0:
474,86,74044,1,2,1:3:0:0:
302,150,74368,5,0,0:0:0:0:
251,73,74530,2,0,B|167:62|167:62|129:84|143:133,1,155.100004733277,4|10,1:0|0:0,0:0:0:0:
211,193,75017,1,0,0:0:0:0:
207,205,75098,1,0,0:0:0:0:
204,216,75179,2,0,P|200:262|197:308,1,77.5500023666383,2|0,1:2|1:0,0:0:0:0:
120,357,75503,2,0,P|74:331|26:337,1,77.5500023666383,10|0,0:0|0:0,0:0:0:0:
13,235,75828,6,0,P|62:222|106:125,1,155.100004733277,2|10,1:2|0:0,0:0:0:0:
34,65,76314,1,0,0:0:0:0:
107,134,76476,2,0,P|149:127|190:122,1,77.5500023666383,2|0,1:2|1:0,0:0:0:0:
234,34,76801,2,0,P|261:61|325:58,1,77.5500023666383,10|0,0:0|0:0,0:0:0:0:
436,11,77125,6,0,B|389:48|389:48|419:148,1,155.100004733277,4|8,1:2|0:0,0:0:0:0:
347,213,77612,1,0,0:0:0:0:
441,248,77774,2,0,P|457:286|444:327,1,77.5500023666383,2|0,1:2|1:0,0:0:0:0:
377,365,78098,2,0,P|334:358|294:353,1,77.5500023666383,10|0,0:0|0:0,0:0:0:0:
217,295,78422,5,2,1:2:0:0:
217,295,78584,1,4,0:3:0:0:
217,295,78747,2,0,P|222:218|232:127,1,155.100004733277,12|0,0:0|1:0,0:0:0:0:
161,67,79233,1,0,3:0:0:0:
75,121,79395,2,0,L|37:113,3,38.7750011833191,0|0|0|0,3:0|3:0|3:0|3:0,0:0:0:0:
110,150,79720,6,0,P|125:203|50:268,1,141,4|8,1:0|1:3,0:0:0:0:
30,344,80206,1,0,0:0:0:0:
115,376,80368,2,0,B|176:369|176:369|200:350|200:350|259:344,1,141,4|8,0:3|1:3,0:0:0:0:
337,369,80855,1,0,0:0:0:0:
386,291,81017,6,0,P|378:230|368:143,2,141,4|8|4,0:3|1:3|0:3,0:0:0:0:
337,369,81828,1,0,0:0:0:0:
250,338,81990,2,0,P|259:291|286:272,1,70.5,8|0,1:3|0:0,0:0:0:0:
229,197,82314,6,0,B|145:170|145:170|99:208,1,141,4|8,1:2|1:3,0:0:0:0:
29,149,82801,1,2,0:0:0:0:
55,61,82963,2,0,P|105:34|188:73,1,141,4|8,0:3|1:3,0:0:0:0:
181,153,83449,1,0,0:0:0:0:
262,195,83612,6,0,B|346:197|308:142|411:158,2,141,4|10|6,0:3|1:3|0:3,0:0:0:0:
168,352,84584,1,10,1:3:0:0:
351,366,84909,6,0,P|369:321|399:304,1,70.5,12|0,0:0|1:0,0:0:0:0:
330,235,85233,2,0,P|374:215|407:225,1,70.5,10|0,0:0|1:0,0:0:0:0:
457,152,85557,6,0,P|460:114|464:75,1,70.5,10|0,0:0|1:0,0:0:0:0:
384,33,85882,2,0,P|381:71|377:110,1,70.5,10|0,0:0|0:0,0:0:0:0:
301,154,86206,5,10,0:0:0:0:
301,154,86368,1,0,1:0:0:0:
301,154,86530,2,0,P|262:168|229:160,1,70.5,10|0,0:0|1:0,0:0:0:0:
170,95,86855,5,10,0:0:0:0:
155,185,87017,1,0,0:0:0:0:
145,276,87179,2,0,P|185:271|219:267,1,70.5,10|2,0:0|0:0,0:0:0:0:
299,296,87503,6,0,P|273:337|285:388,2,98.6999969879151
406,225,88476,2,0,P|438:233|467:239,1,49.3499984939576
508,293,88801,1,0,0:0:0:0:
