osu file format v14

[General]
AudioFilename: audio.mp3
AudioLeadIn: 0
PreviewTime: 37963
Countdown: 0
SampleSet: Soft
StackLeniency: 0.7
Mode: 0
LetterboxInBreaks: 0
WidescreenStoryboard: 1

[Editor]
DistanceSpacing: 1.8
BeatDivisor: 4
GridSize: 8
TimelineZoom: 1.6

[Metadata]
Title:Inferno (TV Size)
TitleUnicode:インフェルノ (TV Size)
Artist:Mrs. GREEN APPLE
ArtistUnicode:Mrs. GREEN APPLE
Creator:sanairrt
Version:Extreme
Source:炎炎ノ消防隊
Tags:fire force brigade of flames enen no shouboutai opening op anime japanese male vocal Akitoshi Livia Creamy Candy Kowari TimeCapsule TheBlank
BeatmapID:2232314
BeatmapSetID:1066094

[Difficulty]
HPDrainRate:6
CircleSize:3.6
OverallDifficulty:9
ApproachRate:9.3
SliderMultiplier:1.8
SliderTickRate:1

[Events]
//Background and Video events
0,0,"BG.jpg",0,0
//Break Periods
2,64352,72633
//Storyboard Layer 0 (Background)
//Storyboard Layer 1 (Fail)
//Storyboard Layer 2 (Pass)
//Storyboard Layer 3 (Foreground)
//Storyboard Layer 4 (Overlay)
//Storyboard Sound Samples

[TimingPoints]
585,324.324324324324,4,2,99,88,1,0
1800,-100,4,2,1,60,0,0
1882,-100,4,2,99,88,0,0
3098,-100,4,2,1,60,0,0
3179,-100,4,2,99,88,0,0
3341,-100,4,2,1,60,0,0
3503,-100,4,2,99,88,0,0
5612,-100,4,2,1,60,0,0
5774,-125,4,2,99,75,0,0
6260,-125,4,2,1,60,0,0
6422,-125,4,2,99,75,0,0
8206,-125,4,2,1,60,0,0
8368,-125,4,2,99,75,0,0
8855,-125,4,2,1,60,0,0
9017,-125,4,2,99,75,0,0
9503,-125,4,2,1,60,0,0
9666,-125,4,2,99,75,0,0
11449,-125,4,2,1,60,0,0
11612,-125,4,2,99,75,0,0
15179,-125,4,2,1,60,0,0
15341,-125,4,2,99,75,0,0
15665,-125,4,2,1,60,0,0
15828,-125,4,2,99,75,0,0
16152,-100,4,2,99,75,0,0
16638,-100,4,2,1,60,0,0
16801,-100,4,2,99,75,0,0
17287,-100,4,2,99,75,0,0
17449,-100,4,2,99,75,0,0
18584,-100,4,2,1,60,0,0
18747,-100,4,2,99,75,0,0
20612,-100,4,2,1,5,0,0
20693,-100,4,2,99,75,0,0
21179,-100,4,2,1,60,0,0
21341,-100,4,2,99,75,0,0
22476,-100,4,2,99,75,0,0
22639,-100,4,2,99,75,0,0
24422,-100,4,2,1,60,0,0
24584,-100,4,2,99,75,0,0
26530,-142.857142857143,4,2,99,60,0,0
26854,-142.857142857143,4,2,1,60,0,0
27017,-142.857142857143,4,2,99,60,0,0
28152,-142.857142857143,4,2,1,60,0,0
28476,-142.857142857143,4,2,99,60,0,0
29936,-142.857142857143,4,2,1,60,0,0
30098,-142.857142857143,4,2,99,60,0,0
30746,-142.857142857143,4,2,1,60,0,0
30909,-142.857142857143,4,2,99,60,0,0
32855,-142.857142857143,4,2,1,60,0,0
33017,-142.857142857143,4,2,99,60,0,0
35612,-111.111111111111,4,2,99,60,0,0
35936,-111.111111111111,4,2,0,60,0,0
36098,-111.111111111111,4,2,99,60,0,0
37071,-111.111111111111,4,2,99,60,0,0
37152,-111.111111111111,4,2,99,60,0,0
37314,-111.111111111111,4,2,99,60,0,0
37395,-111.111111111111,4,2,99,60,0,0
37882,-499.999999999997,4,2,99,60,0,0
38125,-499.999999999997,4,2,1,5,0,0
38206,-90.9090909090909,4,2,99,88,0,1
42260,-90.9090909090909,4,2,1,80,0,1
42422,-90.9090909090909,4,2,99,88,0,1
43882,-90.9090909090909,4,2,1,80,0,1
44044,-90.9090909090909,4,2,99,88,0,1
47287,-90.9090909090909,4,2,99,88,0,0
48584,-90.9090909090909,4,2,99,88,0,1
52639,-90.9090909090909,4,2,1,80,0,1
52801,-90.9090909090909,4,2,99,88,0,1
53774,-90.9090909090909,4,2,99,88,0,0
53936,-90.9090909090909,4,2,1,80,0,0
54098,-90.9090909090909,4,2,99,88,0,0
54584,-90.9090909090909,4,2,1,80,0,0
54747,-90.9090909090909,4,2,99,88,0,0
55233,-90.9090909090909,4,2,1,80,0,0
55395,-90.9090909090909,4,2,99,88,0,0
55882,-90.9090909090909,4,2,1,80,0,0
56044,-90.9090909090909,4,2,99,88,0,0
56530,-90.9090909090909,4,2,1,80,0,0
56693,-90.9090909090909,4,2,99,88,0,0
57179,-90.9090909090909,4,2,1,80,0,0
57341,-90.9090909090909,4,2,99,88,0,0
57828,-90.9090909090909,4,2,1,80,0,0
57990,-90.9090909090909,4,2,99,88,0,0
58476,-90.9090909090909,4,2,1,80,0,0
58639,-90.9090909090909,4,2,99,88,0,0
58963,-90.9090909090909,4,2,99,88,0,1
64152,-90.9090909090909,4,2,99,88,0,0
73233,-90.9090909090909,4,2,99,88,0,0
74530,-90.9090909090909,4,2,99,88,0,1
77449,-90.9090909090909,4,2,1,80,0,1
77612,-90.9090909090909,4,2,99,88,0,1
78584,-90.9090909090909,4,2,1,80,0,1
78747,-90.9090909090909,4,2,99,88,0,1
79720,-100,4,2,99,88,0,0
79882,-100,4,2,1,80,0,0
80044,-100,4,2,99,88,0,0
80206,-100,4,2,1,80,0,0
80368,-100,4,2,99,88,0,0
80530,-100,4,2,1,80,0,0
80693,-100,4,2,99,88,0,0
80855,-100,4,2,1,80,0,0
81017,-100,4,2,99,88,0,0
81179,-100,4,2,1,80,0,0
81341,-100,4,2,99,88,0,0
81503,-100,4,2,1,80,0,0
81666,-100,4,2,99,88,0,0
81828,-100,4,2,1,80,0,0
81990,-100,4,2,99,88,0,0
82152,-100,4,2,1,80,0,0
82314,-100,4,2,99,88,0,0
82476,-100,4,2,1,80,0,0
82639,-100,4,2,99,88,0,0
82801,-100,4,2,1,80,0,0
82963,-100,4,2,99,88,0,0
83125,-100,4,2,1,80,0,0
83287,-100,4,2,99,88,0,0
83449,-100,4,2,1,80,0,0
83612,-100,4,2,99,88,0,0
83774,-100,4,2,1,80,0,0
83936,-100,4,2,99,88,0,0
84098,-100,4,2,1,80,0,0
84260,-100,4,2,99,88,0,0
84422,-100,4,2,1,80,0,0
84584,-100,4,2,99,88,0,0
84746,-100,4,2,1,80,0,0
84909,-90.9090909090909,4,2,99,88,0,1
87341,-90.9090909090909,4,2,1,80,0,1
87503,-125,4,2,99,88,0,0
88801,-125,4,2,99,88,0,0
89125,-125,4,2,1,5,0,0

[Colours]
Combo1 : 26,116,242
Combo2 : 164,32,240
Combo3 : 37,185,239
Combo4 : 23,209,116
Combo5 : 255,75,255

[HitObjects]
31,220,585,6,0,B|137:207|91:279|206:254,1,180,4|10,1:2|0:0,0:0:0:0:
389,175,1071,1,0,0:0:0:0:
251,105,1233,1,2,1:2:0:0:
229,272,1395,1,0,1:0:0:0:
388,146,1557,2,0,P|387:93|319:49,1,135,10|0,0:0|0:0,0:0:0:0:
223,9,1882,6,0,L|213:133,1,90,2|0,1:2|1:0,0:0:0:0:
331,305,2206,2,0,L|335:191,1,90,10|0,0:0|0:0,0:0:0:0:
212,139,2530,1,2,1:2:0:0:
161,339,2693,1,0,1:0:0:0:
15,166,2855,2,0,P|70:131|137:149,1,135,10|0,0:0|0:0,0:0:0:0:
213,228,3179,6,0,L|211:130,1,90,4|0,1:2|0:0,0:0:0:0:
143,301,3503,5,4,1:3:0:0:
412,254,3666,1,0,0:0:0:0:
134,146,3828,5,4,1:3:0:0:
400,253,3990,1,0,0:0:0:0:
237,72,4152,5,4,1:3:0:0:
189,305,4314,1,0,0:0:0:0:
476,113,4476,5,2,1:2:0:0:
117,40,4639,1,0,1:0:0:0:
287,186,4801,6,0,L|346:173,1,45,0|0,3:0|3:0,0:0:0:0:
88,230,4963,2,0,L|25:217,1,45,0|0,3:0|3:0,0:0:0:0:
278,377,5125,5,0,1:0:0:0:
237,72,5287,1,2,1:3:0:0:
430,47,5612,5,0,0:0:0:0:
430,47,5774,2,0,P|381:57|338:53,1,72,4|0,1:0|0:0,0:0:0:0:
263,30,6098,2,0,P|236:55|233:102,1,72,0|0,1:0|0:0,0:0:0:0:
233,177,6422,1,0,1:0:0:0:
233,177,6584,1,0,0:0:0:0:
331,132,6747,2,0,P|335:185|332:213,1,72,0|0,1:0|0:0,0:0:0:0:
265,266,7071,6,0,P|330:241|404:280,1,144,0|0,1:0|1:0,0:0:0:0:
401,357,7557,1,0,0:0:0:0:
295,358,7720,2,0,P|258:364|222:357,1,72,0|0,1:0|0:0,0:0:0:0:
94,309,8044,2,0,L|89:388,1,72,0|0,1:0|0:0,0:0:0:0:
0,207,8368,6,0,B|34:197|34:197|70:199,1,72,0|0,1:0|0:0,0:0:0:0:
265,266,8693,2,0,B|231:276|231:276|194:273,1,72,0|0,1:0|0:0,0:0:0:0:
94,309,9017,2,0,L|104:165,1,144,0|0,1:0|1:0,0:0:0:0:
111,63,9503,1,0,0:0:0:0:
208,135,9666,5,0,1:0:0:0:
208,135,9828,1,0,0:0:0:0:
137,54,9990,2,0,B|189:38|189:38|293:53,1,144,0|0,1:0|1:0,0:0:0:0:
277,50,10639,6,0,B|309:38|309:38|347:45,1,72,0|0,1:0|0:0,0:0:0:0:
415,112,10963,1,0,1:0:0:0:
293,181,11125,1,0,0:0:0:0:
293,181,11287,2,0,P|285:237|292:262,1,72,0|0,1:0|0:0,0:0:0:0:
394,368,11612,1,0,1:0:0:0:
372,215,11774,1,0,0:0:0:0:
279,363,11936,2,0,P|235:370|203:359,1,72,0|0,1:0|0:0,0:0:0:0:
77,278,12260,6,0,B|56:228|56:228|76:136,1,144,0|0,1:0|1:0,0:0:0:0:
157,0,12747,1,0,0:0:0:0:
207,140,12909,2,0,P|137:164|65:130,1,144,0|0,1:0|1:0,0:0:0:0:
232,51,13395,1,2,0:0:0:0:
321,128,13557,5,0,1:0:0:0:
321,128,13720,1,0,0:0:0:0:
345,31,13882,2,0,P|380:24|414:33,1,72,0|0,1:0|0:0,0:0:0:0:
502,158,14206,1,0,1:0:0:0:
322,179,14368,1,0,0:0:0:0:
451,41,14530,1,0,1:0:0:0:
512,205,14693,1,0,0:0:0:0:
399,110,14855,5,0,1:0:0:0:
370,268,15017,2,0,B|409:279|409:279|452:265,1,72,0|2,0:0|0:0,0:0:0:0:
400,134,15341,1,0,0:0:0:0:
375,346,15503,2,0,B|415:355|415:355|452:341,1,72,0|0,1:0|0:0,0:0:0:0:
512,287,15828,1,2,0:0:0:0:
322,179,15990,1,0,0:0:0:0:
200,368,16152,6,0,B|178:343|178:343|187:250,1,90,4|0,1:2|0:0,0:0:0:0:
286,105,16476,2,0,L|293:199,1,90,8|0,0:0|0:0,0:0:0:0:
96,216,16801,1,0,1:0:0:0:
194,55,16963,1,0,1:0:0:0:
286,242,17125,2,0,L|186:232,1,90,8|0,0:0|0:0,0:0:0:0:
56,77,17449,5,0,1:0:0:0:
0,269,17612,1,0,1:0:0:0:
194,193,17774,1,8,0:0:0:0:
27,169,17936,1,0,0:0:0:0:
194,55,18098,2,0,P|237:63|273:90,1,90,0|0,1:0|1:0,0:0:0:0:
396,206,18422,1,8,0:0:0:0:
194,193,18584,1,2,0:0:0:0:
306,119,18747,5,0,1:0:0:0:
249,310,18909,1,0,1:0:0:0:
391,175,19071,1,8,0:0:0:0:
419,315,19233,1,0,0:0:0:0:
222,229,19395,2,0,L|229:342,1,90,0|0,1:0|1:0,0:0:0:0:
391,175,19720,2,0,L|402:74,1,90,8|0,0:0|0:0,0:0:0:0:
259,10,20044,5,0,1:0:0:0:
226,199,20206,1,0,1:0:0:0:
109,56,20368,2,0,P|79:93|98:184,1,135,8|0,0:0|0:0,0:0:0:0:
129,222,20693,2,0,L|24:211,1,90,0|0,1:0|1:0,0:0:0:0:
236,158,21017,1,8,0:0:0:0:
179,371,21179,1,2,0:0:0:0:
355,229,21341,6,0,P|406:227|462:221,1,90,4|0,1:2|0:0,0:0:0:0:
359,36,21666,1,8,0:0:0:0:
236,158,21828,1,0,0:0:0:0:
219,0,21990,2,0,P|183:54|198:90,1,90,0|0,1:0|1:0,0:0:0:0:
237,234,22314,2,0,P|255:185|221:151,1,90,8|0,0:0|0:0,0:0:0:0:
154,274,22639,6,0,P|208:327|309:291,1,180,0|8,1:0|0:0,0:0:0:0:
287,78,23125,1,0,0:0:0:0:
94,160,23287,1,0,1:0:0:0:
237,234,23449,1,0,1:0:0:0:
103,52,23612,2,0,P|83:93|93:137,1,90,8|0,0:0|0:0,0:0:0:0:
261,26,23936,5,0,1:0:0:0:
228,194,24098,1,0,1:0:0:0:
385,131,24260,1,8,0:0:0:0:
238,109,24422,1,0,0:0:0:0:
369,256,24584,2,0,L|381:153,1,90,0|0,1:0|1:0,0:0:0:0:
182,271,24909,2,0,L|188:378,1,90,8|0,0:0|0:0,0:0:0:0:
298,351,25233,5,0,1:0:0:0:
245,204,25395,1,0,1:0:0:0:
68,347,25557,1,8,0:0:0:0:
260,201,25720,1,0,1:0:0:0:
131,58,25882,1,8,0:0:0:0:
270,25,26530,6,0,B|275:77|275:77|266:113|266:113|275:177,1,125.999996154785,4|0,1:0|0:0,0:0:0:0:
277,243,27017,1,0,1:0:0:0:
277,243,27179,2,0,P|320:237|351:246,1,62.9999980773926,0|0,3:0|0:0,0:0:0:0:
257,326,27503,2,0,P|225:333|185:324,1,62.9999980773926,0|0,0:0|3:0,0:0:0:0:
98,259,27828,6,0,B|72:186|137:197|100:123,1,125.999996154785,0|0,1:0|0:0,0:0:0:0:
39,28,28476,2,0,L|30:100,1,62.9999980773926,0|0,3:0|0:0,0:0:0:0:
135,26,28801,2,0,L|127:103,1,62.9999980773926,0|0,0:0|3:0,0:0:0:0:
182,180,29125,6,0,P|218:190|249:185,1,62.9999980773926,0|0,1:0|0:0,0:0:0:0:
306,104,29449,2,0,P|355:101|382:118,1,62.9999980773926,0|0,1:0|1:0,0:0:0:0:
496,142,29774,2,0,L|487:225,1,62.9999980773926,0|0,3:0|0:0,0:0:0:0:
402,254,30098,2,0,L|413:333,1,62.9999980773926,0|0,0:0|3:0,0:0:0:0:
338,356,30422,6,0,P|276:362|192:368,1,125.999996154785,0|0,1:0|0:0,0:0:0:0:
93,280,30909,1,0,1:0:0:0:
93,280,30990,1,0,0:0:0:0:
93,280,31071,1,0,3:0:0:0:
279,256,31233,2,0,L|275:309,2,31.4999990386963,0|0|0,0:0|0:0|1:0,0:0:0:0:
199,143,31557,1,0,3:0:0:0:
99,218,31720,6,0,P|91:269|100:300,1,62.9999980773926,0|0,1:0|0:0,0:0:0:0:
230,142,32044,2,0,P|237:189|224:230,1,62.9999980773926,0|0,0:0|1:0,0:0:0:0:
91,54,32368,2,0,L|178:65,1,62.9999980773926,0|0,3:0|0:0,0:0:0:0:
254,113,32693,2,0,L|332:101,1,62.9999980773926,0|4,0:0|0:3,0:0:0:0:
465,55,33017,6,0,P|475:98|466:132,1,62.9999980773926,0|0,1:0|0:0,0:0:0:0:
374,239,33341,2,0,P|364:197|377:152,1,62.9999980773926
465,320,33666,2,0,P|425:330|397:323,1,62.9999980773926,0|0,3:0|0:0,0:0:0:0:
286,264,33990,2,0,P|252:257|217:267,1,62.9999980773926,0|0,0:0|3:0,0:0:0:0:
116,364,34314,6,0,P|113:290|117:216,1,125.999996154785,0|0,1:0|1:0,0:0:0:0:
186,169,34801,1,0,1:0:0:0:
121,91,34963,2,0,P|170:74|253:95,1,125.999996154785,0|0,3:0|0:0,0:0:0:0:
300,141,35449,1,0,1:0:0:0:
255,316,35612,5,0,3:0:0:0:
424,220,35774,1,0,3:0:0:0:
424,220,35855,1,8,0:3:0:0:
424,220,35936,1,0,0:0:0:0:
368,358,36098,1,4,0:3:0:0:
286,243,36260,1,0,3:0:0:0:
286,243,36422,2,0,L|327:245,2,40.4999987640381,0|0|0,1:0|3:0|3:0,0:0:0:0:
145,237,36747,1,0,3:0:0:0:
162,145,36909,6,0,P|175:103|167:64,1,80.9999975280763,0|0,1:0|3:0,0:0:0:0:
81,18,37152,6,0,L|65:116,1,80.9999975280763,0|0,1:0|3:0,0:0:0:0:
17,194,37395,6,0,P|69:207|109:189,1,80.9999975280763,0|0,1:0|3:0,0:0:0:0:
253,151,37720,1,0,1:0:0:0:
201,363,37882,6,0,L|168:360,1,27,2|0,1:3|0:0,0:0:0:0:
81,346,38206,6,0,B|25:356|49:305|70:277|124:325|109:364|169:361|234:318,1,198.000006042481,4|10,1:0|0:0,0:0:0:0:
378,199,38693,1,0,0:0:0:0:
152,168,38855,2,0,L|160:278,1,99.0000030212403,2|0,1:2|1:0,0:0:0:0:
406,300,39179,1,10,0:0:0:0:
348,78,39341,1,0,0:0:0:0:
152,168,39503,6,0,P|75:154|77:43,1,198.000006042481,2|10,1:2|0:0,0:0:0:0:
378,199,39990,1,0,0:0:0:0:
213,303,40152,2,0,P|154:311|90:302,1,99.0000030212403,2|0,1:2|1:0,0:0:0:0:
380,162,40476,2,0,P|445:156|508:165,1,99.0000030212403,10|0,0:0|0:0,0:0:0:0:
213,303,40801,6,0,B|169:332|169:332|187:182,1,198.000006042481,2|10,1:2|0:0,0:0:0:0:
334,17,41287,1,0,0:0:0:0:
392,249,41449,1,2,1:2:0:0:
178,153,41612,1,0,1:0:0:0:
436,72,41774,1,10,0:0:0:0:
277,261,41936,1,0,0:0:0:0:
167,42,42098,6,0,L|52:37,1,99.0000030212403,2|4,1:2|0:3,0:0:0:0:
338,211,42422,2,0,L|452:221,1,99.0000030212403,10|0,0:0|0:0,0:0:0:0:
269,33,42747,1,2,1:2:0:0:
208,283,42909,1,0,1:0:0:0:
159,115,43071,1,10,0:0:0:0:
332,317,43233,1,0,0:0:0:0:
462,56,43395,6,0,B|353:40|388:110|266:85,1,198.000006042481,4|10,1:0|0:0,0:0:0:0:
65,204,43882,1,2,0:0:0:0:
332,317,44044,2,0,P|342:249|324:205,1,99.0000030212403,2|0,1:2|1:0,0:0:0:0:
166,20,44368,2,0,P|151:87|178:143,1,99.0000030212403,10|0,0:0|0:0,0:0:0:0:
332,317,44693,6,0,B|262:306|262:306|206:343|206:343|127:329,1,198.000006042481,2|10,1:2|0:0,0:0:0:0:
272,86,45179,1,0,0:0:0:0:
417,262,45341,2,0,L|404:387,1,99.0000030212403,2|0,1:2|1:0,0:0:0:0:
248,199,45666,1,10,0:0:0:0:
475,97,45828,1,0,0:0:0:0:
197,24,45990,6,0,B|161:85|161:85|176:223,1,198.000006042481,2|10,1:2|0:0,0:0:0:0:
506,95,46476,1,0,0:0:0:0:
259,73,46639,2,0,B|241:110|241:110|251:182,1,99.0000030212403,2|0,1:2|1:0,0:0:0:0:
474,337,46963,2,0,B|492:300|492:300|482:228,1,99.0000030212403,12|0,0:0|0:0,0:0:0:0:
366,35,47287,5,2,1:3:0:0:
341,350,47449,1,2,1:3:0:0:
341,350,47936,5,2,1:3:0:0:
25,191,48098,1,12,0:0:0:0:
227,108,48260,1,0,3:0:0:0:
244,153,48341,1,0,3:0:0:0:
238,202,48422,1,0,3:0:0:0:
208,241,48503,1,0,3:0:0:0:
160,251,48584,6,0,P|151:148|156:50,1,198.000006042481,4|10,1:0|0:0,0:0:0:0:
431,67,49071,1,0,0:0:0:0:
256,296,49233,2,0,P|235:233|243:181,1,99.0000030212403,2|0,1:2|1:0,0:0:0:0:
458,90,49557,2,0,P|460:148|439:202,1,99.0000030212403,10|0,0:0|0:0,0:0:0:0:
253,341,49882,6,0,B|184:365|184:365|47:330,1,198.000006042481,2|10,1:2|0:0,0:0:0:0:
222,74,50368,1,0,0:0:0:0:
217,271,50530,2,0,B|176:282|176:282|85:258,1,99.0000030212403,2|0,1:2|1:0,0:0:0:0:
101,76,50855,1,10,0:0:0:0:
354,100,51017,1,0,0:0:0:0:
59,146,51179,6,0,P|21:91|95:-4,1,198.000006042481,2|10,1:2|0:0,0:0:0:0:
355,129,51666,1,0,0:0:0:0:
225,369,51828,2,0,L|216:261,1,99.0000030212403,2|0,1:2|1:0,0:0:0:0:
102,150,52152,1,10,0:0:0:0:
364,164,52314,1,0,0:0:0:0:
119,277,52476,5,2,1:2:0:0:
164,67,52639,1,4,0:3:0:0:
341,244,52801,2,0,B|372:251|372:251|448:225,1,99.0000030212403,12|0,0:0|0:0,0:0:0:0:
164,67,53125,5,0,1:0:0:0:
134,89,53206,1,0,1:0:0:0:
113,119,53287,1,0,3:0:0:0:
104,155,53368,1,0,3:0:0:0:
108,192,53449,1,0,3:0:0:0:
124,225,53530,1,0,3:0:0:0:
150,252,53612,1,0,3:0:0:0:
183,268,53693,1,0,3:0:0:0:
222,260,53774,6,0,B|234:295|234:295|223:373,1,99.0000030212403,4|0,1:0|0:0,0:0:0:0:
290,124,54098,2,0,B|278:89|278:89|287:17,1,99.0000030212403,8|0,1:3|0:0,0:0:0:0:
435,268,54422,6,0,P|383:287|331:268,1,99.0000030212403,4|0,0:3|0:0,0:0:0:0:
77,116,54747,2,0,P|129:97|181:116,1,99.0000030212403,8|0,1:3|0:0,0:0:0:0:
443,169,55071,6,0,L|434:272,1,99.0000030212403,4|0,0:3|0:0,0:0:0:0:
68,214,55395,2,0,L|77:111,1,99.0000030212403,8|0,1:3|0:0,0:0:0:0:
443,169,55720,6,0,P|391:181|338:173,1,99.0000030212403,4|0,0:3|0:0,0:0:0:0:
68,214,56044,2,0,P|116:202|165:209,1,99.0000030212403,8|0,1:3|0:0,0:0:0:0:
175,358,56368,5,4,1:0:0:0:
223,141,56530,1,0,0:0:0:0:
320,356,56693,2,0,L|306:249,1,99.0000030212403,8|0,1:3|0:0,0:0:0:0:
175,26,57017,5,4,0:3:0:0:
223,243,57179,1,0,0:0:0:0:
320,28,57341,2,0,L|306:135,1,99.0000030212403,8|0,1:3|0:0,0:0:0:0:
218,323,57666,6,0,P|163:335|118:323,1,99.0000030212403,4|0,0:3|0:0,0:0:0:0:
294,61,57990,2,0,P|349:49|394:61,1,99.0000030212403,8|0,1:3|0:0,0:0:0:0:
389,325,58314,6,0,P|341:335|294:323,1,99.0000030212403,4|0,0:3|0:0,0:0:0:0:
122,58,58639,2,0,P|170:48|218:61,1,99.0000030212403,8|0,1:3|0:0,0:0:0:0:
383,244,58963,5,12,0:0:0:0:
68,161,59125,1,0,1:0:0:0:
383,132,59287,5,10,0:0:0:0:
86,253,59449,1,0,1:0:0:0:
424,232,59612,5,10,0:0:0:0:
101,163,59774,1,0,1:0:0:0:
348,311,59936,5,10,0:0:0:0:
167,77,60098,1,0,1:0:0:0:
251,333,60260,5,10,0:0:0:0:
261,45,60422,1,0,0:0:0:0:
146,334,60584,5,10,0:0:0:0:
166,46,60747,1,0,1:0:0:0:
37,339,60909,5,10,0:0:0:0:
124,56,61071,1,0,1:0:0:0:
156,351,61233,5,10,0:0:0:0:
45,47,61395,1,0,0:0:0:0:
306,352,61557,6,0,P|256:365|205:352,1,99.0000030212403,4|0,1:0|0:0,0:0:0:0:
444,138,61882,2,0,P|460:188|448:232,1,99.0000030212403,10|0,0:0|1:0,0:0:0:0:
203,32,62206,2,0,P|256:22|306:35,1,99.0000030212403,10|0,0:0|1:0,0:0:0:0:
67,244,62530,2,0,P|52:192|64:145,1,99.0000030212403,10|0,0:0|0:0,0:0:0:0:
295,52,62855,5,2,1:3:0:0:
247,351,63017,1,2,1:3:0:0:
386,13,63503,5,2,1:3:0:0:
413,323,63666,1,2,1:3:0:0:
180,8,64152,5,4,1:0:0:0:
137,79,73233,5,2,1:3:0:0:
79,378,73395,1,2,1:3:0:0:
235,41,73882,5,2,1:3:0:0:
265,356,74044,1,2,1:3:0:0:
506,162,74368,1,0,0:0:0:0:
195,115,74530,6,0,P|263:124|321:17,1,198.000006042481,4|10,1:0|0:0,0:0:0:0:
59,0,75017,1,0,0:0:0:0:
76,159,75179,2,0,L|84:286,1,99.0000030212403,2|0,1:2|1:0,0:0:0:0:
335,221,75503,1,10,0:0:0:0:
235,41,75666,1,0,0:0:0:0:
187,270,75828,6,0,B|237:248|283:285|283:285|330:324|413:279,1,198.000006042481,2|10,1:2|0:0,0:0:0:0:
381,130,76314,1,0,0:0:0:0:
222,343,76476,1,2,1:2:0:0:
460,231,76639,1,0,1:0:0:0:
267,102,76801,1,10,0:0:0:0:
361,343,76963,1,0,0:0:0:0:
343,53,77125,6,0,B|281:17|281:17|134:41,1,198.000006042481,4|8,1:2|0:0,0:0:0:0:
0,124,77612,1,0,0:0:0:0:
266,197,77774,2,0,P|277:135|264:97,1,99.0000030212403,2|0,1:2|1:0,0:0:0:0:
66,238,78098,1,10,0:0:0:0:
329,285,78260,1,0,0:0:0:0:
146,375,78422,5,2,1:2:0:0:
117,118,78584,1,4,0:3:0:0:
344,376,78747,2,0,B|365:346|365:346|356:267,1,99.0000030212403,12|0,0:0|0:0,0:0:0:0:
240,79,79071,5,0,1:0:0:0:
241,106,79152,1,0,1:0:0:0:
243,133,79233,1,0,3:0:0:0:
245,160,79314,1,0,3:0:0:0:
247,187,79395,1,0,3:0:0:0:
249,214,79476,1,0,3:0:0:0:
251,241,79557,1,0,3:0:0:0:
253,269,79639,1,0,3:0:0:0:
256,293,79720,6,0,B|290:302|290:302|361:275,1,90,4|0,1:0|0:0,0:0:0:0:
256,91,80044,2,0,B|222:82|222:82|151:109,1,90,8|0,1:3|0:0,0:0:0:0:
400,135,80368,6,0,B|412:88|412:88|401:41,1,90,4|0,0:3|0:0,0:0:0:0:
112,249,80693,2,0,B|100:296|100:296|111:343,1,90,8|0,1:3|0:0,0:0:0:0:
400,273,81017,6,0,L|400:168,1,90,4|0,0:3|0:0,0:0:0:0:
112,111,81341,2,0,L|112:216,1,90,8|0,1:3|0:0,0:0:0:0:
316,317,81666,6,0,P|367:323|408:313,1,90,4|0,0:3|0:0,0:0:0:0:
196,67,81990,2,0,P|145:61|104:71,1,90,8|0,1:3|0:0,0:0:0:0:
316,317,82314,6,0,B|313:275|313:275|318:257|318:257|312:201,1,90,4|0,1:2|0:0,0:0:0:0:
196,67,82639,2,0,B|199:109|199:109|194:127|194:127|200:183,1,90,8|2,1:3|0:0,0:0:0:0:
427,121,82963,6,0,L|327:111,1,90,4|0,0:3|0:0,0:0:0:0:
186,255,83287,2,0,L|96:263,1,90,8|0,1:3|0:0,0:0:0:0:
85,121,83612,6,0,L|185:111,1,90,4|0,0:3|0:0,0:0:0:0:
326,255,83936,2,0,L|415:263,1,90,10|0,1:3|0:0,0:0:0:0:
257,113,84260,6,0,L|256:20,1,90,6|0,0:3|0:0,0:0:0:0:
257,276,84584,2,0,L|257:366,1,90,10|0,1:3|0:0,0:0:0:0:
139,224,84909,5,12,0:0:0:0:
461,278,85071,1,0,1:0:0:0:
172,62,85233,5,10,0:0:0:0:
121,356,85395,1,0,1:0:0:0:
407,116,85557,5,10,0:0:0:0:
91,45,85720,1,0,1:0:0:0:
376,325,85882,5,10,0:0:0:0:
424,26,86044,1,0,0:0:0:0:
138,251,86206,5,10,0:0:0:0:
456,279,86368,1,0,1:0:0:0:
181,20,86530,5,10,0:0:0:0:
161,363,86693,1,0,1:0:0:0:
265,54,86855,5,10,0:0:0:0:
340,327,87017,1,0,0:0:0:0:
352,21,87179,5,10,0:0:0:0:
238,307,87341,1,2,0:0:0:0:
68,109,87503,6,0,B|142:125|142:125|226:105,1,144
318,119,88152,2,0,P|257:75|207:110,1,144
210,227,88639,1,0,0:0:0:0:
210,227,88801,2,0,B|249:228|257:179|257:179|265:229|323:236,1,144
