osu file format v14

[General]
AudioFilename: audio.mp3
AudioLeadIn: 0
PreviewTime: 37963
Countdown: 0
SampleSet: Soft
StackLeniency: 0.5
Mode: 0
LetterboxInBreaks: 0
WidescreenStoryboard: 1

[Editor]
Bookmarks: 56693,63666
DistanceSpacing: 1
BeatDivisor: 2
GridSize: 8
TimelineZoom: 1.2

[Metadata]
Title:Inferno (TV Size)
TitleUnicode:インフェルノ (TV Size)
Artist:Mrs. GREEN APPLE
ArtistUnicode:Mrs. GREEN APPLE
Creator:sanairrt
Version:Capsule's Normal
Source:炎炎ノ消防隊
Tags:fire force brigade of flames enen no shouboutai opening op anime japanese male vocal Akitoshi Livia Creamy Candy Kowari TimeCapsule TheBlank
BeatmapID:2232313
BeatmapSetID:1066094

[Difficulty]
HPDrainRate:3
CircleSize:3.2
OverallDifficulty:4
ApproachRate:5.5
SliderMultiplier:1.1
SliderTickRate:1

[Events]
//Background and Video events
0,0,"BG.jpg",0,0
//Break Periods
//Storyboard Layer 0 (Background)
//Storyboard Layer 1 (Fail)
//Storyboard Layer 2 (Pass)
//Storyboard Layer 3 (Foreground)
//Storyboard Layer 4 (Overlay)
//Storyboard Sound Samples

[TimingPoints]
585,324.324324324324,4,2,99,88,1,0
5612,-100,4,2,1,60,0,0
5774,-111.111111111111,4,2,99,75,0,0
8206,-111.111111111111,4,2,1,60,0,0
8368,-111.111111111111,4,2,99,75,0,0
9503,-111.111111111111,4,2,1,60,0,0
9666,-111.111111111111,4,2,99,75,0,0
16152,-111.111111111111,4,2,99,75,0,0
18584,-111.111111111111,4,2,1,60,0,0
18747,-111.111111111111,4,2,99,75,0,0
21179,-111.111111111111,4,2,1,60,0,0
21341,-111.111111111111,4,2,99,75,0,0
26206,-111.111111111111,4,2,1,60,0,0
26530,-111.111111111111,4,2,99,60,0,0
28152,-111.111111111111,4,2,1,60,0,0
28476,-111.111111111111,4,2,99,60,0,0
35612,-111.111111111111,4,2,99,60,0,0
38206,-100,4,2,99,88,0,1
47287,-100,4,2,99,88,0,0
48260,-100,4,2,1,60,0,1
48422,-100,4,2,1,80,0,1
48584,-100,4,2,99,88,0,1
53125,-100,4,2,99,88,0,0
53449,-100,4,2,99,88,0,0
58963,-100,4,2,99,88,0,1
64152,-111.111111111111,4,2,99,88,0,0
64476,-111.111111111111,4,2,1,80,0,0
65449,-111.111111111111,4,2,1,60,0,0
65935,-111.111111111111,4,2,1,80,0,0
66584,-111.111111111111,4,2,1,60,0,0
67233,-111.111111111111,4,2,1,80,0,0
67882,-111.111111111111,4,2,1,60,0,0
69827,-111.111111111111,4,2,1,80,0,0
70476,-111.111111111111,4,2,1,60,0,0
71125,-111.111111111111,4,2,1,80,0,0
71773,-111.111111111111,4,2,1,60,0,0
72260,-111.111111111111,4,2,1,80,0,0
73233,-111.111111111111,4,2,99,88,0,0
74530,-100,4,2,99,88,0,1
77449,-100,4,2,1,80,0,1
77774,-100,4,2,99,88,0,1
79720,-100,4,2,99,88,0,0
82801,-100,4,2,1,60,0,0
82963,-100,4,2,99,88,0,0
84098,-100,4,2,1,60,0,0
84260,-100,4,2,99,88,0,0
84909,-100,4,2,99,88,0,1
87503,-111.111111111111,4,2,99,88,0,0

[Colours]
Combo1 : 26,116,242
Combo2 : 164,32,240
Combo3 : 37,185,239
Combo4 : 23,209,116
Combo5 : 255,75,255

[HitObjects]
24,358,585,6,0,P|3:300|3:226,1,110,4|10,1:2|0:0,0:0:0:0:
47,153,1233,2,0,L|102:162,2,55,2|0|10,1:2|1:0|0:0,0:0:0:0:
16,46,1882,2,0,L|124:62,1,110,2|10,1:2|0:0,0:0:0:0:
166,97,2368,2,0,P|224:76|298:76,1,110,0|0,0:0|1:0,0:0:0:0:
318,43,2855,1,10,0:0:0:0:
417,88,3179,6,0,L|400:196,1,110,4|4,1:2|1:3,0:0:0:0:
447,296,3828,1,4,1:3:0:0:
363,367,4152,1,4,1:3:0:0:
263,320,4476,2,0,L|254:265,2,55,2|0|0,1:2|1:0|3:0,0:0:0:0:
155,344,5125,2,0,L|147:289,1,55,0|2,1:0|1:3,0:0:0:0:
57,171,5774,6,0,P|63:122|81:76,1,98.9999969787599,4|0,1:0|1:0,0:0:0:0:
172,37,6422,2,0,L|271:51,1,98.9999969787599,0|0,1:0|1:0,0:0:0:0:
366,30,7071,2,0,B|380:77|380:77|365:126|365:126|382:192,1,148.49999546814,0|0,1:0|0:0,0:0:0:0:
412,209,7720,2,0,P|393:254|387:303,1,98.9999969787599,0|0,1:0|1:0,0:0:0:0:
408,348,8206,5,0,0:0:0:0:
408,348,8368,2,0,L|309:334,1,98.9999969787599,0|0,1:0|1:0,0:0:0:0:
212,318,9017,2,0,L|113:332,1,98.9999969787599,0|0,1:0|1:0,0:0:0:0:
68,350,9503,1,0,0:0:0:0:
68,350,9666,2,0,P|49:304|43:255,1,98.9999969787599,0|0,1:0|1:0,0:0:0:0:
3,164,10314,1,0,1:0:0:0:
43,73,10639,6,0,L|129:84,1,49.4999984893799,0|0,1:0|0:0,0:0:0:0:
139,93,10963,2,0,P|157:138|163:187,1,98.9999969787599,0|0,1:0|1:0,0:0:0:0:
260,211,11612,2,0,P|266:162|284:116,1,98.9999969787599,0|0,1:0|1:0,0:0:0:0:
321,24,12260,2,0,B|368:10|368:10|417:25|417:25|483:8,1,148.49999546814,0|0,1:0|0:0,0:0:0:0:
503,42,12909,1,0,1:0:0:0:
436,115,13233,1,0,1:0:0:0:
497,192,13557,6,0,L|511:291,1,98.9999969787599,0|0,1:0|1:0,0:0:0:0:
416,320,14206,2,0,P|370:301|321:295,1,98.9999969787599,0|0,1:0|1:0,0:0:0:0:
226,264,14855,2,0,L|215:350,1,49.4999984893799,0|0,1:0|0:0,0:0:0:0:
124,340,15341,2,0,L|117:290,1,49.4999984893799,0|0,0:0|1:0,0:0:0:0:
35,236,15828,6,0,L|41:186,1,49.4999984893799,2|0,0:0|0:0,0:0:0:0:
28,139,16152,2,0,P|73:120|122:114,1,98.9999969787599,4|8,1:2|0:0,0:0:0:0:
160,22,16801,2,0,L|259:36,1,98.9999969787599,0|8,1:0|0:0,0:0:0:0:
355,55,17449,2,0,P|373:100|379:149,1,98.9999969787599,0|8,1:0|0:0,0:0:0:0:
381,199,17936,1,0,0:0:0:0:
381,199,18098,2,0,B|333:187|303:201|303:201|269:217|204:194,1,148.49999546814,0|2,1:0|0:0,0:0:0:0:
195,233,18747,5,0,1:0:0:0:
124,164,19071,1,8,0:0:0:0:
42,219,19395,2,0,P|23:264|17:313,1,98.9999969787599,0|8,1:0|0:0,0:0:0:0:
99,368,20044,2,0,L|198:354,1,98.9999969787599,0|8,1:0|0:0,0:0:0:0:
283,306,20693,2,0,L|382:320,1,98.9999969787599,0|8,1:0|0:0,0:0:0:0:
419,351,21179,5,2,0:0:0:0:
419,351,21341,2,0,P|437:305|443:256,1,98.9999969787599,4|8,1:2|0:0,0:0:0:0:
495,171,21990,2,0,L|481:72,1,98.9999969787599,0|8,1:0|0:0,0:0:0:0:
395,23,22639,2,0,P|349:41|300:47,1,98.9999969787599,0|8,1:0|0:0,0:0:0:0:
253,30,23125,1,0,0:0:0:0:
253,30,23287,2,0,B|265:78|251:108|251:108|235:142|258:207,1,148.49999546814,0|0,1:0|0:0,0:0:0:0:
219,216,23936,5,0,1:0:0:0:
288,287,24260,1,8,0:0:0:0:
209,346,24584,2,0,L|110:332,1,98.9999969787599,0|8,1:0|0:0,0:0:0:0:
17,297,25233,2,0,L|10:346,2,49.4999984893799,0|0|8,1:0|1:0|0:0,0:0:0:0:
7,198,25882,1,8,0:0:0:0:
79,130,26206,1,0,0:0:0:0:
33,42,26530,6,0,B|90:22|133:46|133:46|171:67|238:45,1,197.99999395752,4|0,1:0|3:0,0:0:0:0:
305,106,27503,1,0,0:0:0:0:
387,50,27828,2,0,P|404:103|397:152,1,98.9999969787599,0|0,1:0|0:0,0:0:0:0:
322,207,28476,2,0,L|223:193,1,98.9999969787599,0|0,3:0|0:0,0:0:0:0:
132,230,29125,6,0,P|127:181|144:134,2,98.9999969787599,0|0|0,1:0|1:0|3:0,0:0:0:0:
89,319,30098,1,0,0:0:0:0:
185,339,30422,2,0,B|242:319|285:343|285:343|323:364|390:342,1,197.99999395752,0|0,1:0|3:0,0:0:0:0:
468,305,31395,1,0,1:0:0:0:
501,212,31720,6,0,P|452:207|405:224,1,98.9999969787599,0|0,1:0|0:0,0:0:0:0:
311,254,32368,2,0,L|297:155,1,98.9999969787599,0|0,3:0|0:0,0:0:0:0:
257,65,33017,2,0,P|305:60|352:77,2,98.9999969787599,0|0|0,1:0|0:0|3:0,0:0:0:0:
166,23,33990,1,0,0:0:0:0:
102,98,34314,6,0,L|88:197,1,98.9999969787599,0|0,1:0|1:0,0:0:0:0:
52,288,34963,2,0,P|100:292|146:276,1,98.9999969787599,0|0,3:0|0:0,0:0:0:0:
256,192,35612,12,0,37557,3:0:0:0:
146,93,38206,6,0,P|204:72|278:72,1,110,4|10,1:0|0:0,0:0:0:0:
362,72,38855,2,0,L|353:17,2,55,2|0|10,1:2|1:0|0:0,0:0:0:0:
471,64,39503,2,0,L|454:172,1,110,2|10,1:2|0:0,0:0:0:0:
478,222,39990,1,0,0:0:0:0:
478,222,40152,2,0,P|426:202|372:197,1,110,2|10,1:2|0:0,0:0:0:0:
275,155,40801,6,0,P|220:159|169:179,1,110,2|10,1:2|0:0,0:0:0:0:
78,241,41449,2,0,L|69:186,2,55,2|0|10,1:2|1:0|0:0,0:0:0:0:
57,292,41936,1,0,0:0:0:0:
57,292,42098,2,0,B|110:279|166:303|166:303|217:326|276:308,1,220,2|2,1:2|1:2,0:0:0:0:
371,356,43071,1,10,0:0:0:0:
471,312,43395,6,0,P|466:257|446:206,1,110,4|10,1:0|0:0,0:0:0:0:
401,105,44044,2,0,L|456:114,2,55,2|0|10,1:2|1:0|0:0,0:0:0:0:
414,4,44693,2,0,L|306:21,1,110,2|10,1:2|0:0,0:0:0:0:
250,15,45179,1,0,0:0:0:0:
250,15,45341,2,0,P|230:66|225:120,1,110,2|10,1:2|0:0,0:0:0:0:
229,230,45990,6,0,P|178:210|124:205,1,110,2|10,1:2|0:0,0:0:0:0:
82,242,46476,1,0,0:0:0:0:
82,242,46639,2,0,L|65:134,1,110,2|12,1:2|0:0,0:0:0:0:
20,101,47125,1,0,0:0:0:0:
20,101,47287,2,0,L|29:46,1,55,2|2,1:3|1:3,0:0:0:0:
191,18,47936,2,0,L|200:73,1,55,2|12,1:3|0:0,0:0:0:0:
364,81,48584,6,0,P|418:77|469:57,1,110,4|10,1:0|0:0,0:0:0:0:
502,163,49233,2,0,L|511:218,2,55,2|0|10,1:2|1:0|0:0,0:0:0:0:
399,203,49882,2,0,L|382:311,1,110,2|10,1:2|0:0,0:0:0:0:
412,357,50368,1,0,0:0:0:0:
412,357,50530,2,0,P|360:337|306:332,1,110,2|10,1:2|0:0,0:0:0:0:
199,359,51179,6,0,L|182:251,1,110,2|10,1:2|0:0,0:0:0:0:
253,167,51828,2,0,L|308:176,2,55,2|0|10,1:2|1:0|0:0,0:0:0:0:
227,118,52314,1,0,0:0:0:0:
227,118,52476,2,0,P|172:123|121:143,1,110,2|12,1:2|0:0,0:0:0:0:
29,203,53125,1,0,1:0:0:0:
1,96,53449,1,0,3:0:0:0:
96,37,53774,6,0,P|116:89|121:143,1,110,4|8,1:0|1:3,0:0:0:0:
102,251,54422,2,0,L|210:268,1,110,4|8,0:3|1:3,0:0:0:0:
313,308,55071,2,0,L|421:291,1,110,4|8,0:3|1:3,0:0:0:0:
482,197,55720,2,0,P|501:145|507:91,1,110,4|8,0:3|1:3,0:0:0:0:
435,8,56368,5,4,1:0:0:0:
333,51,56693,1,8,1:3:0:0:
223,39,57017,2,0,P|242:90|248:144,1,110,4|8,0:3|1:3,0:0:0:0:
337,209,57666,2,0,P|317:260|311:314,1,110,4|8,0:3|1:3,0:0:0:0:
326,367,58152,1,0,0:0:0:0:
326,367,58314,2,0,P|274:347|220:341,1,110,4|8,0:3|1:3,0:0:0:0:
118,383,58963,5,12,0:0:0:0:
43,301,59287,1,10,0:0:0:0:
103,208,59612,1,10,0:0:0:0:
210,231,59936,1,10,0:0:0:0:
220,341,60260,2,0,L|328:324,1,110,10|10,0:0|0:0,0:0:0:0:
437,342,60909,2,0,L|454:234,1,110,10|10,0:0|0:0,0:0:0:0:
509,138,61557,5,4,1:0:0:0:
429,61,61882,1,10,0:0:0:0:
335,119,62206,2,0,P|280:113|229:93,1,110,10|10,0:0|0:0,0:0:0:0:
129,47,62855,2,0,L|121:102,1,55,2|2,1:3|1:3,0:0:0:0:
0,215,63503,2,0,L|8:270,1,55,2|2,1:3|1:3,0:0:0:0:
125,360,64152,6,0,P|178:343|227:350,1,98.9999969787599,4|0,1:0|0:0,0:0:0:0:
269,358,64639,1,0,0:0:0:0:
269,358,64801,2,0,L|283:259,1,98.9999969787599
238,171,65449,2,0,B|285:157|285:157|334:172|334:172|380:159,1,148.49999546814,2|0,0:0|0:0,0:0:0:0:
413,121,66098,1,0,0:0:0:0:
464,260,66584,5,0,0:0:0:0:
464,260,66747,2,0,P|393:267|325:321,1,148.49999546814,2|0,0:0|0:0,0:0:0:0:
291,339,67395,1,0,0:0:0:0:
150,289,67882,1,0,0:0:0:0:
150,289,68044,2,0,L|126:129,1,148.49999546814,2|0,0:0|0:0,0:0:0:0:
98,101,68693,1,2,0:0:0:0:
223,21,69179,5,0,0:0:0:0:
223,21,69341,2,0,B|270:7|270:7|319:22|319:22|365:9,1,148.49999546814,2|0,0:0|0:0,0:0:0:0:
413,22,69990,2,0,P|456:81|464:154,1,148.49999546814
445,200,70639,1,2,0:0:0:0:
361,320,71125,1,0,0:0:0:0:
361,320,71287,2,0,L|214:297,1,148.49999546814
170,319,71936,6,0,P|127:260|119:187,1,148.49999546814
94,143,72584,2,0,P|147:126|196:133,1,98.9999969787599
283,99,73233,2,0,L|290:148,1,49.4999984893799,2|2,1:3|1:3,0:0:0:0:
311,295,73882,1,2,1:3:0:0:
311,295,74044,1,2,1:3:0:0:
444,197,74530,6,0,P|465:139|465:65,1,110,4|10,1:0|0:0,0:0:0:0:
386,16,75179,2,0,L|331:25,1,55,2|0,1:2|1:0,0:0:0:0:
301,70,75503,1,10,0:0:0:0:
204,123,75828,2,0,L|96:106,1,110,2|10,1:2|0:0,0:0:0:0:
12,177,76476,2,0,P|31:228|36:282,1,110,2|10,1:2|0:0,0:0:0:0:
26,337,76963,5,0,0:0:0:0:
26,337,77125,2,0,P|77:317|131:312,1,110,4|8,1:2|0:0,0:0:0:0:
241,300,77774,2,0,L|232:355,2,55,2|0|10,1:2|1:0|0:0,0:0:0:0:
281,262,78260,1,0,0:0:0:0:
281,262,78422,2,0,P|332:281|386:286,1,110,2|12,1:2|0:0,0:0:0:0:
492,254,79071,2,0,L|475:146,1,110,0|0,1:0|3:0,0:0:0:0:
430,46,79720,6,0,P|378:65|324:70,1,110,4|8,1:0|1:3,0:0:0:0:
219,35,80368,2,0,L|202:143,1,110,4|8,0:3|1:3,0:0:0:0:
116,213,81017,2,0,L|133:321,1,110,4|8,0:3|1:3,0:0:0:0:
226,380,81666,1,4,0:3:0:0:
319,322,81990,1,8,1:3:0:0:
424,353,82314,6,0,P|419:298|399:247,1,110,4|8,1:2|1:3,0:0:0:0:
419,195,82801,1,2,0:0:0:0:
419,195,82963,2,0,L|311:178,1,110,4|8,0:3|1:3,0:0:0:0:
203,204,83612,2,0,P|207:149|227:98,1,110,4|10,0:3|1:3,0:0:0:0:
208,46,84098,1,0,0:0:0:0:
208,46,84260,2,0,L|316:29,1,110,6|10,0:3|1:3,0:0:0:0:
419,68,84909,6,0,L|427:123,1,55,12|0,0:0|1:0,0:0:0:0:
457,168,85233,2,0,L|449:223,1,55,10|0,0:0|1:0,0:0:0:0:
399,247,85557,2,0,P|347:227|293:222,1,110,10|10,0:0|0:0,0:0:0:0:
185,200,86206,2,0,L|177:255,1,55,10|0,0:0|1:0,0:0:0:0:
132,286,86530,2,0,L|140:341,1,55,10|0,0:0|1:0,0:0:0:0:
185,371,86855,2,0,P|236:351|290:346,1,110,10|10,0:0|0:0,0:0:0:0:
383,379,87503,5,0,0:0:0:0:
446,303,87828,1,0,0:0:0:0:
397,216,88152,2,0,L|289:199,1,98.9999969787599
251,216,88639,2,0,L|243:161,1,49.4999984893799
