osu file format v14

[General]
AudioFilename: audio.mp3
AudioLeadIn: 0
PreviewTime: 38179
Countdown: 0
SampleSet: Soft
StackLeniency: 0.7
Mode: 3
LetterboxInBreaks: 0
SpecialStyle: 0
WidescreenStoryboard: 1

[Editor]
Bookmarks: 801,5990,16368,26746,38422,48800,64368,74746,89341
DistanceSpacing: 1.1
BeatDivisor: 4
GridSize: 32
TimelineZoom: 2.1

[Metadata]
Title:Inferno (TV Size)
TitleUnicode:インフェルノ (TV Size)
Artist:Mrs. GREEN APPLE
ArtistUnicode:Mrs. GREEN APPLE
Creator:Yuiazu-
Version:Easy
Source:炎炎ノ消防隊
Tags:ミセスグリーンアップル Fire Brigade of Flames Force Enen no Shouboutai Enn Shobotai Shoubotai Shoboutai Shōbōtai Attitude Opening Theme Op One 1 Anime Song Anisong Male Vocal David Production Company 8 Japanese Rock J-Rock JRock Pop J-Pop JPop EMI Records Universal Music Group 大森元貴 Motoki Ohmori 若井滉斗 Hiroto Wakai 山中綾華 Ayaka Yamanaka 藤澤涼架 Ryoka Fujisawa 髙野清宗 Kiyokatsu Takano Kiyokazu 森羅 日下部 Shinra Kusakabe アーサー・ボイル Arthur Boyle アイリス Iris 環 古達 Tamaki Kotatsu 茉希 尾瀬 Maki Oze 秋樽 桜備 Akitaru Oubi 武久 火縄 Takehisa Hinawa
BeatmapID:3491690
BeatmapSetID:1708797

[Difficulty]
HPDrainRate:7
CircleSize:4
OverallDifficulty:7
ApproachRate:5
SliderMultiplier:1.4
SliderTickRate:1

[Events]
//Background and Video events
0,0,"bg.jpg",0,0
Video,490,"mv.mp4"
//Break Periods
//Storyboard Layer 0 (Background)
//Storyboard Layer 1 (Fail)
//Storyboard Layer 2 (Pass)
//Storyboard Layer 3 (Foreground)
//Storyboard Layer 4 (Overlay)
//Storyboard Sound Samples
Sample,47503,0,"tom3.wav",55
Sample,47665,0,"tom3.wav",55
Sample,48152,0,"tom3.wav",55
Sample,48314,0,"tom3.wav",55
Sample,63071,0,"tom3.wav",55
Sample,63233,0,"tom3.wav",55
Sample,63719,0,"tom3.wav",55
Sample,63882,0,"tom3.wav",55
Sample,73449,0,"tom3.wav",55
Sample,73611,0,"tom3.wav",55
Sample,74098,0,"tom3.wav",55
Sample,74260,0,"tom3.wav",55
Sample,80260,0,"Crash 2.wav",55
Sample,84800,0,"Crash 2.wav",55

[TimingPoints]
801,324.324324324324,4,2,1,55,1,0
38422,-100,4,2,1,55,0,1
47503,-100,4,2,1,55,0,0
48800,-100,4,2,1,55,0,1
63071,-100,4,2,1,55,0,0
64530,-100,4,2,1,45,0,0
73449,-100,4,2,1,55,0,0
74746,-100,4,2,1,55,0,1
87719,-100,4,2,1,55,0,0

[HitObjects]
64,192,801,5,2,0:0:0:0:
448,192,801,1,4,0:0:0:0:
192,192,1125,1,8,0:0:0:0:
320,192,1449,1,2,0:0:0:0:
192,192,1611,1,2,0:0:0:0:
448,192,1773,1,8,0:0:0:0:
192,192,2098,1,2,0:0:0:0:
320,192,2260,1,2,0:0:0:0:
64,192,2422,1,8,0:0:0:0:
448,192,2746,1,2,0:0:0:0:
320,192,2909,1,2,0:0:0:0:
192,192,3071,1,8,0:0:0:0:
64,192,3395,1,2,0:0:0:0:
448,192,3395,1,4,0:0:0:0:
320,192,3719,1,8,0:0:0:0:
192,192,4044,1,8,0:0:0:0:
448,192,4368,1,8,0:0:0:0:
64,192,4692,1,8,0:0:0:0:
320,192,4855,1,2,0:0:0:0:
192,192,5017,128,8,5341:0:0:0:0:
448,192,5341,1,2,0:0:0:0:
64,192,5503,1,2,0:0:0:0:
320,192,5990,1,2,0:0:0:0:
448,192,5990,1,4,0:0:0:0:
192,192,6314,128,2,6638:0:0:0:0:
320,192,6638,1,2,0:0:0:0:
64,192,6963,128,2,7287:0:0:0:0:
448,192,7287,1,2,0:0:0:0:
320,192,7611,128,2,7936:0:0:0:0:
192,192,7936,1,2,0:0:0:0:
448,192,8260,128,2,8584:0:0:0:0:
64,192,8584,1,2,0:0:0:0:
192,192,8909,128,2,9233:0:0:0:0:
448,192,9233,1,2,0:0:0:0:
320,192,9557,128,2,9882:0:0:0:0:
192,192,9882,1,2,0:0:0:0:
64,192,10206,128,2,10530:0:0:0:0:
320,192,10530,1,2,0:0:0:0:
448,192,10855,128,2,11179:0:0:0:0:
64,192,11179,1,2,0:0:0:0:
192,192,11503,128,2,11828:0:0:0:0:
448,192,11828,1,2,0:0:0:0:
320,192,12152,128,2,12476:0:0:0:0:
64,192,12476,1,2,0:0:0:0:
448,192,12800,128,2,13125:0:0:0:0:
192,192,13125,1,2,0:0:0:0:
64,192,13449,128,2,13773:0:0:0:0:
320,192,13773,1,2,0:0:0:0:
192,192,14098,128,2,14422:0:0:0:0:
320,192,14422,1,2,0:0:0:0:
448,192,14746,128,2,15071:0:0:0:0:
64,192,15071,1,2,0:0:0:0:
320,192,15395,128,2,15719:0:0:0:0:
192,192,15719,1,2,0:0:0:0:
64,192,16044,1,2,0:0:0:0:
448,192,16044,1,0,0:0:0:55:Crash 2.wav
192,192,16368,1,4,0:0:0:0:
320,192,16368,1,2,0:0:0:0:
448,192,16692,1,8,0:0:0:0:
64,192,17017,1,2,0:0:0:0:
192,192,17179,1,2,0:0:0:0:
320,192,17341,1,8,0:0:0:0:
448,192,17665,1,2,0:0:0:0:
192,192,17828,1,2,0:0:0:0:
320,192,17990,1,8,0:0:0:0:
64,192,18314,1,2,0:0:0:0:
320,192,18476,1,2,0:0:0:0:
192,192,18638,1,8,0:0:0:0:
448,192,18963,1,2,0:0:0:0:
320,192,19125,1,2,0:0:0:0:
64,192,19287,1,8,0:0:0:0:
192,192,19611,1,2,0:0:0:0:
320,192,19773,1,2,0:0:0:0:
448,192,19936,1,8,0:0:0:0:
320,192,20260,1,2,0:0:0:0:
192,192,20422,1,2,0:0:0:0:
64,192,20584,1,8,0:0:0:0:
448,192,20909,1,2,0:0:0:0:
320,192,21071,1,2,0:0:0:0:
64,192,21233,1,8,0:0:0:0:
192,192,21557,1,2,0:0:0:0:
448,192,21882,1,8,0:0:0:0:
192,192,22206,1,2,0:0:0:0:
320,192,22368,1,2,0:0:0:0:
64,192,22530,1,8,0:0:0:0:
320,192,22855,1,2,0:0:0:0:
192,192,23017,1,2,0:0:0:0:
448,192,23179,1,8,0:0:0:0:
64,192,23503,1,2,0:0:0:0:
192,192,23665,1,2,0:0:0:0:
320,192,23828,1,8,0:0:0:0:
448,192,24152,1,2,0:0:0:0:
320,192,24314,1,2,0:0:0:0:
64,192,24476,1,8,0:0:0:0:
192,192,24800,1,2,0:0:0:0:
320,192,24963,1,2,0:0:0:0:
448,192,25125,1,8,0:0:0:0:
192,192,25449,1,2,0:0:0:0:
448,192,25611,1,2,0:0:0:0:
320,192,25773,1,8,0:0:0:0:
64,192,25936,1,2,0:0:0:0:
192,192,26098,1,8,0:0:0:0:
64,192,26746,1,2,0:0:0:0:
448,192,26746,128,4,27071:0:0:0:0:
192,192,27071,128,0,27395:0:0:0:0:
320,192,27395,128,0,27719:0:0:0:60:LR_Clap Med .wav
448,192,27395,1,0,0:0:0:0:
64,192,27719,128,0,28044:0:0:0:0:
448,192,28044,128,2,28368:0:0:0:0:
64,192,28692,1,0,0:0:0:60:LR_Clap Med .wav
192,192,28692,128,0,29017:0:0:0:0:
320,192,29017,128,0,29341:0:0:0:0:
64,192,29341,128,2,29665:0:0:0:0:
192,192,29665,128,2,29990:0:0:0:0:
320,192,29990,1,0,0:0:0:60:LR_Clap Med .wav
448,192,29990,128,0,30638:0:0:0:0:
64,192,30638,128,0,30963:0:0:0:0:
320,192,31287,128,0,31611:0:0:0:70:LR_Clap DS.wav
448,192,31287,1,0,0:0:0:0:
64,192,31611,128,2,31936:0:0:0:0:
448,192,31936,128,2,32260:0:0:0:0:
320,192,32260,128,0,32584:0:0:0:0:
64,192,32584,128,0,32909:0:0:0:60:LR_Clap Med .wav
192,192,32584,1,0,0:0:0:0:
448,192,32909,128,0,33233:0:0:0:0:
192,192,33233,128,2,33557:0:0:0:0:
320,192,33557,128,0,33882:0:0:0:0:
64,192,33882,128,0,34206:0:0:0:60:LR_Clap Med .wav
448,192,33882,1,0,0:0:0:0:
192,192,34206,128,0,34530:0:0:0:0:
448,192,34530,128,2,34855:0:0:0:0:
320,192,34855,128,2,35179:0:0:0:0:
64,192,35179,128,0,35828:0:0:0:60:LR_Clap Med .wav
192,192,35179,1,0,0:0:0:0:
320,192,35828,1,0,0:0:0:60:LR_Clap Med .wav
448,192,35828,128,0,36476:0:0:0:0:
192,192,36800,1,0,0:0:0:60:LR_Clap Med .wav
320,192,36963,1,0,0:0:0:60:LR_Clap Med .wav
64,192,37125,128,2,38098:0:0:0:0:
192,192,38098,128,0,38422:0:0:0:0:
320,192,38422,128,2,38746:0:0:0:0:
448,192,38422,1,4,0:0:0:0:
64,192,38746,1,8,0:0:0:0:
448,192,39071,1,2,0:0:0:0:
192,192,39233,1,2,0:0:0:0:
320,192,39395,1,8,0:0:0:0:
64,192,39719,1,2,0:0:0:0:
320,192,39882,1,2,0:0:0:0:
192,192,40044,1,8,0:0:0:0:
320,192,40368,1,2,0:0:0:0:
192,192,40530,1,2,0:0:0:0:
448,192,40692,1,8,0:0:0:0:
192,192,41017,1,2,0:0:0:0:
320,192,41179,1,2,0:0:0:0:
64,192,41341,1,8,0:0:0:0:
448,192,41665,1,2,0:0:0:0:
320,192,41828,1,2,0:0:0:0:
192,192,41990,1,8,0:0:0:0:
64,192,42314,1,2,0:0:0:0:
192,192,42476,1,2,0:0:0:0:
320,192,42638,1,8,0:0:0:0:
448,192,42963,1,2,0:0:0:0:
320,192,43125,1,2,0:0:0:0:
64,192,43287,1,8,0:0:0:0:
192,192,43611,1,2,0:0:0:0:
320,192,43773,1,2,0:0:0:0:
448,192,43936,1,8,0:0:0:0:
320,192,44260,1,2,0:0:0:0:
192,192,44422,1,2,0:0:0:0:
64,192,44584,1,8,0:0:0:0:
448,192,44909,1,2,0:0:0:0:
320,192,45071,1,2,0:0:0:0:
192,192,45233,1,8,0:0:0:0:
64,192,45557,1,2,0:0:0:0:
192,192,45719,1,2,0:0:0:0:
448,192,45882,1,8,0:0:0:0:
320,192,46206,1,2,0:0:0:0:
192,192,46368,1,2,0:0:0:0:
64,192,46530,1,8,0:0:0:0:
192,192,46855,1,2,0:0:0:0:
320,192,47017,1,2,0:0:0:0:
64,192,47179,1,8,0:0:0:0:
448,192,47179,1,4,0:0:0:0:
320,192,47503,1,8,0:0:0:0:
192,192,47665,1,8,0:0:0:0:
64,192,48152,1,8,0:0:0:0:
448,192,48314,1,8,0:0:0:0:
192,192,48476,128,8,48800:0:0:0:0:
320,192,48800,1,2,0:0:0:0:
448,192,48800,128,4,49125:0:0:0:0:
64,192,49125,1,8,0:0:0:0:
320,192,49449,1,2,0:0:0:0:
192,192,49611,1,2,0:0:0:0:
448,192,49773,1,8,0:0:0:0:
192,192,50098,1,2,0:0:0:0:
320,192,50260,1,2,0:0:0:0:
64,192,50422,1,8,0:0:0:0:
448,192,50746,1,2,0:0:0:0:
320,192,50909,1,2,0:0:0:0:
192,192,51071,1,8,0:0:0:0:
64,192,51395,1,2,0:0:0:0:
192,192,51557,1,2,0:0:0:0:
320,192,51719,1,8,0:0:0:0:
448,192,52044,1,2,0:0:0:0:
320,192,52206,1,2,0:0:0:0:
64,192,52368,1,8,0:0:0:0:
192,192,52692,1,2,0:0:0:0:
320,192,52855,1,2,0:0:0:0:
64,192,53017,1,8,0:0:0:0:
448,192,53017,1,4,0:0:0:0:
320,192,53341,128,2,53665:0:0:0:0:
64,192,53665,128,8,53990:0:0:0:0:
320,192,53990,1,2,0:0:0:0:
448,192,53990,128,4,54314:0:0:0:0:
192,192,54314,1,8,0:0:0:0:
320,192,54638,128,2,54963:0:0:0:0:
64,192,54963,1,8,0:0:0:0:
192,192,55287,128,2,55611:0:0:0:0:
448,192,55611,1,8,0:0:0:0:
64,192,55936,128,2,56260:0:0:0:0:
192,192,56260,1,8,0:0:0:0:
320,192,56584,1,2,0:0:0:0:
448,192,56584,128,4,56909:0:0:0:0:
64,192,56909,1,8,0:0:0:0:
192,192,57233,128,2,57557:0:0:0:0:
448,192,57557,1,8,0:0:0:0:
320,192,57882,128,2,58206:0:0:0:0:
192,192,58206,1,8,0:0:0:0:
64,192,58530,128,2,58855:0:0:0:0:
192,192,58855,1,8,0:0:0:0:
320,192,59179,128,2,59503:0:0:0:0:
448,192,59179,1,4,0:0:0:0:
64,192,59503,128,8,59828:0:0:0:0:
192,192,59828,1,8,0:0:0:0:
448,192,59828,128,0,60152:0:0:0:0:
320,192,60152,128,8,60476:0:0:0:0:
64,192,60476,1,8,0:0:0:0:
192,192,60476,128,0,60800:0:0:0:0:
448,192,60800,128,8,61125:0:0:0:0:
64,192,61125,128,8,61449:0:0:0:0:
320,192,61125,1,0,0:0:0:0:
192,192,61449,128,8,61773:0:0:0:0:
320,192,61773,128,8,62098:0:0:0:0:
448,192,61773,1,4,0:0:0:0:
64,192,62098,128,8,62422:0:0:0:0:
192,192,62422,1,8,0:0:0:0:
448,192,62422,128,0,62746:0:0:0:0:
320,192,62746,128,8,63071:0:0:0:0:
64,192,63071,1,8,0:0:0:0:
448,192,63233,1,8,0:0:0:0:
320,192,63719,1,8,0:0:0:0:
192,192,63882,1,8,0:0:0:0:
64,192,64368,1,2,0:0:0:0:
448,192,64368,128,4,65017:0:0:0:0:
192,192,65017,128,0,65665:0:0:0:0:
320,192,65665,128,0,66314:0:0:0:0:
64,192,66314,128,0,66963:0:0:0:0:
448,192,66963,128,0,67611:0:0:0:0:
320,192,67611,128,0,68260:0:0:0:0:
64,192,68260,128,0,68909:0:0:0:0:
192,192,68909,128,0,69557:0:0:0:0:
448,192,69557,128,0,70206:0:0:0:0:
64,192,70206,128,0,70855:0:0:0:0:
320,192,70855,128,0,71503:0:0:0:0:
192,192,71503,128,0,72152:0:0:0:0:
448,192,72152,128,0,72800:0:0:0:0:
64,192,72800,128,0,73449:0:0:0:0:
448,192,73449,1,8,0:0:0:0:
192,192,73611,1,8,0:0:0:0:
64,192,74098,1,8,0:0:0:0:
320,192,74260,1,8,0:0:0:0:
320,192,74746,1,2,0:0:0:0:
448,192,74746,128,4,75071:0:0:0:0:
64,192,75071,1,8,0:0:0:0:
192,192,75395,1,2,0:0:0:0:
320,192,75557,1,2,0:0:0:0:
448,192,75719,1,8,0:0:0:0:
64,192,76044,1,2,0:0:0:0:
320,192,76206,1,2,0:0:0:0:
192,192,76368,1,8,0:0:0:0:
448,192,76692,1,2,0:0:0:0:
320,192,76855,1,2,0:0:0:0:
64,192,77017,1,8,0:0:0:0:
192,192,77341,1,2,0:0:0:0:
448,192,77341,1,4,0:0:0:0:
320,192,77503,1,2,0:0:0:0:
64,192,77665,1,8,0:0:0:0:
192,192,77990,1,2,0:0:0:0:
320,192,78152,1,2,0:0:0:0:
448,192,78314,1,8,0:0:0:0:
320,192,78638,1,2,0:0:0:0:
192,192,78800,1,2,0:0:0:0:
64,192,78963,1,8,0:0:0:0:
448,192,78963,1,4,0:0:0:0:
192,192,79287,128,2,79611:0:0:0:0:
320,192,79611,128,8,79936:0:0:0:0:
64,192,79936,128,2,80260:0:0:0:0:
448,192,79936,1,4,0:0:0:0:
320,192,80260,1,8,0:0:0:0:
192,192,80584,128,2,80909:0:0:0:0:
448,192,80909,1,8,0:0:0:0:
320,192,81233,128,2,81557:0:0:0:0:
64,192,81557,1,8,0:0:0:0:
448,192,81882,128,2,82206:0:0:0:0:
192,192,82206,1,8,0:0:0:0:
64,192,82530,128,2,82855:0:0:0:0:
320,192,82530,1,4,0:0:0:0:
448,192,82855,1,8,0:0:0:0:
192,192,83179,128,2,83503:0:0:0:0:
320,192,83503,1,8,0:0:0:0:
448,192,83828,128,2,84152:0:0:0:0:
64,192,84152,1,8,0:0:0:0:
192,192,84476,1,8,0:0:0:0:
320,192,84476,128,0,84800:0:0:0:55:Crash 2.wav
448,192,84800,1,8,0:0:0:0:
64,192,85125,1,8,0:0:0:0:
192,192,85125,128,4,85449:0:0:0:0:
448,192,85449,128,8,85773:0:0:0:0:
64,192,85773,128,8,86098:0:0:0:0:
192,192,85773,1,0,0:0:0:0:
320,192,86098,128,8,86422:0:0:0:0:
192,192,86422,128,8,86746:0:0:0:0:
448,192,86422,1,0,0:0:0:0:
64,192,86746,128,8,87071:0:0:0:0:
320,192,87071,1,8,0:0:0:0:
448,192,87071,128,0,87395:0:0:0:0:
64,192,87395,1,8,0:0:0:0:
192,192,87395,128,0,87719:0:0:0:0:
320,192,87719,128,0,88044:0:0:0:0:
64,192,88044,128,0,88368:0:0:0:0:
448,192,88368,128,0,88692:0:0:0:0:
192,192,88692,128,0,89017:0:0:0:0:
320,192,89017,128,0,89341:0:0:0:0:
