osu file format v14

[General]
AudioFilename: audio.mp3
AudioLeadIn: 0
PreviewTime: 38179
Countdown: 0
SampleSet: Soft
StackLeniency: 0.7
Mode: 3
LetterboxInBreaks: 0
SpecialStyle: 0
WidescreenStoryboard: 1

[Editor]
Bookmarks: 801,5990,16368,26746,38422,48800,64368,74746,89341
DistanceSpacing: 1.1
BeatDivisor: 4
GridSize: 32
TimelineZoom: 2

[Metadata]
Title:Inferno (TV Size)
TitleUnicode:インフェルノ (TV Size)
Artist:Mrs. GREEN APPLE
ArtistUnicode:Mrs. GREEN APPLE
Creator:Yuiazu-
Version:Adolla Burst
Source:炎炎ノ消防隊
Tags:ミセスグリーンアップル Fire Brigade of Flames Force Enen no Shouboutai Enn Shobotai Shoubotai Shoboutai Shōbōtai Attitude Opening Theme Op One 1 Anime Song Anisong Male Vocal David Production Company 8 Japanese Rock J-Rock JRock Pop J-Pop JPop EMI Records Universal Music Group 大森元貴 Motoki Ohmori 若井滉斗 Hiroto Wakai 山中綾華 Ayaka Yamanaka 藤澤涼架 Ryoka Fujisawa 髙野清宗 Kiyokatsu Takano Kiyokazu 森羅 日下部 Shinra Kusakabe アーサー・ボイル Arthur Boyle アイリス Iris 環 古達 Tamaki Kotatsu 茉希 尾瀬 Maki Oze 秋樽 桜備 Akitaru Oubi 武久 火縄 Takehisa Hinawa
BeatmapID:3491689
BeatmapSetID:1708797

[Difficulty]
HPDrainRate:8.5
CircleSize:4
OverallDifficulty:8.5
ApproachRate:5
SliderMultiplier:1.4
SliderTickRate:1

[Events]
//Background and Video events
0,0,"bg.jpg",0,0
Video,490,"mv.mp4"
//Break Periods
//Storyboard Layer 0 (Background)
//Storyboard Layer 1 (Fail)
//Storyboard Layer 2 (Pass)
//Storyboard Layer 3 (Foreground)
//Storyboard Layer 4 (Overlay)
//Storyboard Sound Samples

[TimingPoints]
801,324.324324324324,4,2,1,55,1,0
26746,-117.647058823529,4,2,1,55,0,0
35828,-111.111111111111,4,2,1,55,0,0
36476,-105.263157894737,4,2,1,55,0,0
37125,-100.0,4,2,1,55,0,0
38422,-100.0,4,2,1,55,0,1
47503,-66.6666666666667,4,2,1,55,0,0
47584,-200.0,4,2,1,55,0,0
47665,-66.6666666666667,4,2,1,55,0,0
47746,-200.0,4,2,1,55,0,0
48152,-66.6666666666667,4,2,1,55,0,0
48233,-200.0,4,2,1,55,0,0
48314,-66.6666666666667,4,2,1,55,0,0
48395,-200.0,4,2,1,55,0,0
48476,-100.0,4,2,1,55,0,0
48800,-100.0,4,2,1,55,0,1
63071,-66.6666666666667,4,2,1,55,0,0
63152,-200.0,4,2,1,55,0,0
63233,-66.6666666666667,4,2,1,55,0,0
63314,-200.0,4,2,1,55,0,0
63720,-66.6666666666667,4,2,1,55,0,0
63801,-200.0,4,2,1,55,0,0
63882,-66.6666666666667,4,2,1,55,0,0
63963,-200.0,4,2,1,55,0,0
64044,-100.0,4,2,1,55,0,0
64165,-200.0,4,2,1,55,0,0
64205,-142.857142857143,4,2,1,55,0,0
64246,-111.111111111111,4,2,1,55,0,0
64286,-90.9090909090909,4,2,1,55,0,0
64327,-76.9230769230769,4,2,1,55,0,0
64368,-100.0,4,2,1,55,0,0
64530,-100.0,4,2,1,45,0,0
73449,-66.6666666666667,4,2,1,55,0,0
73530,-200.0,4,2,1,55,0,0
73611,-66.6666666666667,4,2,1,55,0,0
73692,-200.0,4,2,1,55,0,0
74098,-66.6666666666667,4,2,1,55,0,0
74179,-200.0,4,2,1,55,0,0
74260,-66.6666666666667,4,2,1,55,0,0
74341,-200.0,4,2,1,55,0,0
74422,-100.0,4,2,1,55,0,0
74543,-200.0,4,2,1,55,0,0
74583,-142.857142857143,4,2,1,55,0,0
74624,-111.111111111111,4,2,1,55,0,0
74664,-90.9090909090909,4,2,1,55,0,0
74705,-76.9230769230769,4,2,1,55,0,0
74746,-100.0,4,2,1,55,0,1
87719,-100.0,4,2,1,55,0,0

[HitObjects]
64,192,801,1,2,0:0:0:0:
192,192,801,128,4,963:0:0:0:0:
448,192,801,1,0,0:0:0:0:
320,192,963,128,0,1125:0:0:0:0:
64,192,1125,128,8,1287:0:0:0:0:
192,192,1125,1,0,0:0:0:0:
448,192,1125,1,0,0:0:0:0:
320,192,1287,128,0,1449:0:0:0:0:
192,192,1449,128,2,1611:0:0:0:0:
448,192,1449,1,0,0:0:0:0:
64,192,1611,1,2,0:0:0:0:
448,192,1611,128,0,1773:0:0:0:0:
64,192,1773,128,8,1936:0:0:0:0:
192,192,1773,1,0,0:0:0:0:
320,192,1773,1,0,0:0:0:0:
448,192,1936,128,0,2098:0:0:0:0:
192,192,2098,128,2,2260:0:0:0:0:
320,192,2098,1,0,0:0:0:0:
64,192,2260,1,2,0:0:0:0:
320,192,2260,128,0,2422:0:0:0:0:
64,192,2422,128,8,2584:0:0:0:0:
192,192,2422,1,0,0:0:0:0:
448,192,2422,1,0,0:0:0:0:
320,192,2584,128,0,2746:0:0:0:0:
192,192,2746,128,2,2909:0:0:0:0:
448,192,2746,1,0,0:0:0:0:
64,192,2909,1,2,0:0:0:0:
448,192,2909,128,0,3071:0:0:0:0:
64,192,3071,128,8,3233:0:0:0:0:
192,192,3071,1,0,0:0:0:0:
320,192,3071,1,0,0:0:0:0:
320,192,3233,128,0,3395:0:0:0:0:
64,192,3395,1,2,0:0:0:0:
192,192,3395,128,4,3719:0:0:0:0:
448,192,3395,1,0,0:0:0:0:
320,192,3557,1,0,0:0:0:0:
64,192,3719,1,8,0:0:0:0:
320,192,3719,1,0,0:0:0:0:
448,192,3719,128,0,4044:0:0:0:0:
192,192,3882,1,0,0:0:0:0:
64,192,4044,128,8,4368:0:0:0:0:
192,192,4044,1,0,0:0:0:0:
320,192,4044,1,0,0:0:0:0:
448,192,4206,1,0,0:0:0:0:
192,192,4368,1,8,0:0:0:0:
320,192,4368,128,0,4692:0:0:0:0:
448,192,4368,1,0,0:0:0:0:
64,192,4530,1,0,0:0:0:0:
64,192,4692,1,8,0:0:0:0:
192,192,4692,1,0,0:0:0:0:
448,192,4692,1,0,0:0:0:0:
192,192,4855,1,2,0:0:0:0:
320,192,4855,1,0,0:0:0:0:
320,192,5017,1,8,0:0:0:0:
448,192,5017,1,0,0:0:0:0:
64,192,5098,1,8,0:0:0:0:
192,192,5098,1,0,0:0:0:0:
320,192,5179,1,8,0:0:0:0:
448,192,5179,1,0,0:0:0:0:
64,192,5260,1,8,0:0:0:0:
192,192,5260,1,0,0:0:0:0:
320,192,5341,128,2,5503:0:0:0:0:
448,192,5341,1,0,0:0:0:0:
64,192,5503,128,2,5665:0:0:0:0:
192,192,5503,128,0,5584:0:0:0:0:
64,192,5990,1,2,0:0:0:0:
320,192,5990,1,4,0:0:0:0:
448,192,5990,128,0,6071:0:0:0:0:
448,192,6152,128,0,6314:0:0:0:0:
64,192,6314,128,2,6476:0:0:0:0:
192,192,6314,1,0,0:0:0:0:
320,192,6476,1,0,0:0:0:0:
192,192,6638,128,2,6719:0:0:0:0:
448,192,6638,1,0,0:0:0:0:
192,192,6800,128,0,6963:0:0:0:0:
64,192,6963,1,2,0:0:0:0:
320,192,6963,128,0,7125:0:0:0:0:
448,192,7125,1,0,0:0:0:0:
64,192,7287,128,2,7368:0:0:0:0:
192,192,7287,1,0,0:0:0:0:
64,192,7449,128,0,7611:0:0:0:0:
320,192,7611,1,2,0:0:0:0:
448,192,7611,128,0,7773:0:0:0:0:
192,192,7773,1,0,0:0:0:0:
64,192,7936,1,2,0:0:0:0:
320,192,7936,128,0,8017:0:0:0:0:
320,192,8098,128,0,8260:0:0:0:0:
64,192,8260,1,2,0:0:0:0:
192,192,8260,128,0,8422:0:0:0:0:
320,192,8422,1,0,0:0:0:0:
64,192,8584,1,2,0:0:0:0:
448,192,8584,128,0,8665:0:0:0:0:
448,192,8746,128,0,8909:0:0:0:0:
192,192,8909,1,2,0:0:0:0:
320,192,8909,128,0,9071:0:0:0:0:
64,192,9071,1,0,0:0:0:0:
192,192,9233,128,2,9314:0:0:0:0:
448,192,9233,1,0,0:0:0:0:
192,192,9395,128,0,9557:0:0:0:0:
64,192,9557,128,2,9719:0:0:0:0:
320,192,9557,1,0,0:0:0:0:
448,192,9719,1,0,0:0:0:0:
192,192,9882,1,2,0:0:0:0:
320,192,9882,128,0,9963:0:0:0:0:
320,192,10044,128,0,10206:0:0:0:0:
64,192,10206,128,2,10368:0:0:0:0:
448,192,10206,1,0,0:0:0:0:
192,192,10368,1,0,0:0:0:0:
320,192,10530,1,2,0:0:0:0:
448,192,10530,128,0,10611:0:0:0:0:
448,192,10692,128,0,10855:0:0:0:0:
64,192,10855,1,2,0:0:0:0:
192,192,10855,128,0,11017:0:0:0:0:
320,192,11017,1,0,0:0:0:0:
64,192,11179,128,2,11260:0:0:0:0:
448,192,11179,1,0,0:0:0:0:
64,192,11341,128,0,11503:0:0:0:0:
192,192,11503,128,2,11665:0:0:0:0:
320,192,11503,1,0,0:0:0:0:
448,192,11665,1,0,0:0:0:0:
64,192,11828,1,2,0:0:0:0:
320,192,11828,128,0,11909:0:0:0:0:
320,192,11990,128,0,12152:0:0:0:0:
192,192,12152,128,2,12314:0:0:0:0:
448,192,12152,1,0,0:0:0:0:
64,192,12314,1,0,0:0:0:0:
320,192,12476,1,2,0:0:0:0:
448,192,12476,128,0,12557:0:0:0:0:
448,192,12638,128,0,12800:0:0:0:0:
64,192,12800,128,2,12963:0:0:0:0:
192,192,12800,1,0,0:0:0:0:
320,192,12963,1,0,0:0:0:0:
192,192,13125,128,2,13206:0:0:0:0:
448,192,13125,1,0,0:0:0:0:
192,192,13287,128,0,13449:0:0:0:0:
64,192,13449,1,2,0:0:0:0:
320,192,13449,128,0,13611:0:0:0:0:
448,192,13611,1,0,0:0:0:0:
64,192,13773,128,2,13855:0:0:0:0:
192,192,13773,1,0,0:0:0:0:
64,192,13936,128,0,14098:0:0:0:0:
320,192,14098,128,2,14260:0:0:0:0:
448,192,14098,1,0,0:0:0:0:
192,192,14260,1,0,0:0:0:0:
64,192,14422,1,2,0:0:0:0:
448,192,14422,128,0,14503:0:0:0:0:
448,192,14584,128,0,14746:0:0:0:0:
64,192,14746,128,2,14909:0:0:0:0:
320,192,14746,1,0,0:0:0:0:
192,192,14909,1,0,0:0:0:0:
320,192,15071,128,2,15152:0:0:0:0:
448,192,15071,1,0,0:0:0:0:
320,192,15233,128,0,15395:0:0:0:0:
64,192,15395,1,2,0:0:0:0:
192,192,15395,128,0,15557:0:0:0:0:
448,192,15557,1,0,0:0:0:0:
64,192,15719,128,2,15882:0:0:0:0:
192,192,15719,128,0,15882:0:0:0:0:
320,192,15882,1,0,0:0:0:0:
64,192,16044,1,2,0:0:0:0:
448,192,16044,1,0,0:0:0:55:Crash 2.wav
64,192,16368,1,4,0:0:0:0:
320,192,16368,1,2,0:0:0:0:
448,192,16368,128,0,16530:0:0:0:0:
192,192,16530,1,0,0:0:0:0:
64,192,16692,1,8,0:0:0:0:
192,192,16692,128,0,16855:0:0:0:0:
448,192,16692,1,0,0:0:0:0:
320,192,16855,1,0,0:0:0:0:
64,192,17017,1,2,0:0:0:0:
448,192,17017,128,0,17179:0:0:0:0:
192,192,17179,1,2,0:0:0:0:
320,192,17179,1,0,0:0:0:0:
64,192,17341,128,8,17503:0:0:0:0:
320,192,17341,1,0,0:0:0:0:
448,192,17341,1,0,0:0:0:0:
192,192,17503,1,0,0:0:0:0:
320,192,17665,1,2,0:0:0:0:
448,192,17665,128,0,17990:0:0:0:0:
64,192,17828,1,2,0:0:0:0:
192,192,17828,1,0,0:0:0:0:
64,192,17990,1,8,0:0:0:0:
320,192,17990,1,0,0:0:0:0:
192,192,18152,128,0,18314:0:0:0:0:
320,192,18314,1,2,0:0:0:0:
448,192,18314,128,0,18476:0:0:0:0:
64,192,18476,1,2,0:0:0:0:
192,192,18476,1,0,0:0:0:0:
64,192,18638,1,8,0:0:0:0:
320,192,18638,1,0,0:0:0:0:
448,192,18638,1,0,0:0:0:0:
192,192,18800,1,0,0:0:0:0:
320,192,18882,1,0,0:0:0:0:
64,192,18963,128,2,19125:0:0:0:0:
448,192,18963,1,0,0:0:0:0:
192,192,19125,1,2,0:0:0:0:
320,192,19125,1,0,0:0:0:0:
64,192,19287,1,8,0:0:0:0:
192,192,19287,1,0,0:0:0:0:
448,192,19287,128,0,19449:0:0:0:0:
320,192,19449,1,0,0:0:0:0:
64,192,19530,1,0,0:0:0:0:
192,192,19611,128,2,19773:0:0:0:0:
448,192,19611,1,0,0:0:0:0:
64,192,19773,1,2,0:0:0:0:
320,192,19773,1,0,0:0:0:0:
192,192,19936,1,8,0:0:0:0:
320,192,19936,128,0,20098:0:0:0:0:
448,192,19936,1,0,0:0:0:0:
64,192,20098,1,0,0:0:0:0:
192,192,20260,1,2,0:0:0:0:
448,192,20260,128,0,20422:0:0:0:0:
192,192,20422,128,2,20584:0:0:0:0:
320,192,20422,1,0,0:0:0:0:
64,192,20584,1,8,0:0:0:0:
320,192,20584,128,0,20746:0:0:0:0:
448,192,20584,1,0,0:0:0:0:
192,192,20746,1,0,0:0:0:0:
448,192,20828,1,0,0:0:0:0:
64,192,20909,128,2,21071:0:0:0:0:
320,192,20909,1,0,0:0:0:0:
192,192,21071,1,2,0:0:0:0:
448,192,21071,1,0,0:0:0:0:
64,192,21233,1,8,0:0:0:0:
192,192,21233,128,0,21395:0:0:0:0:
320,192,21233,1,0,0:0:0:0:
448,192,21395,1,0,0:0:0:0:
64,192,21557,1,2,0:0:0:0:
320,192,21557,128,0,21719:0:0:0:0:
192,192,21719,1,0,0:0:0:0:
64,192,21882,1,8,0:0:0:0:
320,192,21882,1,0,0:0:0:0:
448,192,21882,128,0,22044:0:0:0:0:
192,192,22044,1,0,0:0:0:0:
320,192,22125,1,0,0:0:0:0:
64,192,22206,128,2,22368:0:0:0:0:
192,192,22206,1,0,0:0:0:0:
320,192,22368,1,2,0:0:0:0:
448,192,22368,1,0,0:0:0:0:
64,192,22530,1,8,0:0:0:0:
192,192,22530,1,0,0:0:0:0:
448,192,22530,128,0,22692:0:0:0:0:
320,192,22692,1,0,0:0:0:0:
64,192,22855,128,2,23017:0:0:0:0:
448,192,22855,1,0,0:0:0:0:
192,192,23017,1,2,0:0:0:0:
320,192,23017,128,0,23179:0:0:0:0:
64,192,23179,1,8,0:0:0:0:
192,192,23179,128,0,23341:0:0:0:0:
448,192,23179,1,0,0:0:0:0:
320,192,23341,1,0,0:0:0:0:
448,192,23422,1,0,0:0:0:0:
64,192,23503,128,2,23665:0:0:0:0:
192,192,23503,1,0,0:0:0:0:
320,192,23665,1,2,0:0:0:0:
448,192,23665,1,0,0:0:0:0:
64,192,23828,1,8,0:0:0:0:
192,192,23828,1,0,0:0:0:0:
448,192,23828,128,0,23990:0:0:0:0:
320,192,23990,1,0,0:0:0:0:
192,192,24071,1,0,0:0:0:0:
64,192,24152,128,2,24314:0:0:0:0:
448,192,24152,1,0,0:0:0:0:
192,192,24314,1,2,0:0:0:0:
320,192,24314,1,0,0:0:0:0:
64,192,24476,1,8,0:0:0:0:
320,192,24476,128,0,24638:0:0:0:0:
448,192,24476,1,0,0:0:0:0:
192,192,24638,1,0,0:0:0:0:
448,192,24719,1,0,0:0:0:0:
64,192,24800,128,2,24963:0:0:0:0:
320,192,24800,1,0,0:0:0:0:
192,192,24963,1,2,0:0:0:0:
448,192,24963,1,0,0:0:0:0:
64,192,25125,1,8,0:0:0:0:
320,192,25125,1,0,0:0:0:0:
448,192,25125,128,0,25287:0:0:0:0:
192,192,25287,1,0,0:0:0:0:
320,192,25368,1,0,0:0:0:0:
64,192,25449,128,2,25611:0:0:0:0:
448,192,25449,1,0,0:0:0:0:
192,192,25611,1,2,0:0:0:0:
320,192,25611,128,0,25773:0:0:0:0:
64,192,25773,1,8,0:0:0:0:
192,192,25773,128,0,25936:0:0:0:0:
448,192,25773,1,0,0:0:0:0:
64,192,25936,1,2,0:0:0:0:
320,192,25936,1,0,0:0:0:0:
192,192,26098,1,8,0:0:0:0:
320,192,26098,128,0,26260:0:0:0:0:
448,192,26098,128,0,26260:0:0:0:0:
64,192,26422,128,0,26746:0:0:0:0:
192,192,26746,1,2,0:0:0:0:
320,192,26746,128,4,27071:0:0:0:0:
448,192,26746,1,0,0:0:0:0:
192,192,27071,128,0,27395:0:0:0:0:
64,192,27233,1,2,0:0:0:0:
320,192,27395,1,0,0:0:0:60:LR_Clap Med .wav
448,192,27395,128,0,27719:0:0:0:0:
64,192,27719,128,0,28044:0:0:0:0:
320,192,27882,1,2,0:0:0:0:
192,192,28044,1,2,0:0:0:0:
320,192,28044,128,0,28368:0:0:0:0:
64,192,28692,1,0,0:0:0:60:LR_Clap Med .wav
192,192,28692,1,0,0:0:0:0:
448,192,28692,128,0,29017:0:0:0:0:
320,192,29017,128,0,29341:0:0:0:0:
64,192,29179,1,2,0:0:0:0:
64,192,29341,128,2,29665:0:0:0:0:
448,192,29341,1,0,0:0:0:0:
192,192,29665,128,2,29990:0:0:0:0:
320,192,29665,1,0,0:0:0:0:
320,192,29828,1,2,0:0:0:0:
64,192,29990,1,0,0:0:0:60:LR_Clap Med .wav
448,192,29990,128,0,30638:0:0:0:0:
192,192,30152,1,2,0:0:0:0:
320,192,30476,1,2,0:0:0:0:
64,192,30638,128,0,30963:0:0:0:0:
192,192,31125,1,2,0:0:0:0:
320,192,31206,1,2,0:0:0:0:
64,192,31287,1,0,0:0:0:70:LR_Clap DS.wav
192,192,31287,1,0,0:0:0:0:
448,192,31449,1,2,0:0:0:0:
320,192,31490,1,2,0:0:0:0:
64,192,31530,1,2,0:0:0:0:
192,192,31571,1,2,0:0:0:0:
320,192,31611,1,2,0:0:0:0:
448,192,31611,1,0,0:0:0:0:
64,192,31773,1,2,0:0:0:0:
192,192,31773,1,0,0:0:0:0:
64,192,31936,1,2,0:0:0:0:
448,192,31936,128,0,32260:0:0:0:0:
320,192,32260,128,0,32584:0:0:0:0:
192,192,32422,1,2,0:0:0:0:
64,192,32584,128,0,32909:0:0:0:60:LR_Clap Med .wav
448,192,32584,1,0,0:0:0:0:
192,192,32909,128,0,33233:0:0:0:0:
448,192,33071,1,2,0:0:0:0:
64,192,33233,1,2,0:0:0:0:
448,192,33233,128,0,33557:0:0:0:0:
320,192,33557,128,0,33882:0:0:0:0:
64,192,33882,128,0,34206:0:0:0:60:LR_Clap Med .wav
192,192,33882,1,0,0:0:0:0:
448,192,33882,1,0,0:0:0:0:
448,192,34206,128,0,34530:0:0:0:0:
192,192,34368,1,2,0:0:0:0:
192,192,34530,128,2,34773:0:0:0:0:
320,192,34530,1,0,0:0:0:0:
192,192,34855,128,2,35017:0:0:0:0:
448,192,34855,1,0,0:0:0:0:
64,192,35017,1,2,0:0:0:0:
320,192,35017,1,0,0:0:0:0:
64,192,35179,128,0,35828:0:0:0:60:LR_Clap Med .wav
192,192,35179,1,0,0:0:0:0:
448,192,35179,1,0,0:0:0:0:
320,192,35341,1,2,0:0:0:0:
320,192,35665,1,2,0:0:0:0:
192,192,35828,1,0,0:0:0:60:LR_Clap Med .wav
448,192,35828,128,0,36314:0:0:0:0:
320,192,35990,128,0,36071:0:0:0:70:LR_Clap DS.wav
64,192,36071,1,2,0:0:0:0:
192,192,36071,1,0,0:0:0:0:
64,192,36233,128,0,36314:0:0:0:70:LR_Clap DS.wav
192,192,36314,1,2,0:0:0:0:
320,192,36314,1,0,0:0:0:0:
320,192,36476,128,0,36557:0:0:0:70:LR_Clap DS.wav
448,192,36476,128,0,36557:0:0:0:0:
64,192,36638,1,2,0:0:0:0:
192,192,36679,1,2,0:0:0:0:
448,192,36719,1,2,0:0:0:0:
320,192,36760,1,2,0:0:0:0:
64,192,36800,1,0,0:0:0:60:LR_Clap Med .wav
192,192,36800,1,0,0:0:0:0:
64,192,36963,1,0,0:0:0:60:LR_Clap Med .wav
192,192,36963,1,0,0:0:0:0:
320,192,37125,1,2,0:0:0:0:
448,192,37125,1,0,0:0:0:0:
64,192,37287,128,0,37368:0:0:0:70:LR_Clap DS.wav
192,192,37287,128,0,37368:0:0:0:0:
320,192,37368,1,2,0:0:0:0:
448,192,37368,1,0,0:0:0:0:
320,192,37530,128,0,37611:0:0:0:70:LR_Clap DS.wav
448,192,37530,128,0,37611:0:0:0:0:
64,192,37611,1,2,0:0:0:0:
192,192,37611,1,0,0:0:0:0:
64,192,37773,128,0,37855:0:0:0:70:LR_Clap DS.wav
192,192,37773,128,0,37855:0:0:0:0:
448,192,37936,1,2,0:0:0:0:
320,192,37976,1,2,0:0:0:0:
64,192,38017,1,2,0:0:0:0:
192,192,38057,1,2,0:0:0:0:
320,192,38098,1,0,0:0:0:0:
448,192,38098,128,0,38422:0:0:0:0:
192,192,38260,128,0,38341:0:0:0:0:
64,192,38422,128,2,38746:0:0:0:0:
192,192,38422,1,4,0:0:0:0:
320,192,38422,1,0,0:0:0:0:
192,192,38746,1,8,0:0:0:0:
320,192,38746,1,0,0:0:0:0:
448,192,38746,1,0,0:0:0:0:
320,192,38909,128,0,39071:0:0:0:0:
64,192,39071,128,2,39233:0:0:0:0:
192,192,39071,1,0,0:0:0:0:
320,192,39233,1,2,0:0:0:0:
448,192,39233,1,0,0:0:0:0:
64,192,39395,1,8,0:0:0:0:
192,192,39395,1,0,0:0:0:0:
448,192,39395,1,0,0:0:0:0:
192,192,39557,128,0,39719:0:0:0:0:
320,192,39719,1,2,0:0:0:0:
448,192,39719,128,0,39882:0:0:0:0:
64,192,39882,1,2,0:0:0:0:
192,192,39882,1,0,0:0:0:0:
64,192,40044,1,8,0:0:0:0:
320,192,40044,1,0,0:0:0:0:
448,192,40044,1,0,0:0:0:0:
320,192,40206,128,0,40368:0:0:0:0:
64,192,40368,128,2,40530:0:0:0:0:
192,192,40368,1,0,0:0:0:0:
320,192,40530,1,2,0:0:0:0:
448,192,40530,1,0,0:0:0:0:
64,192,40692,1,8,0:0:0:0:
192,192,40692,1,0,0:0:0:0:
448,192,40692,1,0,0:0:0:0:
192,192,40855,128,0,41017:0:0:0:0:
64,192,41017,1,2,0:0:0:0:
448,192,41017,128,0,41179:0:0:0:0:
192,192,41179,1,2,0:0:0:0:
320,192,41179,1,0,0:0:0:0:
64,192,41341,1,8,0:0:0:0:
192,192,41341,1,0,0:0:0:0:
448,192,41341,1,0,0:0:0:0:
64,192,41503,128,0,41665:0:0:0:0:
320,192,41665,1,2,0:0:0:0:
448,192,41665,128,0,41828:0:0:0:0:
64,192,41828,1,2,0:0:0:0:
192,192,41828,1,0,0:0:0:0:
192,192,41990,1,8,0:0:0:0:
320,192,41990,1,0,0:0:0:0:
448,192,41990,1,0,0:0:0:0:
320,192,42152,128,0,42314:0:0:0:0:
64,192,42314,128,2,42963:0:0:0:0:
192,192,42314,1,0,0:0:0:0:
320,192,42476,1,2,0:0:0:0:
448,192,42476,1,0,0:0:0:0:
192,192,42638,1,8,0:0:0:0:
320,192,42638,1,0,0:0:0:0:
448,192,42638,1,0,0:0:0:0:
192,192,42800,1,0,0:0:0:0:
448,192,42882,1,8,0:0:0:0:
192,192,42963,1,2,0:0:0:0:
320,192,42963,1,0,0:0:0:0:
64,192,43044,1,8,0:0:0:0:
320,192,43125,1,2,0:0:0:0:
448,192,43125,1,0,0:0:0:0:
64,192,43287,1,8,0:0:0:0:
192,192,43287,1,0,0:0:0:0:
448,192,43287,1,0,0:0:0:0:
320,192,43449,128,0,43611:0:0:0:0:
192,192,43611,128,2,43773:0:0:0:0:
448,192,43611,1,0,0:0:0:0:
64,192,43773,1,2,0:0:0:0:
320,192,43773,1,0,0:0:0:0:
64,192,43936,1,8,0:0:0:0:
192,192,43936,1,0,0:0:0:0:
448,192,43936,1,0,0:0:0:0:
448,192,44098,128,0,44260:0:0:0:0:
64,192,44260,128,2,44422:0:0:0:0:
192,192,44260,1,0,0:0:0:0:
320,192,44422,1,2,0:0:0:0:
448,192,44422,1,0,0:0:0:0:
64,192,44584,1,8,0:0:0:0:
192,192,44584,1,0,0:0:0:0:
320,192,44584,1,0,0:0:0:0:
192,192,44746,128,0,44909:0:0:0:0:
64,192,44909,1,2,0:0:0:0:
448,192,44909,128,0,45071:0:0:0:0:
192,192,45071,1,2,0:0:0:0:
320,192,45071,1,0,0:0:0:0:
64,192,45233,1,8,0:0:0:0:
192,192,45233,1,0,0:0:0:0:
448,192,45233,1,0,0:0:0:0:
64,192,45395,128,0,45557:0:0:0:0:
320,192,45557,1,2,0:0:0:0:
448,192,45557,128,0,45719:0:0:0:0:
64,192,45719,1,2,0:0:0:0:
192,192,45719,1,0,0:0:0:0:
64,192,45882,1,8,0:0:0:0:
320,192,45882,1,0,0:0:0:0:
448,192,45882,1,0,0:0:0:0:
320,192,46044,128,0,46206:0:0:0:0:
192,192,46206,128,2,46368:0:0:0:0:
448,192,46206,1,0,0:0:0:0:
64,192,46368,1,2,0:0:0:0:
320,192,46368,1,0,0:0:0:0:
64,192,46530,1,8,0:0:0:0:
192,192,46530,1,0,0:0:0:0:
448,192,46530,1,0,0:0:0:0:
448,192,46692,128,0,46855:0:0:0:0:
64,192,46855,128,2,47017:0:0:0:0:
192,192,46855,1,0,0:0:0:0:
320,192,47017,1,2,0:0:0:0:
448,192,47017,1,0,0:0:0:0:
64,192,47179,1,8,0:0:0:0:
192,192,47179,1,4,0:0:0:0:
320,192,47179,1,0,0:0:0:0:
192,192,47341,128,0,47503:0:0:0:0:
64,192,47503,1,8,0:0:0:0:
320,192,47503,1,0,0:0:0:55:tom3.wav
448,192,47503,1,0,0:0:0:0:
64,192,47665,1,8,0:0:0:0:
192,192,47665,1,0,0:0:0:55:tom3.wav
448,192,47665,1,0,0:0:0:0:
64,192,48152,1,8,0:0:0:0:
192,192,48152,1,0,0:0:0:55:tom3.wav
448,192,48152,1,0,0:0:0:0:
64,192,48314,1,8,0:0:0:0:
320,192,48314,1,0,0:0:0:55:tom3.wav
448,192,48314,1,0,0:0:0:0:
64,192,48476,1,8,0:0:0:0:
192,192,48476,1,0,0:0:0:0:
320,192,48557,1,8,0:0:0:0:
448,192,48557,1,0,0:0:0:0:
64,192,48638,1,8,0:0:0:0:
192,192,48638,1,0,0:0:0:0:
320,192,48719,1,8,0:0:0:0:
64,192,48800,128,2,49125:0:0:0:0:
192,192,48800,1,4,0:0:0:0:
448,192,48800,1,0,0:0:0:0:
192,192,49125,1,8,0:0:0:0:
320,192,49125,1,0,0:0:0:0:
448,192,49125,1,0,0:0:0:0:
320,192,49287,128,0,49449:0:0:0:0:
64,192,49449,128,2,49611:0:0:0:0:
448,192,49449,1,0,0:0:0:0:
192,192,49611,1,2,0:0:0:0:
320,192,49611,1,0,0:0:0:0:
64,192,49773,1,8,0:0:0:0:
192,192,49773,1,0,0:0:0:0:
448,192,49773,1,0,0:0:0:0:
448,192,49936,128,0,50098:0:0:0:0:
64,192,50098,1,2,0:0:0:0:
192,192,50098,128,0,50260:0:0:0:0:
320,192,50260,1,2,0:0:0:0:
448,192,50260,1,0,0:0:0:0:
64,192,50422,1,8,0:0:0:0:
192,192,50422,1,0,0:0:0:0:
448,192,50422,1,0,0:0:0:0:
64,192,50584,128,0,50746:0:0:0:0:
320,192,50746,128,2,50909:0:0:0:0:
448,192,50746,1,0,0:0:0:0:
64,192,50909,1,2,0:0:0:0:
192,192,50909,1,0,0:0:0:0:
192,192,51071,1,8,0:0:0:0:
320,192,51071,1,0,0:0:0:0:
448,192,51071,1,0,0:0:0:0:
448,192,51233,128,0,51395:0:0:0:0:
64,192,51395,128,2,51557:0:0:0:0:
192,192,51395,1,0,0:0:0:0:
320,192,51557,1,2,0:0:0:0:
448,192,51557,1,0,0:0:0:0:
64,192,51719,1,8,0:0:0:0:
192,192,51719,1,0,0:0:0:0:
448,192,51719,1,0,0:0:0:0:
192,192,51882,128,0,52044:0:0:0:0:
320,192,52044,128,2,52206:0:0:0:0:
448,192,52044,1,0,0:0:0:0:
64,192,52206,1,2,0:0:0:0:
192,192,52206,1,0,0:0:0:0:
64,192,52368,1,8,0:0:0:0:
320,192,52368,1,0,0:0:0:0:
448,192,52368,1,0,0:0:0:0:
448,192,52530,128,0,52692:0:0:0:0:
64,192,52692,1,2,0:0:0:0:
192,192,52692,128,0,52855:0:0:0:0:
320,192,52855,1,2,0:0:0:0:
448,192,52855,1,0,0:0:0:0:
64,192,53017,128,8,53341:0:0:0:0:
192,192,53017,1,4,0:0:0:0:
448,192,53017,1,0,0:0:0:0:
320,192,53341,1,2,0:0:0:0:
448,192,53341,1,0,0:0:0:0:
64,192,53422,1,8,0:0:0:0:
192,192,53422,1,0,0:0:0:0:
320,192,53503,1,8,0:0:0:0:
448,192,53503,1,0,0:0:0:0:
64,192,53584,1,8,0:0:0:0:
192,192,53584,1,0,0:0:0:0:
320,192,53665,1,8,0:0:0:0:
448,192,53665,1,0,0:0:0:0:
64,192,53746,1,8,0:0:0:0:
192,192,53746,1,0,0:0:0:0:
320,192,53828,1,8,0:0:0:0:
448,192,53828,1,0,0:0:0:0:
192,192,53909,1,8,0:0:0:0:
64,192,53990,1,2,0:0:0:0:
320,192,53990,1,4,0:0:0:0:
448,192,53990,128,0,54314:0:0:0:0:
192,192,54152,1,0,0:0:0:0:
64,192,54314,1,8,0:0:0:0:
192,192,54314,1,0,0:0:0:0:
320,192,54314,1,0,0:0:0:0:
448,192,54476,1,0,0:0:0:0:
64,192,54638,128,2,54963:0:0:0:0:
320,192,54638,1,0,0:0:0:0:
192,192,54800,1,0,0:0:0:0:
192,192,54963,1,8,0:0:0:0:
320,192,54963,1,0,0:0:0:0:
448,192,54963,1,0,0:0:0:0:
64,192,55125,1,0,0:0:0:0:
192,192,55287,128,2,55611:0:0:0:0:
448,192,55287,1,0,0:0:0:0:
320,192,55449,1,0,0:0:0:0:
64,192,55611,1,8,0:0:0:0:
320,192,55611,1,0,0:0:0:0:
448,192,55611,1,0,0:0:0:0:
192,192,55773,1,0,0:0:0:0:
320,192,55936,128,2,56260:0:0:0:0:
448,192,55936,1,0,0:0:0:0:
192,192,56098,1,0,0:0:0:0:
64,192,56260,1,8,0:0:0:0:
192,192,56260,1,0,0:0:0:0:
448,192,56260,1,0,0:0:0:0:
320,192,56422,1,0,0:0:0:0:
64,192,56584,1,2,0:0:0:0:
192,192,56584,128,4,56909:0:0:0:0:
448,192,56584,1,0,0:0:0:0:
320,192,56746,1,0,0:0:0:0:
64,192,56909,1,8,0:0:0:0:
320,192,56909,1,0,0:0:0:0:
448,192,56909,1,0,0:0:0:0:
192,192,57071,1,0,0:0:0:0:
320,192,57233,1,2,0:0:0:0:
448,192,57233,128,0,57557:0:0:0:0:
64,192,57395,1,0,0:0:0:0:
64,192,57557,1,8,0:0:0:0:
192,192,57557,1,0,0:0:0:0:
320,192,57557,1,0,0:0:0:0:
448,192,57719,1,0,0:0:0:0:
64,192,57882,1,2,0:0:0:0:
320,192,57882,128,0,58206:0:0:0:0:
192,192,58044,1,0,0:0:0:0:
64,192,58206,1,8,0:0:0:0:
192,192,58206,1,0,0:0:0:0:
448,192,58206,1,0,0:0:0:0:
320,192,58368,1,0,0:0:0:0:
64,192,58530,1,2,0:0:0:0:
192,192,58530,128,0,58855:0:0:0:0:
448,192,58692,1,0,0:0:0:0:
64,192,58855,1,8,0:0:0:0:
320,192,58855,1,0,0:0:0:0:
448,192,58855,1,0,0:0:0:0:
192,192,59017,1,0,0:0:0:0:
64,192,59179,1,2,0:0:0:0:
320,192,59179,128,4,59422:0:0:0:0:
448,192,59179,128,0,59422:0:0:0:0:
192,192,59341,1,0,0:0:0:0:
64,192,59503,128,8,59746:0:0:0:0:
192,192,59503,128,0,59746:0:0:0:0:
448,192,59503,1,0,0:0:0:0:
320,192,59665,1,0,0:0:0:0:
64,192,59828,1,8,0:0:0:0:
320,192,59828,128,0,60071:0:0:0:0:
448,192,59828,128,0,60071:0:0:0:0:
192,192,59990,1,0,0:0:0:0:
64,192,60152,128,8,60395:0:0:0:0:
192,192,60152,128,0,60395:0:0:0:0:
320,192,60152,1,0,0:0:0:0:
448,192,60314,1,0,0:0:0:0:
192,192,60476,1,8,0:0:0:0:
320,192,60476,128,0,60719:0:0:0:0:
448,192,60476,128,0,60719:0:0:0:0:
64,192,60638,1,0,0:0:0:0:
64,192,60800,128,8,61044:0:0:0:0:
192,192,60800,128,0,61044:0:0:0:0:
448,192,60800,1,0,0:0:0:0:
320,192,60963,1,0,0:0:0:0:
64,192,61125,1,8,0:0:0:0:
320,192,61125,128,0,61368:0:0:0:0:
448,192,61125,128,0,61368:0:0:0:0:
192,192,61287,1,0,0:0:0:0:
64,192,61449,128,8,61692:0:0:0:0:
192,192,61449,128,0,61692:0:0:0:0:
448,192,61449,1,0,0:0:0:0:
320,192,61611,1,0,0:0:0:0:
64,192,61773,128,8,62017:0:0:0:0:
320,192,61773,1,4,0:0:0:0:
448,192,61773,128,0,62017:0:0:0:0:
192,192,61936,1,0,0:0:0:0:
64,192,62098,1,8,0:0:0:0:
192,192,62098,128,0,62341:0:0:0:0:
320,192,62098,128,0,62341:0:0:0:0:
448,192,62260,1,0,0:0:0:0:
192,192,62422,1,8,0:0:0:0:
320,192,62422,128,0,62665:0:0:0:0:
448,192,62422,128,0,62665:0:0:0:0:
64,192,62584,1,0,0:0:0:0:
64,192,62746,1,8,0:0:0:0:
192,192,62746,1,0,0:0:0:0:
320,192,62746,128,0,62909:0:0:0:0:
192,192,62909,128,0,63071:0:0:0:0:
64,192,63071,1,8,0:0:0:0:
320,192,63071,1,0,0:0:0:55:tom3.wav
448,192,63071,1,0,0:0:0:0:
64,192,63233,1,8,0:0:0:0:
192,192,63233,1,0,0:0:0:55:tom3.wav
448,192,63233,1,0,0:0:0:0:
64,192,63719,1,8,0:0:0:0:
192,192,63719,1,0,0:0:0:55:tom3.wav
448,192,63719,1,0,0:0:0:0:
64,192,63882,1,8,0:0:0:0:
320,192,63882,1,0,0:0:0:55:tom3.wav
448,192,63882,1,0,0:0:0:0:
320,192,64206,128,0,64287:0:0:0:0:
64,192,64368,128,2,65665:0:0:0:0:
192,192,64368,128,4,64530:0:0:0:0:
448,192,64368,1,0,0:0:0:0:
320,192,64530,128,0,64692:0:0:0:0:
448,192,64692,128,0,64855:0:0:0:0:
192,192,64855,128,0,65017:0:0:0:0:
448,192,65017,128,0,65179:0:0:0:0:
320,192,65179,128,0,65341:0:0:0:0:
192,192,65341,128,0,65503:0:0:0:0:
448,192,65503,128,0,65665:0:0:0:0:
192,192,65665,128,0,66963:0:0:0:0:
320,192,65665,128,0,65990:0:0:0:0:
64,192,65990,128,0,66152:0:0:0:0:
320,192,66152,128,0,66314:0:0:0:0:
448,192,66314,128,0,66476:0:0:0:0:
64,192,66476,128,0,66638:0:0:0:0:
320,192,66638,128,0,66800:0:0:0:0:
64,192,66800,128,0,66963:0:0:0:0:
320,192,66963,128,0,68260:0:0:0:0:
448,192,66963,128,0,67287:0:0:0:0:
192,192,67287,128,0,67449:0:0:0:0:
64,192,67449,128,0,67611:0:0:0:0:
192,192,67611,128,0,67773:0:0:0:0:
448,192,67773,128,0,67936:0:0:0:0:
192,192,67936,128,0,68098:0:0:0:0:
64,192,68098,128,0,68260:0:0:0:0:
192,192,68260,128,0,68584:0:0:0:0:
448,192,68260,128,0,69557:0:0:0:0:
320,192,68584,128,0,68746:0:0:0:0:
192,192,68746,128,0,68909:0:0:0:0:
64,192,68909,128,0,69071:0:0:0:0:
192,192,69071,128,0,69233:0:0:0:0:
320,192,69233,128,0,69395:0:0:0:0:
192,192,69395,128,0,69557:0:0:0:0:
64,192,69557,128,0,69882:0:0:0:0:
320,192,69557,128,0,70855:0:0:0:0:
448,192,69882,128,0,70044:0:0:0:0:
192,192,70044,128,0,70206:0:0:0:0:
64,192,70206,128,0,70368:0:0:0:0:
192,192,70368,128,0,70530:0:0:0:0:
448,192,70530,128,0,70692:0:0:0:0:
64,192,70692,128,0,70855:0:0:0:0:
192,192,70855,128,0,72152:0:0:0:0:
448,192,70855,128,0,71179:0:0:0:0:
320,192,71179,128,0,71341:0:0:0:0:
64,192,71341,128,0,71503:0:0:0:0:
320,192,71503,128,0,71665:0:0:0:0:
448,192,71665,128,0,71828:0:0:0:0:
64,192,71828,128,0,71990:0:0:0:0:
320,192,71990,128,0,72152:0:0:0:0:
64,192,72152,128,0,72800:0:0:0:0:
448,192,72152,128,0,72476:0:0:0:0:
320,192,72476,128,0,72638:0:0:0:0:
192,192,72638,128,0,72800:0:0:0:0:
320,192,72800,128,0,73125:0:0:0:0:
448,192,72800,128,0,73368:0:0:0:0:
64,192,73125,128,0,73368:0:0:0:0:
192,192,73287,128,0,73368:0:0:0:0:
64,192,73449,1,8,0:0:0:0:
320,192,73449,1,0,0:0:0:55:tom3.wav
448,192,73449,1,0,0:0:0:0:
64,192,73611,1,8,0:0:0:0:
192,192,73611,1,0,0:0:0:55:tom3.wav
448,192,73611,1,0,0:0:0:0:
64,192,74098,1,8,0:0:0:0:
192,192,74098,1,0,0:0:0:55:tom3.wav
448,192,74098,1,0,0:0:0:0:
64,192,74260,1,8,0:0:0:0:
320,192,74260,1,0,0:0:0:55:tom3.wav
448,192,74260,1,0,0:0:0:0:
192,192,74584,128,0,74665:0:0:0:0:
192,192,74746,1,2,0:0:0:0:
320,192,74746,128,4,75071:0:0:0:0:
448,192,74746,1,0,0:0:0:0:
64,192,75071,1,8,0:0:0:0:
192,192,75071,1,0,0:0:0:0:
448,192,75071,1,0,0:0:0:0:
448,192,75233,128,0,75395:0:0:0:0:
64,192,75395,128,2,75557:0:0:0:0:
192,192,75395,1,0,0:0:0:0:
320,192,75557,1,2,0:0:0:0:
448,192,75557,1,0,0:0:0:0:
64,192,75719,1,8,0:0:0:0:
192,192,75719,1,0,0:0:0:0:
448,192,75719,1,0,0:0:0:0:
192,192,75882,128,0,76044:0:0:0:0:
320,192,76044,128,2,76206:0:0:0:0:
448,192,76044,1,0,0:0:0:0:
64,192,76206,1,2,0:0:0:0:
192,192,76206,1,0,0:0:0:0:
64,192,76368,1,8,0:0:0:0:
320,192,76368,1,0,0:0:0:0:
448,192,76368,1,0,0:0:0:0:
448,192,76530,128,0,76692:0:0:0:0:
64,192,76692,1,2,0:0:0:0:
192,192,76692,128,0,76855:0:0:0:0:
320,192,76855,1,2,0:0:0:0:
448,192,76855,1,0,0:0:0:0:
64,192,77017,1,8,0:0:0:0:
192,192,77017,1,0,0:0:0:0:
320,192,77017,1,0,0:0:0:0:
64,192,77179,128,0,77341:0:0:0:0:
192,192,77341,1,2,0:0:0:0:
320,192,77341,1,4,0:0:0:0:
448,192,77341,128,0,77503:0:0:0:0:
64,192,77503,1,2,0:0:0:0:
192,192,77503,1,0,0:0:0:0:
64,192,77665,1,8,0:0:0:0:
320,192,77665,1,0,0:0:0:0:
448,192,77665,1,0,0:0:0:0:
320,192,77828,128,0,77990:0:0:0:0:
64,192,77990,128,2,78152:0:0:0:0:
192,192,77990,1,0,0:0:0:0:
320,192,78152,1,2,0:0:0:0:
448,192,78152,1,0,0:0:0:0:
64,192,78314,1,8,0:0:0:0:
192,192,78314,1,0,0:0:0:0:
448,192,78314,1,0,0:0:0:0:
192,192,78476,128,0,78638:0:0:0:0:
320,192,78638,128,2,78800:0:0:0:0:
448,192,78638,1,0,0:0:0:0:
64,192,78800,1,2,0:0:0:0:
192,192,78800,1,0,0:0:0:0:
64,192,78963,1,8,0:0:0:0:
320,192,78963,1,4,0:0:0:0:
448,192,78963,128,0,79287:0:0:0:0:
64,192,79287,1,2,0:0:0:0:
192,192,79287,1,0,0:0:0:0:
320,192,79368,1,8,0:0:0:0:
448,192,79368,1,0,0:0:0:0:
64,192,79449,1,8,0:0:0:0:
192,192,79449,1,0,0:0:0:0:
320,192,79530,1,8,0:0:0:0:
448,192,79530,1,0,0:0:0:0:
64,192,79611,1,8,0:0:0:0:
192,192,79611,1,0,0:0:0:0:
320,192,79692,1,8,0:0:0:0:
448,192,79692,1,0,0:0:0:0:
64,192,79773,1,8,0:0:0:0:
192,192,79773,1,0,0:0:0:0:
320,192,79855,1,8,0:0:0:0:
64,192,79936,128,2,80260:0:0:0:0:
192,192,79936,1,4,0:0:0:0:
448,192,79936,1,0,0:0:0:0:
320,192,80098,1,0,0:0:0:0:
192,192,80260,1,8,0:0:0:0:
320,192,80260,1,0,0:0:0:55:Crash 2.wav
448,192,80260,1,0,0:0:0:0:
64,192,80422,1,0,0:0:0:0:
192,192,80584,128,2,80909:0:0:0:0:
320,192,80584,1,0,0:0:0:0:
448,192,80746,1,0,0:0:0:0:
64,192,80909,1,8,0:0:0:0:
320,192,80909,1,0,0:0:0:0:
448,192,80909,1,0,0:0:0:0:
192,192,81071,1,0,0:0:0:0:
320,192,81233,1,2,0:0:0:0:
448,192,81233,128,0,81557:0:0:0:0:
192,192,81395,1,0,0:0:0:0:
64,192,81557,1,8,0:0:0:0:
192,192,81557,1,0,0:0:0:0:
320,192,81557,1,0,0:0:0:0:
448,192,81719,1,0,0:0:0:0:
64,192,81882,128,2,82206:0:0:0:0:
192,192,81882,1,0,0:0:0:0:
320,192,82044,1,0,0:0:0:0:
192,192,82206,1,8,0:0:0:0:
320,192,82206,1,0,0:0:0:0:
448,192,82206,1,0,0:0:0:0:
64,192,82368,1,0,0:0:0:0:
192,192,82530,1,2,0:0:0:0:
320,192,82530,128,4,82855:0:0:0:0:
448,192,82530,1,0,0:0:0:0:
64,192,82692,1,0,0:0:0:0:
64,192,82855,1,8,0:0:0:0:
192,192,82855,1,0,0:0:0:0:
448,192,82855,1,0,0:0:0:0:
320,192,83017,1,0,0:0:0:0:
64,192,83179,1,2,0:0:0:0:
192,192,83179,128,0,83503:0:0:0:0:
448,192,83341,1,0,0:0:0:0:
64,192,83503,1,8,0:0:0:0:
320,192,83503,1,0,0:0:0:0:
448,192,83503,1,0,0:0:0:0:
192,192,83665,1,0,0:0:0:0:
320,192,83828,1,2,0:0:0:0:
448,192,83828,128,0,84152:0:0:0:0:
192,192,83990,1,0,0:0:0:0:
64,192,84152,1,8,0:0:0:0:
192,192,84152,1,0,0:0:0:0:
320,192,84152,1,0,0:0:0:0:
448,192,84314,1,0,0:0:0:0:
64,192,84476,1,8,0:0:0:0:
192,192,84476,128,0,84800:0:0:0:55:Crash 2.wav
320,192,84476,1,0,0:0:0:0:
448,192,84638,1,0,0:0:0:0:
64,192,84800,1,8,0:0:0:0:
320,192,84800,1,0,0:0:0:55:Crash 2.wav
448,192,84800,1,0,0:0:0:0:
192,192,84963,1,0,0:0:0:0:
64,192,85125,128,8,85368:0:0:0:0:
192,192,85125,128,4,85368:0:0:0:0:
448,192,85125,1,0,0:0:0:0:
320,192,85287,1,0,0:0:0:0:
64,192,85449,1,8,0:0:0:0:
320,192,85449,128,0,85692:0:0:0:0:
448,192,85449,128,0,85692:0:0:0:0:
192,192,85611,1,0,0:0:0:0:
64,192,85773,128,8,86017:0:0:0:0:
192,192,85773,1,0,0:0:0:0:
448,192,85773,128,0,86017:0:0:0:0:
320,192,85936,1,0,0:0:0:0:
192,192,86098,128,8,86341:0:0:0:0:
320,192,86098,128,0,86341:0:0:0:0:
448,192,86098,1,0,0:0:0:0:
64,192,86260,1,0,0:0:0:0:
64,192,86422,128,8,86665:0:0:0:0:
192,192,86422,128,0,86665:0:0:0:0:
320,192,86422,1,0,0:0:0:0:
448,192,86584,1,0,0:0:0:0:
192,192,86746,1,8,0:0:0:0:
320,192,86746,128,0,86990:0:0:0:0:
448,192,86746,128,0,86990:0:0:0:0:
64,192,86909,1,0,0:0:0:0:
64,192,87071,128,8,87314:0:0:0:0:
320,192,87071,1,0,0:0:0:0:
448,192,87071,128,0,87314:0:0:0:0:
192,192,87233,1,0,0:0:0:0:
192,192,87395,128,8,87557:0:0:0:0:
320,192,87395,128,0,87557:0:0:0:0:
448,192,87395,1,0,0:0:0:0:
64,192,87557,1,0,0:0:0:0:
448,192,87719,128,0,88368:0:0:0:0:
64,192,88044,128,0,88368:0:0:0:0:
320,192,88368,128,0,88692:0:0:0:0:
192,192,88692,128,0,89017:0:0:0:0:
448,192,88855,128,0,89341:0:0:0:0:
64,192,89017,128,0,89341:0:0:0:0:
