osu file format v14

[General]
AudioFilename: audio.mp3
AudioLeadIn: 0
PreviewTime: 37044
Countdown: 1
SampleSet: None
StackLeniency: 0.7
Mode: 0
LetterboxInBreaks: 0
WidescreenStoryboard: 0

[Editor]
DistanceSpacing: 1.3
BeatDivisor: 4
GridSize: 32
TimelineZoom: 1

[Metadata]
Title:Inferno (TV Size)
TitleUnicode:インフェルノ (TV Size)
Artist:Mrs. GREEN APPLE
ArtistUnicode:Mrs. GREEN APPLE
Creator:X4D
Version:Holocaust
Source:炎炎ノ消防隊
Tags:fire force fire brigade of flames enen no Enen no Shouboutai opening op anime
BeatmapID:2108505
BeatmapSetID:1007398

[Difficulty]
HPDrainRate:5.7
CircleSize:4
OverallDifficulty:9.3
ApproachRate:9.3
SliderMultiplier:1.7
SliderTickRate:1

[Events]
//Background and Video events
0,0,"bg.jpg",0,0
//Break Periods
//Storyboard Layer 0 (Background)
//Storyboard Layer 1 (Fail)
//Storyboard Layer 2 (Pass)
//Storyboard Layer 3 (Foreground)
//Storyboard Sound Samples

[TimingPoints]
801,324.324324324324,4,1,0,100,1,0
801,-83.3333333333333,4,1,0,100,0,0
5017,-133.333333333333,4,1,0,100,0,0
5990,-100,4,1,0,100,0,0
8260,-500,4,1,0,100,0,0
8584,-100,4,1,0,100,0,0
13449,-500,4,1,0,100,0,0
13773,-100,4,1,0,100,0,0
16044,-500,4,1,0,100,0,0
16368,-90.9090909090909,4,1,0,100,0,0
26746,-133.333333333333,4,1,0,100,0,0
35179,-200,4,1,0,100,0,0

[Colours]
Combo1 : 181,107,64
Combo2 : 221,210,81
Combo3 : 75,79,116
Combo4 : 233,223,169

[HitObjects]
113,57,801,6,0,P|124:132|131:220,1,152.999995330811
86,322,1125,2,0,P|135:297|179:315,1,101.999996887207
436,332,1449,1,0,0:0:0:0:
280,232,1611,1,0,0:0:0:0:
408,74,1773,2,0,P|398:142|392:210,1,101.999996887207
246,359,2098,5,0,0:0:0:0:
195,147,2260,1,0,0:0:0:0:
246,359,2422,1,0,0:0:0:0:
312,84,2584,1,0,0:0:0:0:
312,84,2665,1,0,0:0:0:0:
312,84,2746,2,0,P|261:78|210:70,1,101.999996887207
197,277,3071,2,0,P|287:262|378:253,1,152.999995330811
459,329,3395,5,0,0:0:0:0:
311,169,3557,1,0,0:0:0:0:
496,124,3719,1,0,0:0:0:0:
339,344,3882,1,0,0:0:0:0:
182,97,4044,5,0,0:0:0:0:
397,238,4206,1,0,0:0:0:0:
176,298,4368,1,0,0:0:0:0:
275,77,4530,1,0,0:0:0:0:
5,37,4692,5,0,0:0:0:0:
69,258,4855,1,0,0:0:0:0:
114,183,5017,6,0,L|52:177,3,31.8750012159348
53,298,5341,5,0,0:0:0:0:
117,77,5504,1,0,0:0:0:0:
117,77,5990,6,0,L|208:71,1,85
283,155,6314,2,0,L|198:160,1,85
310,71,6638,2,0,P|352:93|370:134,1,85
282,282,6963,2,0,P|302:245|340:227,1,85
491,343,7287,2,0,B|384:330|460:260|339:247,1,170
258,299,7773,1,0,0:0:0:0:
258,299,7936,2,0,L|167:293,1,85
58,340,8260,2,0,L|75:338,1,17
8,265,8584,5,0,0:0:0:0:
8,265,8746,1,0,0:0:0:0:
71,191,8909,2,0,P|50:154|12:136,1,85
66,45,9233,2,0,L|235:33,1,170
394,104,9719,1,0,0:0:0:0:
324,217,9882,2,0,P|312:160|295:102,1,85
462,169,10206,2,0,P|451:210|443:251,1,85
416,364,10530,1,0,0:0:0:0:
416,364,10855,1,0,0:0:0:0:
339,303,11017,1,0,0:0:0:0:
246,361,11179,6,0,L|161:366,1,85
116,276,11503,2,0,L|270:265,1,127.5
262,242,11828,2,0,P|270:200|280:159,1,85
148,31,12152,2,0,P|165:96|178:163,1,127.5
176,155,12476,2,0,B|283:142|207:72|328:59,1,170
441,129,12963,1,0,0:0:0:0:
441,129,13125,2,0,L|356:134,1,85
395,225,13449,2,0,L|412:223,1,17
359,313,13773,5,0,0:0:0:0:
359,313,13936,1,0,0:0:0:0:
359,313,14098,2,0,L|274:307,1,85
184,196,14422,1,0,0:0:0:0:
184,196,14585,1,0,0:0:0:0:
184,196,14747,2,0,L|268:201,1,85
354,101,15071,1,0,0:0:0:0:
296,24,15233,2,0,P|306:65|314:106,1,85
459,219,15557,1,0,0:0:0:0:
459,219,15719,2,0,P|467:177|477:136,1,85
417,47,16044,6,0,L|440:41,1,17
445,66,16368,6,0,B|332:61|376:143|262:136,1,187.000005706787
182,60,16855,1,0,0:0:0:0:
182,60,16936,1,0,0:0:0:0:
182,60,17017,2,0,P|188:106|193:152,1,93.5000028533936
72,262,17341,2,0,P|77:215|83:169,1,93.5000028533936
0,125,17665,5,0,0:0:0:0:
0,125,17828,1,0,0:0:0:0:
20,332,17990,2,0,P|70:354|122:330,1,93.5000028533936
174,276,18233,1,0,0:0:0:0:
174,276,18314,1,0,0:0:0:0:
83,169,18476,1,0,0:0:0:0:
194,287,18638,2,0,P|240:280|286:275,1,93.5000028533936
318,300,18882,1,0,0:0:0:0:
318,300,18963,5,0,0:0:0:0:
256,363,19125,1,0,0:0:0:0:
331,190,19287,1,0,0:0:0:0:
467,343,19449,2,0,P|469:319|472:296,1,46.7500014266968
225,53,19611,2,0,P|231:99|236:145,1,93.5000028533936
439,359,19936,2,0,P|444:312|450:266,1,93.5000028533936
398,92,20260,5,0,0:0:0:0:
275,246,20422,1,0,0:0:0:0:
69,160,20584,2,0,P|157:172|245:182,1,140.25000428009
165,265,20909,1,0,0:0:0:0:
165,265,21071,1,0,0:0:0:0:
115,83,21233,2,0,P|70:73|29:95,1,93.5000028533936
65,339,21557,6,0,P|69:292|76:246,1,93.5000028533936
220,62,21882,2,0,P|226:108|231:154,1,93.5000028533936
290,228,22125,1,0,0:0:0:0:
290,228,22206,1,0,0:0:0:0:
356,145,22368,1,0,0:0:0:0:
500,287,22530,2,0,P|455:297|414:275,1,93.5000028533936
454,17,22855,5,0,0:0:0:0:
454,17,23017,1,0,0:0:0:0:
356,145,23179,2,0,P|311:155|270:133,1,93.5000028533936
237,53,23422,1,0,0:0:0:0:
237,53,23503,1,0,0:0:0:0:
172,140,23665,1,0,0:0:0:0:
32,26,23828,2,0,P|78:32|124:37,1,93.5000028533936
148,61,24071,1,0,0:0:0:0:
148,61,24152,5,0,0:0:0:0:
52,153,24314,1,0,0:0:0:0:
208,329,24476,1,0,0:0:0:0:
222,239,24638,2,0,P|198:236|175:233,1,46.7500014266968
26,324,24800,2,0,P|72:317|118:312,1,93.5000028533936
416,273,25125,2,0,P|369:268|323:261,1,93.5000028533936
323,261,25368,1,0,0:0:0:0:
323,261,25449,1,0,0:0:0:0:
395,187,25611,1,0,0:0:0:0:
172,126,25773,5,0,0:0:0:0:
501,316,25936,1,0,0:0:0:0:
251,354,26098,1,0,0:0:0:0:
251,354,26746,6,0,B|241:308|241:308|200:271|116:297|119:363,1,191.250007295609
47,368,27395,2,0,P|39:293|28:219,1,127.500004863739
109,166,27882,5,0,0:0:0:0:
109,166,28044,1,0,0:0:0:0:
144,80,28692,2,0,P|99:75|54:69,1,63.7500024318696
145,245,29017,2,0,P|176:241|208:238,1,63.7500024318696
332,145,29341,6,0,P|290:193|316:253,1,127.500004863739
427,276,29828,1,0,0:0:0:0:
427,276,29990,2,0,P|469:228|443:168,1,127.500004863739
409,82,30638,5,0,0:0:0:0:
409,82,30963,1,0,0:0:0:0:
337,40,31125,2,0,L|331:3,2,31.8750012159348
265,106,31449,2,0,L|261:126,3,21.2500008106232
203,60,31773,1,0,0:0:0:0:
51,205,31936,5,0,0:0:0:0:
235,236,32260,1,0,0:0:0:0:
78,62,32584,1,0,0:0:0:0:
225,37,32908,1,0,0:0:0:0:
166,112,33071,5,0,0:0:0:0:
223,222,33233,5,0,0:0:0:0:
62,196,33557,1,0,0:0:0:0:
214,49,33881,1,0,0:0:0:0:
86,70,34205,1,0,0:0:0:0:
147,233,34530,6,0,P|138:298|132:364,1,127.500004863739
133,359,35017,1,0,0:0:0:0:
305,318,35179,1,0,0:0:0:0:
305,318,35341,2,0,P|262:282|229:296,1,85
395,358,35828,6,0,L|438:353,1,42.5
466,346,36071,2,0,L|423:341,1,42.5
391,328,36314,2,0,L|434:323,1,42.5
485,252,36638,6,0,L|486:241,4,10.625
484,262,36963,1,0,0:0:0:0:
256,192,37125,12,0,38098,0:0:0:0:
