osu file format v14

[General]
AudioFilename: audio.mp3
AudioLeadIn: 0
PreviewTime: 38128
Countdown: 0
SampleSet: Soft
StackLeniency: 0.5
Mode: 0
LetterboxInBreaks: 0
WidescreenStoryboard: 0

[Editor]
DistanceSpacing: 0.6
BeatDivisor: 4
GridSize: 4
TimelineZoom: 2.999999

[Metadata]
Title:Inferno (TV Size)
TitleUnicode:インフェルノ (TV Size)
Artist:Mrs. GREEN APPLE
ArtistUnicode:Mrs. GREEN APPLE
Creator:Reform
Version:browiec's Expert
Source:炎炎ノ消防隊
Tags:Kujinn [_Eli_] Logic Agent Eli MaestroSplinter browiec Nelliel OnlyBiscuit brotarks Haruto haruto_aizawa KittyAdventure gokugohan12468 Ipas toybot AnzeigeistRaus Anzei FuJu Japanese fire force brigade of flames Enen no Shouboutai opening op anime ミセスグリーンアップル motoki omori 大森元貴 hiroto wakai 若井滉斗 ayaka yamanaka 山中綾華 ryoka fujisawa 藤澤涼架 kiyokatsu takano 髙野清宗
BeatmapID:2092400
BeatmapSetID:999126

[Difficulty]
HPDrainRate:5
CircleSize:4.2
OverallDifficulty:8.6
ApproachRate:9.2
SliderMultiplier:1.85
SliderTickRate:1

[Events]
//Background and Video events
0,0,"BG.jpg",0,0
//Break Periods
2,64567,72798
//Storyboard Layer 0 (Background)
//Storyboard Layer 1 (Fail)
//Storyboard Layer 2 (Pass)
//Storyboard Layer 3 (Foreground)
//Storyboard Layer 4 (Overlay)
//Storyboard Sound Samples

[TimingPoints]
800,324.324324324324,4,2,22,65,1,0
5989,-133.333333333333,4,2,22,45,0,0
16367,-114.942528735632,4,2,22,55,0,0
26745,-133.333333333333,4,2,22,40,0,0
38421,-100,4,2,22,75,0,1
47502,-100,4,2,22,75,0,0
48799,-100,4,2,22,75,0,1
59178,-100,4,2,22,85,0,1
63070,-100,4,2,22,85,0,0
64367,-100,4,2,22,60,0,0
74745,-100,4,2,22,75,0,1
85124,-100,4,2,22,85,0,1
87070,-100,4,2,22,95,0,1
87718,-200,4,2,22,75,0,0
89340,-200,4,2,22,5,0,0

[Colours]
Combo1 : 105,58,201
Combo2 : 255,128,0
Combo3 : 0,155,230
Combo4 : 255,55,55

[HitObjects]
40,132,800,6,0,P|88:128|132:144,1,92.5,4|0,1:2|0:0,0:0:0:0:
216,280,1124,2,0,P|168:284|124:268,1,92.5,8|0,0:0|1:0,0:0:0:0:
92,236,1367,1,0,1:2:0:0:
92,236,1448,1,0,1:2:0:0:
196,104,1610,1,0,1:2:0:0:
228,292,1772,2,0,L|236:388,1,92.5,8|0,0:0|0:0,0:0:0:0:
392,268,2097,6,0,P|408:212|392:164,1,92.5,0|0,1:2|1:2,0:0:0:0:
292,72,2421,2,0,P|276:128|292:176,1,92.5,8|0,0:0|1:0,0:0:0:0:
312,196,2664,1,0,1:2:0:0:
312,196,2745,1,0,1:2:0:0:
416,72,2908,1,0,1:2:0:0:
488,240,3070,2,0,L|492:352,1,92.5,8|0,0:0|0:0,0:0:0:0:
324,184,3394,6,0,P|268:176|224:184,1,92.5,4|0,1:2|0:0,0:0:0:0:
128,288,3718,1,8,0:0:0:0:
92,140,3881,1,0,0:0:0:0:
40,312,4043,5,8,0:0:0:0:
176,160,4205,1,0,0:0:0:0:
184,360,4367,5,8,0:0:0:0:
40,208,4529,1,0,0:0:0:0:
288,176,4691,5,10,1:2:0:0:
32,356,4854,1,10,1:2:0:0:
128,128,5016,5,8,0:0:0:0:
136,106,5097,1,8,0:0:0:0:
139,83,5178,1,8,0:0:0:0:
138,60,5259,1,8,0:0:0:0:
132,38,5340,5,10,1:2:0:0:
220,248,5502,1,10,1:2:0:0:
220,248,5989,6,0,P|284:264|308:256,1,69.3750026464463,6|0,1:2|0:0,0:0:0:0:
260,144,6313,2,0,P|196:128|172:136,1,69.3750026464463,2|0,1:2|0:0,0:0:0:0:
232,260,6637,2,0,P|296:276|320:268,1,69.3750026464463,2|0,1:2|0:0,0:0:0:0:
368,180,6962,2,0,P|372:136|372:100,1,69.3750026464463,2|0,1:2|0:0,0:0:0:0:
480,8,7286,6,0,B|504:56|504:56|472:156,1,138.750005292893,2|0,1:2|1:2,0:0:0:0:
408,256,7772,1,2,0:0:0:0:
408,256,7935,2,0,P|352:264|328:256,1,69.3750026464463,2|0,1:2|0:0,0:0:0:0:
244,152,8259,1,0,1:2:0:0:
244,152,8583,6,0,P|180:168|156:160,1,69.3750026464463,2|2,1:2|0:0,0:0:0:0:
96,64,8907,2,0,P|160:48|184:56,1,69.3750026464463,2|2,1:2|0:0,0:0:0:0:
256,164,9231,2,0,P|192:180|168:172,1,69.3750026464463,2|0,1:2|0:0,0:0:0:0:
84,164,9556,2,0,P|49:164|18:179,1,69.3750026464463,2|2,1:2|0:0,0:0:0:0:
76,324,9881,6,0,L|72:248,1,69.3750026464463,2|2,1:2|0:0,0:0:0:0:
168,148,10205,1,2,1:2:0:0:
188,268,10367,1,0,0:0:0:0:
256,132,10529,1,2,1:2:0:0:
268,120,10854,5,2,1:2:0:0:
280,108,11178,6,0,L|288:32,1,69.3750026464463,2|0,1:2|0:0,0:0:0:0:
376,120,11502,2,0,L|384:196,1,69.3750026464463,2|0,1:2|0:0,0:0:0:0:
279,268,11827,2,0,L|287:192,1,69.3750026464463,2|0,1:2|0:0,0:0:0:0:
375,280,12151,2,0,L|383:356,1,69.3750026464463,2|0,1:2|0:0,0:0:0:0:
192,300,12475,6,0,B|108:296|148:328|56:332,1,138.750005292893,2|0,1:2|1:2,0:0:0:0:
0,232,12962,1,2,0:0:0:0:
0,232,13124,2,0,P|0:184|24:152,1,69.3750026464463,2|0,1:2|0:0,0:0:0:0:
128,120,13448,1,0,1:2:0:0:
128,120,13772,6,0,L|208:112,1,69.3750026464463,2|2,1:2|0:0,0:0:0:0:
252,212,14097,2,0,L|332:220,1,69.3750026464463,2|0,1:2|0:0,0:0:0:0:
468,168,14421,2,0,P|476:208|464:260,1,69.3750026464463,2|2,1:2|0:0,0:0:0:0:
396,344,14745,2,0,P|388:304|400:252,1,69.3750026464463,2|2,1:2|0:0,0:0:0:0:
480,156,15070,5,2,1:2:0:0:
332,200,15232,2,0,P|272:204|236:188,1,69.3750026464463,2|0,0:0|1:2,0:0:0:0:
184,88,15556,1,2,0:0:0:0:
336,40,15718,1,2,1:2:0:0:
348,52,16043,5,6,1:2:0:0:
360,64,16367,6,0,P|368:112|352:152,1,80.4750006753731,6|0,1:2|0:0,0:0:0:0:
248,236,16691,2,0,P|240:188|256:148,1,80.4750006753731,10|0,0:0|1:2,0:0:0:0:
348,240,17016,1,2,1:2:0:0:
176,304,17178,1,0,1:2:0:0:
348,368,17340,2,0,P|400:376|440:364,1,80.4750006753731,10|0,0:0|0:0,0:0:0:0:
236,224,17664,6,0,P|176:204|88:252,1,160.950001350746,2|8,1:2|0:0,0:0:0:0:
152,384,18151,1,2,1:2:0:0:
260,252,18313,2,0,L|268:160,1,80.4750006753731,2|0,1:2|1:2,0:0:0:0:
188,36,18637,1,8,0:0:0:0:
188,36,18962,6,0,L|96:44,1,80.4750006753731,2|2,1:2|1:2,0:0:0:0:
0,140,19286,2,0,L|92:148,1,80.4750006753731,10|2,0:0|1:2,0:0:0:0:
188,244,19610,2,0,L|96:252,1,80.4750006753731,2|0,1:2|1:2,0:0:0:0:
0,348,19934,2,0,L|92:356,1,80.4750006753731,10|2,0:0|0:0,0:0:0:0:
252,316,20259,5,2,1:2:0:0:
96,236,20421,1,2,1:2:0:0:
288,180,20583,2,0,P|344:164|408:180,1,120.71250101306,10|0,0:0|1:2,0:0:0:0:
432,208,20908,1,2,1:2:0:0:
432,208,21232,1,10,0:0:0:0:
356,352,21394,1,2,0:0:0:0:
272,168,21556,6,0,P|268:104|272:60,1,80.4750006753731,2|0,1:2|0:0,0:0:0:0:
416,36,21881,2,0,P|420:100|416:144,1,80.4750006753731,10|0,0:0|1:0,0:0:0:0:
360,252,22205,2,0,P|300:276|256:268,1,80.4750006753731,2|0,1:2|1:2,0:0:0:0:
168,160,22529,2,0,P|228:184|272:176,1,80.4750006753731,10|0,0:0|0:0,0:0:0:0:
96,72,22854,6,0,B|60:120|60:120|84:224,1,160.950001350746,2|8,1:2|0:0,0:0:0:0:
128,340,23340,1,2,1:2:0:0:
232,220,23502,2,0,P|232:172|212:132,1,80.4750006753731,2|0,1:2|1:2,0:0:0:0:
84,60,23827,1,8,0:0:0:0:
84,60,24151,6,0,P|68:104|76:148,1,80.4750006753731,2|2,1:2|1:2,0:0:0:0:
188,232,24475,2,0,P|204:188|196:144,1,80.4750006753731,10|0,0:0|0:0,0:0:0:0:
80,228,24799,2,0,L|-8:232,1,80.4750006753731,2|2,1:2|1:2,0:0:0:0:
136,328,25124,2,0,L|224:332,1,80.4750006753731,10|2,0:0|1:2,0:0:0:0:
320,172,25448,5,2,1:2:0:0:
384,344,25610,1,2,1:2:0:0:
448,144,25772,1,8,0:0:0:0:
284,284,25935,1,0,1:2:0:0:
496,268,26097,1,8,0:0:0:0:
496,268,26745,6,0,P|428:280|356:244,1,138.750005292893,6|0,1:2|0:0,0:0:0:0:
332,164,27232,1,0,1:1:0:0:
332,164,27394,2,0,B|321:109|321:109|336:28,2,138.750005292893,10|2|2,0:0|0:0|1:2,0:0:0:0:
332,164,28691,1,10,0:0:0:0:
360,240,29016,1,2,0:0:0:0:
320,340,29340,6,0,B|256:356|256:356|180:336,1,138.750005292893,2|2,1:2|1:2,0:0:0:0:
120,264,29827,1,0,1:2:0:0:
120,264,29989,2,0,P|100:192|120:128,2,138.750005292893,10|2|2,0:0|0:0|1:2,0:0:0:0:
229,313,31124,1,0,1:2:0:0:
229,313,31205,1,0,1:2:0:0:
229,313,31286,2,0,L|316:308,1,69.3750026464463,10|0,0:0|1:2,0:0:0:0:
356,208,31610,2,0,L|269:203,1,69.3750026464463,2|0,1:2|1:2,0:0:0:0:
140,164,31935,6,0,P|120:120|152:28,1,138.750005292893,2|2,1:2|0:0,0:0:0:0:
232,16,32421,1,0,1:2:0:0:
232,16,32583,2,0,L|380:8,1,138.750005292893,10|2,0:0|0:0,0:0:0:0:
448,64,33070,1,0,1:2:0:0:
448,64,33232,2,0,B|464:128|464:128|424:208,1,138.750005292893,2|2,1:2|0:0,0:0:0:0:
352,168,33881,1,10,1:2:0:0:
284,216,34205,1,2,0:0:0:0:
204,116,34529,6,0,L|192:260,1,138.750005292893,2|2,1:2|1:2,0:0:0:0:
224,336,35016,1,0,1:2:0:0:
224,336,35178,2,0,L|304:348,1,69.3750026464463,10|0,0:0|1:2,0:0:0:0:
304,244,35502,2,0,L|384:232,1,69.3750026464463,0|0,0:2|1:0,0:0:0:0:
448,292,35827,5,10,0:0:0:0:
472,176,35989,2,0,B|464:148|472:132|472:132|464:124|464:124|480:92|464:56,2,104.06250396967,8|8|8,0:0|1:2|0:0,0:0:0:0:
460,308,36637,2,0,L|464:336,4,17.3437506616116,0|0|0|0|8,1:2|1:2|1:2|1:2|0:0,1:2:0:0:
376,208,36962,1,8,0:0:0:0:
348,328,37124,5,0,1:2:0:0:
264,244,37286,2,0,B|228:236|228:236|204:240|204:240|152:228,2,104.06250396967,8|8|8,0:0|0:0|0:0,0:0:0:0:
376,208,37935,1,0,1:2:0:0:
288,128,38097,6,0,L|216:104,1,69.3750026464463,2|2,0:0|0:0,0:0:0:0:
56,328,38421,6,0,B|148:352|148:352|256:324,1,185,6|8,1:2|0:0,0:0:0:0:
376,156,38908,1,2,1:2:0:0:
376,156,38989,1,0,1:0:0:0:
376,156,39070,1,2,1:2:0:0:
408,344,39232,1,0,1:2:0:0:
296,196,39394,2,0,P|285:146|319:86,1,92.5,8|2,0:0|0:0,0:0:0:0:
144,12,39718,6,0,B|176:76|176:76|128:200,1,185,2|8,1:2|0:0,0:0:0:0:
68,348,40205,1,2,1:2:0:0:
212,240,40367,2,0,P|268:236|332:252,1,92.5,2|0,1:2|1:2,0:0:0:0:
420,360,40691,2,0,P|364:364|300:348,1,92.5,8|2,0:0|0:2,0:0:0:0:
268,140,41016,6,0,B|340:128|340:128|380:140|380:140|460:128,1,185,2|8,1:2|0:0,0:0:0:0:
328,248,41502,1,2,1:2:0:0:
328,248,41583,1,0,1:0:0:0:
328,248,41664,1,2,1:2:0:0:
392,52,41827,1,0,1:2:0:0:
480,232,41989,2,0,P|492:296|472:344,1,92.5,8|2,0:0|0:0,0:0:0:0:
292,224,42313,5,2,1:2:0:0:
452,136,42475,1,0,1:0:0:0:
272,68,42637,2,0,P|212:60|152:76,1,92.5,8|0,0:0|0:0,0:0:0:0:
92,284,42962,5,0,1:2:0:0:
220,160,43124,1,0,1:2:0:0:
260,340,43286,1,8,0:0:0:0:
232,148,43448,1,2,0:0:0:0:
124,364,43610,6,0,P|68:368|8:256,1,185,6|8,1:2|0:0,0:0:0:0:
112,120,44097,1,2,1:2:0:0:
176,288,44259,1,2,1:2:0:0:
240,120,44421,1,0,1:2:0:0:
300,280,44583,2,0,P|368:292|400:280,1,92.5,8|2,0:0|0:0,0:0:0:0:
384,56,44908,6,0,B|328:88|328:88|348:224,1,185,2|8,1:2|0:0,0:0:0:0:
400,368,45394,1,2,1:2:0:0:
512,236,45556,2,0,P|456:228|400:252,1,92.5,2|0,1:2|1:2,0:0:0:0:
252,296,45881,2,0,P|308:304|364:280,1,92.5,8|2,0:0|0:0,0:0:0:0:
424,100,46205,6,0,B|356:100|356:100|320:124|320:124|232:124,1,185,2|8,1:2|0:0,0:0:0:0:
88,20,46691,1,2,1:2:0:0:
88,20,46772,1,0,1:0:0:0:
88,20,46854,1,2,1:2:0:0:
124,208,47016,1,0,1:2:0:0:
260,32,47178,1,8,0:0:0:0:
212,216,47340,1,2,0:0:0:0:
8,68,47502,5,10,1:2:0:0:
312,124,47664,1,10,1:2:0:0:
312,124,48151,5,10,1:2:0:0:
4,176,48313,1,10,1:2:0:0:
236,256,48475,1,8,0:0:0:0:
257,259,48556,1,8,0:0:0:0:
280,262,48637,1,10,0:0:0:0:
303,265,48718,1,8,0:0:0:0:
324,268,48799,6,0,B|396:276|396:276|428:304|428:304|504:312,1,185,6|8,1:2|0:0,0:0:0:0:
344,368,49286,1,2,1:2:0:0:
344,368,49367,1,0,1:0:0:0:
344,368,49448,1,2,1:2:0:0:
256,180,49610,1,0,1:2:0:0:
156,344,49772,2,0,P|104:352|60:332,1,92.5,8|2,0:0|0:0,0:0:0:0:
144,104,50097,6,0,B|172:164|172:164|112:280,1,185,2|8,1:2|0:0,0:0:0:0:
56,132,50583,1,2,1:2:0:0:
220,272,50745,2,0,P|268:280|316:264,1,92.5,2|0,1:2|1:2,0:0:0:0:
420,164,51070,2,0,P|372:156|324:172,1,92.5,8|2,0:0|0:0,0:0:0:0:
504,296,51394,6,0,B|484:212|540:192|500:112,1,185,2|8,1:2|0:0,0:0:0:0:
348,16,51881,1,2,1:2:0:0:
348,16,51962,1,0,1:2:0:0:
348,16,52043,1,2,1:2:0:0:
512,80,52205,1,0,1:2:0:0:
344,176,52367,2,0,P|272:180|236:160,1,92.5,8|2,0:0|0:2,0:0:0:0:
192,16,52691,5,2,1:2:0:0:
136,180,52854,1,0,1:0:0:0:
48,8,53016,2,0,P|32:60|24:108,1,92.5,12|0,0:0|0:2,0:0:0:0:
84,264,53340,5,2,1:2:0:0:
128,88,53502,1,8,0:0:0:0:
220,244,53664,1,8,0:0:0:0:
230,264,53745,1,8,0:0:0:0:
240,285,53826,1,8,0:0:0:0:
251,306,53907,1,8,0:0:0:0:
261,326,53989,6,0,P|309:342|360:328,1,92.5,6|0,1:2|0:0,0:0:0:0:
432,220,54313,2,0,P|384:204|333:218,1,92.5,8|0,0:0|0:0,0:0:0:0:
248,340,54637,2,0,P|200:356|149:342,1,92.5,2|0,1:2|0:0,0:0:0:0:
77,234,54961,2,0,P|125:218|176:232,1,92.5,8|0,0:0|0:0,0:0:0:0:
336,296,55286,6,0,L|448:304,1,92.5,2|0,1:2|0:0,0:0:0:0:
512,184,55610,2,0,L|400:192,1,92.5,8|0,0:0|0:0,0:0:0:0:
232,184,55935,2,0,L|344:192,1,92.5,2|0,1:2|0:0,0:0:0:0:
408,72,56259,2,0,L|296:80,1,92.5,8|0,0:0|0:0,0:0:0:0:
140,156,56583,6,0,B|136:204|136:204|160:252,1,92.5,6|0,1:2|0:0,0:0:0:0:
319,168,56908,2,0,B|271:164|271:164|223:188,1,92.5,8|0,0:0|0:0,0:0:0:0:
307,347,57232,2,0,B|311:299|311:299|287:251,1,92.5,2|0,1:2|0:0,0:0:0:0:
128,335,57556,2,0,B|176:339|176:339|224:315,1,92.5,8|0,0:0|0:0,0:0:0:0:
140,156,57881,6,0,L|24:144,1,92.5,2|0,1:2|0:0,0:0:0:0:
128,40,58205,2,0,L|244:28,1,92.5,8|0,0:0|0:0,0:0:0:0:
344,180,58529,2,0,L|228:168,1,92.5,2|0,1:2|0:0,0:0:0:0:
332,64,58854,2,0,L|448:52,1,92.5,8|0,0:0|0:0,0:0:0:0:
416,256,59178,6,0,P|364:284|320:280,1,92.5,14|0,0:0|0:0,0:0:0:0:
172,160,59502,2,0,P|224:132|268:136,1,92.5,10|0,0:0|0:0,0:0:0:0:
412,372,59827,5,10,0:0:0:0:
368,140,59989,1,0,0:0:0:0:
292,380,60151,5,10,0:0:0:0:
356,152,60313,1,0,0:0:0:0:
156,320,60475,6,0,B|112:328|112:328|48:316,1,92.5,10|0,0:0|0:0,0:0:0:0:
128,140,60799,2,0,B|172:132|172:132|236:144,1,92.5,10|0,0:0|0:0,0:0:0:0:
292,380,61124,5,10,0:0:0:0:
356,152,61286,1,0,0:0:0:0:
112,240,61448,5,10,0:0:0:0:
368,308,61610,1,0,0:0:0:0:
200,96,61772,6,0,L|188:-12,1,92.5,10|0,0:0|0:0,0:0:0:0:
380,92,62097,2,0,L|368:200,1,92.5,10|0,0:0|0:0,0:0:0:0:
212,384,62421,5,10,0:0:0:0:
272,160,62583,1,0,0:0:0:0:
360,384,62745,5,10,0:0:0:0:
188,196,62908,1,2,0:0:0:0:
444,260,63070,5,10,1:2:0:0:
132,272,63232,1,10,1:2:0:0:
132,272,63719,5,10,1:2:0:0:
364,92,63881,1,10,1:2:0:0:
256,192,64367,5,6,0:0:0:0:
317,1,73448,5,10,1:2:0:0:
360,284,73610,1,10,1:2:0:0:
360,284,74096,5,10,1:2:0:0:
180,60,74258,1,10,1:2:0:0:
180,60,74583,1,2,0:0:0:0:
32,320,74745,6,0,B|84:364|84:364|204:340,1,185,6|8,1:2|0:0,0:0:0:0:
348,224,75232,1,2,1:2:0:0:
348,224,75313,1,0,1:2:0:0:
348,224,75394,1,2,1:2:0:0:
152,244,75556,1,0,1:2:0:0:
312,360,75718,2,0,P|376:368|436:340,1,92.5,8|2,0:0|0:0,0:0:0:0:
228,152,76043,6,0,B|256:212|256:212|216:352,1,185,2|8,1:2|0:0,0:0:0:0:
136,164,76529,1,2,1:2:0:0:
136,164,76610,1,0,1:2:0:0:
136,164,76691,1,2,1:2:0:0:
336,136,76854,1,0,1:2:0:0:
164,48,77016,2,0,P|104:40|60:52,1,92.5,8|2,0:0|0:0,0:0:0:0:
176,264,77340,5,6,1:2:0:0:
256,80,77502,1,0,1:0:0:0:
312,272,77664,2,0,P|320:323|324:368,1,92.5,8|2,0:0|1:2,0:0:0:0:
432,192,77989,5,2,1:2:0:0:
216,164,78151,1,0,1:2:0:0:
396,64,78313,2,0,P|472:52|508:68,1,92.5,8|2,0:0|0:2,0:0:0:0:
396,280,78637,5,2,1:2:0:0:
300,68,78799,1,0,1:2:0:0:
236,260,78962,2,0,P|228:332|232:372,1,92.5,12|0,0:0|0:0,0:0:0:0:
136,168,79286,5,2,1:2:0:0:
72,348,79448,1,8,0:0:0:0:
8,176,79610,1,8,0:0:0:0:
7,152,79691,1,8,0:0:0:0:
6,129,79772,1,8,0:0:0:0:
5,106,79853,1,8,0:0:0:0:
4,83,79935,6,0,P|48:63|96:63,1,92.5,6|0,1:2|0:0,0:0:0:0:
192,184,80259,2,0,P|148:204|100:204,1,92.5,8|0,0:0|0:0,0:0:0:0:
200,56,80583,2,0,P|244:36|292:36,1,92.5,2|0,1:2|0:0,0:0:0:0:
388,157,80907,2,0,P|344:177|296:177,1,92.5,8|0,0:0|0:0,0:0:0:0:
108,96,81232,6,0,L|100:212,1,92.5,2|0,1:2|0:0,0:0:0:0:
208,320,81556,2,0,L|200:204,1,92.5,8|0,0:0|0:0,0:0:0:0:
296,64,81881,2,0,L|288:180,1,92.5,2|0,1:2|0:0,0:0:0:0:
396,288,82205,2,0,L|388:172,1,92.5,8|0,0:0|0:0,0:0:0:0:
192,100,82529,6,0,B|144:96|144:96|96:120,1,92.5,6|0,1:2|0:0,0:0:0:0:
180,279,82854,2,0,B|184:231|184:231|160:183,1,92.5,8|0,0:0|0:0,0:0:0:0:
1,267,83178,2,0,B|49:271|49:271|97:247,1,92.5,2|0,1:2|0:0,0:0:0:0:
13,88,83502,2,0,B|9:136|9:136|33:184,1,92.5,8|0,0:0|0:0,0:0:0:0:
192,300,83827,6,0,L|204:192,1,92.5,2|0,1:2|0:0,0:0:0:0:
280,56,84151,2,0,L|292:164,1,92.5,8|0,0:0|0:0,0:0:0:0:
416,364,84475,5,6,1:2:0:0:
388,172,84637,1,0,0:0:0:0:
284,360,84799,5,12,0:0:0:0:
464,252,84962,1,0,0:0:0:0:
208,252,85124,6,0,P|139:248|103:221,1,92.5,14|0,0:0|0:0,0:0:0:0:
229,85,85448,2,0,P|297:88|333:115,1,92.5,10|0,0:0|0:0,0:0:0:0:
368,324,85772,5,10,0:0:0:0:
476,140,85935,1,0,0:0:0:0:
476,376,86097,5,10,0:0:0:0:
392,176,86259,1,0,0:0:0:0:
264,372,86421,6,0,L|164:380,1,92.5,10|0,0:0|0:0,0:0:0:0:
76,204,86745,2,0,L|168:211,1,92.5,10|0,0:0|0:0,0:0:0:0:
428,264,87070,5,10,0:0:0:0:
256,96,87232,1,0,0:0:0:0:
280,336,87394,5,10,0:0:0:0:
392,148,87556,1,0,0:0:0:0:
200,240,87718,6,0,P|140:248|104:228,1,92.5,2|2,0:0|0:0,0:0:0:0:
68,108,88367,2,0,P|128:100|164:120,1,92.5,2|2,0:0|0:0,0:0:0:0:
228,160,88854,1,2,0:0:0:0:
228,160,89016,2,0,B|280:176|280:152|320:168,1,92.5,2|0,0:0|0:0,0:0:0:0:
