osu file format v14

[General]
AudioFilename: audio.mp3
AudioLeadIn: 0
PreviewTime: 38128
Countdown: 0
SampleSet: Soft
StackLeniency: 0.4
Mode: 0
LetterboxInBreaks: 0
WidescreenStoryboard: 0

[Editor]
DistanceSpacing: 0.7
BeatDivisor: 4
GridSize: 32
TimelineZoom: 2.599999

[Metadata]
Title:Inferno (TV Size)
TitleUnicode:インフェルノ (TV Size)
Artist:Mrs. GREEN APPLE
ArtistUnicode:Mrs. GREEN APPLE
Creator:Reform
Version:toybot's Insane
Source:炎炎ノ消防隊
Tags:Kujinn [_Eli_] Logic Agent Eli MaestroSplinter browiec Nelliel OnlyBiscuit brotarks Haruto haruto_aizawa KittyAdventure gokugohan12468 Ipas toybot AnzeigeistRaus Anzei FuJu Japanese fire force brigade of flames Enen no Shouboutai opening op anime ミセスグリーンアップル motoki omori 大森元貴 hiroto wakai 若井滉斗 ayaka yamanaka 山中綾華 ryoka fujisawa 藤澤涼架 kiyokatsu takano 髙野清宗
BeatmapID:2123909
BeatmapSetID:999126

[Difficulty]
HPDrainRate:6
CircleSize:4
OverallDifficulty:8.5
ApproachRate:9
SliderMultiplier:1.9
SliderTickRate:1

[Events]
//Background and Video events
0,0,"BG.jpg",0,0
//Break Periods
//Storyboard Layer 0 (Background)
//Storyboard Layer 1 (Fail)
//Storyboard Layer 2 (Pass)
//Storyboard Layer 3 (Foreground)
//Storyboard Layer 4 (Overlay)
//Storyboard Sound Samples

[TimingPoints]
800,324.324324324324,4,2,22,65,1,0
5827,-100,4,2,22,45,0,0
5908,-100,4,2,22,45,0,0
5989,-111.111111111111,4,2,22,45,0,0
7448,-111.111111111111,4,2,22,60,0,0
7610,-111.111111111111,4,2,22,45,0,0
12637,-111.111111111111,4,2,22,60,0,0
12799,-111.111111111111,4,2,22,45,0,0
15718,-100,4,2,22,45,0,0
16043,-71.4285714285714,4,2,22,45,0,0
16286,-71.4285714285714,4,2,22,60,0,0
16367,-100,4,2,22,55,0,0
16529,-100,4,2,22,60,0,0
16691,-100,4,2,22,55,0,0
17826,-100,4,2,22,55,0,0
17989,-100,4,2,22,55,0,0
19853,-100,4,2,22,60,0,0
19935,-100,4,2,22,55,0,0
22772,-100,4,2,22,60,0,0
22854,-100,4,2,22,55,0,0
26421,-133.333333333333,4,2,22,55,0,0
26583,-133.333333333333,4,2,22,60,0,0
26745,-133.333333333333,4,2,22,40,0,0
36799,-133.333333333333,4,2,22,40,0,0
36839,-133.333333333333,4,2,22,60,0,0
36962,-133.333333333333,4,2,22,40,0,0
37002,-133.333333333333,4,2,22,60,0,0
37124,-133.333333333333,4,2,22,40,0,0
37286,-133.333333333333,4,2,22,40,0,0
37935,-133.333333333333,4,2,22,60,0,0
38097,-66.6666666666667,4,2,22,40,0,0
38421,-90.9090909090909,4,2,22,75,0,1
38745,-90.9090909090909,4,2,22,75,0,1
41178,-90.9090909090909,4,2,22,75,0,1
41340,-90.9090909090909,4,2,22,75,0,1
41583,-90.9090909090909,4,2,22,75,0,1
41664,-90.9090909090909,4,2,22,75,0,1
42475,-90.9090909090909,4,2,22,75,0,1
42637,-90.9090909090909,4,2,22,75,0,1
42881,-90.9090909090909,4,2,22,70,0,1
42962,-90.9090909090909,4,2,22,75,0,1
45475,-90.9090909090909,4,2,22,75,0,1
45556,-90.9090909090909,4,2,22,75,0,1
46367,-90.9090909090909,4,2,22,75,0,1
46529,-90.9090909090909,4,2,22,75,0,1
46772,-90.9090909090909,4,2,22,75,0,1
46854,-90.9090909090909,4,2,22,75,0,1
47421,-90.9090909090909,4,2,22,70,0,1
47502,-90.9090909090909,4,2,22,75,0,0
47583,-90.9090909090909,4,2,22,70,0,0
47664,-90.9090909090909,4,2,22,75,0,0
47745,-90.9090909090909,4,2,22,70,0,0
48151,-76.9230769230769,4,2,22,75,0,0
48232,-76.9230769230769,4,2,22,70,0,0
48313,-76.9230769230769,4,2,22,75,0,0
48394,-76.9230769230769,4,2,22,70,0,0
48475,-76.9230769230769,4,2,22,75,0,0
48799,-90.9090909090909,4,2,22,75,0,1
53259,-90.9090909090909,4,2,22,70,0,1
53340,-90.9090909090909,4,2,22,75,0,1
53421,-90.9090909090909,4,2,22,70,0,1
53502,-90.9090909090909,4,2,22,75,0,1
54151,-90.9090909090909,4,2,22,70,0,1
54313,-90.9090909090909,4,2,22,75,0,1
55205,-90.9090909090909,4,2,22,70,0,1
55286,-90.9090909090909,4,2,22,75,0,1
55448,-90.9090909090909,4,2,22,70,0,1
55610,-90.9090909090909,4,2,22,75,0,1
55772,-90.9090909090909,4,2,22,70,0,1
55935,-90.9090909090909,4,2,22,75,0,1
57799,-90.9090909090909,4,2,22,70,0,1
57881,-90.9090909090909,4,2,22,75,0,1
59178,-90.9090909090909,4,2,22,85,0,1
60394,-90.9090909090909,4,2,22,70,0,1
60475,-90.9090909090909,4,2,22,85,0,1
61367,-90.9090909090909,4,2,22,70,0,1
61448,-90.9090909090909,4,2,22,85,0,1
61691,-90.9090909090909,4,2,22,70,0,1
61772,-90.9090909090909,4,2,22,85,0,1
63151,-90.9090909090909,4,2,22,70,0,1
63232,-90.9090909090909,4,2,22,85,0,1
63313,-90.9090909090909,4,2,22,70,0,1
63718,-90.9090909090909,4,2,22,85,0,1
63799,-90.9090909090909,4,2,22,70,0,1
63880,-90.9090909090909,4,2,22,85,0,1
63961,-90.9090909090909,4,2,22,70,0,1
64205,-90.9090909090909,4,2,22,40,0,1
64367,-111.111111111111,4,2,22,40,0,0
67529,-111.111111111111,4,2,22,40,0,0
67610,-111.111111111111,4,2,22,40,0,0
68421,-111.111111111111,4,2,22,40,0,0
68583,-111.111111111111,4,2,22,40,0,0
68827,-111.111111111111,4,2,22,40,0,0
68908,-111.111111111111,4,2,22,40,0,0
69718,-111.111111111111,4,2,22,40,0,0
70043,-111.111111111111,4,2,22,40,0,0
72961,-111.111111111111,4,2,22,40,0,0
73124,-111.111111111111,4,2,22,40,0,0
73286,-111.111111111111,4,2,22,40,0,0
73448,-90.9090909090909,4,2,22,60,0,0
73529,-90.9090909090909,4,2,22,60,0,0
73610,-90.9090909090909,4,2,22,60,0,0
73691,-90.9090909090909,4,2,22,60,0,0
74097,-76.9230769230769,4,2,22,60,0,0
74178,-76.9230769230769,4,2,22,60,0,0
74259,-76.9230769230769,4,2,22,60,0,0
74340,-76.9230769230769,4,2,22,60,0,0
74583,-76.9230769230769,4,2,22,60,0,0
74745,-90.9090909090909,4,2,22,75,0,1
75637,-90.9090909090909,4,2,22,60,0,1
75718,-90.9090909090909,4,2,22,75,0,1
79205,-90.9090909090909,4,2,22,60,0,1
79286,-90.9090909090909,4,2,22,75,0,1
81394,-90.9090909090909,4,2,22,60,0,1
81556,-90.9090909090909,4,2,22,75,0,1
81718,-90.9090909090909,4,2,22,60,0,1
81881,-90.9090909090909,4,2,22,75,0,1
83421,-90.9090909090909,4,2,22,60,0,1
83502,-90.9090909090909,4,2,22,75,0,1
83989,-90.9090909090909,4,2,22,60,0,1
84151,-90.9090909090909,4,2,22,75,0,1
84394,-90.9090909090909,4,2,22,60,0,1
84475,-90.9090909090909,4,2,22,75,0,1
84718,-90.9090909090909,4,2,22,60,0,1
84799,-90.9090909090909,4,2,22,75,0,1
85124,-90.9090909090909,4,2,22,85,0,1
86340,-90.9090909090909,4,2,22,60,0,1
86421,-90.9090909090909,4,2,22,85,0,1
86664,-90.9090909090909,4,2,22,60,0,1
86745,-90.9090909090909,4,2,22,85,0,1
87070,-90.9090909090909,4,2,22,95,0,1
87718,-133.333333333333,4,2,22,75,0,0
88610,-133.333333333333,4,2,22,60,0,0
88691,-133.333333333333,4,2,22,75,0,0
89340,-133.333333333333,4,2,22,5,0,0

[Colours]
Combo1 : 105,58,201
Combo2 : 255,128,0
Combo3 : 0,155,230
Combo4 : 255,55,55

[HitObjects]
433,153,800,6,0,B|391:147|358:140|358:140|309:193|232:174,1,190,4|8,1:2|0:0,0:0:0:0:
104,116,1286,1,0,0:0:0:0:
278,89,1448,1,0,1:2:0:0:
127,150,1610,1,0,1:2:0:0:
204,244,1772,2,0,L|194:352,1,95,8|0,0:0|0:0,0:0:0:0:
276,369,2097,6,0,P|313:360|347:302,1,95,0|0,1:2|1:2,0:0:0:0:
397,126,2421,2,0,L|407:234,1,95,8|0,0:0|0:0,0:0:0:0:
483,131,2745,1,0,1:2:0:0:
358,40,2908,1,0,1:2:0:0:
295,200,3070,1,8,0:0:0:0:
397,126,3232,1,0,0:0:0:0:
492,268,3394,5,4,1:2:0:0:
309,111,3556,2,0,P|263:98|215:97,2,95,0|8|0,0:0|0:0|0:0,0:0:0:0:
468,184,4043,1,8,0:0:0:0:
252,180,4205,2,0,P|206:191|164:214,1,95,0|8,0:0|0:0,0:0:0:0:
397,126,4529,1,0,0:0:0:0:
240,274,4691,5,10,1:2:0:0:
189,21,4854,1,10,1:2:0:0:
114,111,5016,1,8,0:0:0:0:
73,123,5097,1,8,0:0:0:0:
48,88,5178,1,8,0:0:0:0:
74,54,5259,1,8,0:0:0:0:
114,67,5340,5,10,1:2:0:0:
88,339,5502,1,10,1:2:0:0:
77,333,5827,2,0,L|64:280,1,47.5,2|0,0:0|0:0,0:0:0:0:
0,240,5989,6,0,L|114:258,1,85.4999973907472,6|0,1:2|0:0,0:0:0:0:
187,327,6313,1,2,1:2:0:0:
199,333,6637,2,0,P|241:321|262:277,1,85.4999973907472,2|0,1:2|0:0,0:0:0:0:
243,138,6962,1,2,1:2:0:0:
227,132,7286,2,0,P|222:178|214:216,1,85.4999973907472,2|0,1:2|0:0,0:0:0:0:
334,293,7610,1,0,1:2:0:0:
313,85,7772,1,2,0:0:0:0:
388,144,7935,2,0,P|432:143|468:93,1,85.4999973907472,2|0,1:2|0:0,0:0:0:0:
480,11,8259,1,0,1:2:0:0:
465,20,8583,6,0,L|371:11,1,85.4999973907472,2|2,1:2|0:0,0:0:0:0:
297,96,8908,1,2,1:2:0:0:
218,67,9070,1,2,0:0:0:0:
309,109,9232,2,0,P|327:157|321:218,1,85.4999973907472,2|0,1:2|0:0,0:0:0:0:
188,299,9556,1,2,1:2:0:0:
207,215,9718,1,2,0:0:0:0:
171,306,9881,2,0,L|80:295,1,85.4999973907472,2|2,1:2|0:0,0:0:0:0:
2,310,10205,2,0,P|4:267|124:223,1,170.999994781494,2|2,1:2|1:2,0:0:0:0:
117,204,10854,2,0,L|106:113,1,85.4999973907472,2|2,1:2|0:0,0:0:0:0:
186,81,11178,6,0,P|223:99|240:138,1,85.4999973907472,2|0,1:2|0:0,0:0:0:0:
184,276,11502,1,2,1:2:0:0:
198,285,11827,2,0,P|247:277|286:253,1,85.4999973907472,2|0,1:2|0:0,0:0:0:0:
339,143,12151,1,2,1:2:0:0:
324,155,12475,2,0,L|224:134,1,85.4999973907472,2|0,1:2|0:0,0:0:0:0:
393,74,12799,1,0,1:2:0:0:
444,254,12962,1,2,0:0:0:0:
509,187,13124,2,0,P|509:137|469:90,1,85.4999973907472,2|0,1:2|0:0,0:0:0:0:
358,234,13448,1,0,1:2:0:0:
424,286,13610,2,0,L|474:277,1,42.7499986953736,2|0,0:0|0:0,0:0:0:0:
343,243,13772,6,0,L|258:230,1,85.4999973907472,2|2,1:2|0:0,0:0:0:0:
97,295,14097,1,2,1:2:0:0:
169,343,14259,1,0,0:0:0:0:
80,306,14421,2,0,P|62:267|64:224,1,85.4999973907472,2|2,1:2|0:0,0:0:0:0:
196,73,14745,2,0,P|197:115|180:154,1,85.4999973907472,2|2,1:2|0:0,0:0:0:0:
115,98,15070,1,2,1:2:0:0:
281,74,15232,2,0,L|365:61,1,85.4999973907472,2|0,0:0|1:2,0:0:0:0:
115,98,15556,1,2,0:0:0:0:
271,157,15718,6,0,B|285:185|285:185|295:182|295:182|296:216|261:237,1,95,2|0,1:2|0:0,0:0:0:0:
311,338,16043,2,0,B|312:326|291:308|291:308|377:266|374:162,1,199.499993911743,6|0,1:2|0:0,0:0:0:0:
408,190,16367,6,0,L|383:83,1,95,6|0,1:2|0:0,0:0:0:0:
512,272,16691,2,0,P|470:329|397:327,1,142.5,10|0,0:0|1:2,0:0:0:0:
370,346,17016,1,2,1:2:0:0:
267,207,17178,1,0,1:2:0:0:
193,328,17340,2,0,P|237:313|285:306,1,95,10|0,0:0|0:0,0:0:0:0:
445,184,17664,6,0,L|337:170,1,95,2|0,1:2|1:0,0:0:0:0:
285,96,17989,1,8,0:0:0:0:
371,268,18151,1,2,1:2:0:0:
215,194,18313,1,2,1:2:0:0:
135,261,18475,1,0,1:2:0:0:
234,293,18637,2,0,P|255:344|253:394,1,95,8|2,0:0|0:0,0:0:0:0:
117,164,18962,5,2,1:2:0:0:
286,88,19124,1,2,1:2:0:0:
94,142,19286,2,0,P|101:95|107:48,1,95,10|2,0:0|1:2,0:0:0:0:
265,174,19610,2,0,P|252:244|244:314,1,142.5,2|0,1:2|0:0,0:0:0:0:
277,337,19935,2,0,P|324:335|353:299,1,95,10|2,0:0|0:0,0:0:0:0:
95,260,20259,5,2,1:2:0:0:
0,302,20421,1,2,1:2:0:0:
167,341,20583,1,10,0:0:0:0:
124,170,20745,1,0,1:2:0:0:
124,170,20827,1,0,1:2:0:0:
124,170,20908,1,2,1:2:0:0:
279,224,21070,1,0,1:0:0:0:
95,260,21232,1,10,0:0:0:0:
159,78,21394,1,2,0:0:0:0:
289,244,21556,6,0,L|381:224,1,95,2|0,1:2|0:0,0:0:0:0:
310,347,21881,2,0,P|245:319|174:308,1,142.5,10|0,0:0|1:2,0:0:0:0:
141,329,22205,2,0,P|105:280|124:221,1,95,2|0,1:2|1:2,0:0:0:0:
246,89,22529,2,0,P|256:157|203:199,1,142.5,10|0,0:0|0:0,0:0:0:0:
138,157,22854,6,0,B|232:150|216:240|337:223,1,190,2|8,1:2|0:0,0:0:0:0:
398,98,23340,1,2,1:2:0:0:
474,288,23502,1,2,1:2:0:0:
391,130,23664,1,0,1:2:0:0:
309,322,23827,2,0,P|266:342|219:340,1,95,8|2,0:0|0:0,0:0:0:0:
68,221,24151,6,0,L|185:241,1,95,2|2,1:2|1:2,0:0:0:0:
238,189,24475,1,10,0:0:0:0:
117,74,24637,1,0,0:0:0:0:
280,18,24799,1,2,1:2:0:0:
210,94,24962,1,2,1:2:0:0:
305,114,25124,1,10,0:0:0:0:
266,5,25286,1,2,1:2:0:0:
192,110,25448,5,2,1:2:0:0:
377,157,25610,1,2,1:2:0:0:
256,23,25772,1,8,0:0:0:0:
167,205,25935,1,0,1:2:0:0:
398,337,26097,1,8,0:0:0:0:
411,323,26421,2,0,L|398:245,1,71.2500027179719,2|0,0:0|0:0,0:0:0:0:
330,207,26745,6,0,P|323:165|407:105,1,142.500005435944,6|0,1:2|0:0,0:0:0:0:
425,222,27232,1,0,1:1:0:0:
298,120,27394,2,0,P|228:101|158:100,1,142.500005435944,10|2,0:0|0:0,0:0:0:0:
81,139,27881,1,0,1:2:0:0:
135,273,28043,2,0,P|181:274|212:188,1,142.500005435944,2|0,1:2|0:0,0:0:0:0:
370,349,28691,2,0,P|439:334|510:326,1,142.500005435944,10|2,0:0|0:0,0:0:0:0:
377,261,29178,1,0,1:2:0:0:
488,182,29340,6,0,P|489:146|475:114,1,71.2500027179719,2|0,1:2|0:0,0:0:0:0:
284,158,29664,2,0,P|283:193|297:225,1,71.2500027179719,2|0,1:2|1:2,0:0:0:0:
384,168,29989,1,10,0:0:0:0:
384,168,30151,2,0,P|365:99|358:28,1,142.500005435944,0|0,1:2|1:2,0:0:0:0:
269,173,30637,2,0,P|217:181|157:103,1,142.500005435944,2|0,1:2|0:0,0:0:0:0:
22,231,31124,5,0,1:2:0:0:
22,231,31205,1,0,1:2:0:0:
22,231,31286,1,10,0:0:0:0:
134,294,31448,2,0,L|126:239,1,35.625001358986,0|0,1:2|1:2,0:0:0:0:
126,227,31610,1,2,1:2:0:0:
31,321,31772,1,0,1:2:0:0:
212,352,31935,6,0,B|260:349|298:325|298:325|317:333|317:333|370:341,1,142.500005435944,2|2,1:2|0:0,0:0:0:0:
295,219,32421,1,0,1:2:0:0:
440,239,32583,2,0,B|415:237|373:197|373:197|383:234|361:264,1,142.500005435944,10|2,0:0|0:0,0:0:0:0:
446,147,33070,1,0,1:2:0:0:
465,7,33232,2,0,P|451:77|446:148,1,142.500005435944,2|2,1:2|0:0,0:0:0:0:
203,128,33881,1,10,1:2:0:0:
371,65,34205,1,2,0:0:0:0:
302,139,34367,1,0,1:2:0:0:
258,50,34529,6,0,L|108:28,1,142.500005435944,2|2,1:2|1:2,0:0:0:0:
80,130,35016,2,0,P|108:152|136:200,1,71.2500027179719,0|10,1:2|0:0,0:0:0:0:
211,131,35340,2,0,P|229:200|218:270,1,142.500005435944,0|0,1:2|1:0,0:0:0:0:
17,313,35827,6,0,B|16:287|9:265|9:265|30:285,1,71.2500027179719,10|8,0:0|0:0,0:0:0:0:
40,289,36070,2,0,L|126:278,1,71.2500027179719,0|8,1:2|1:2,0:0:0:0:
123,289,36313,2,0,L|52:298,1,71.2500027179719,0|8,1:2|0:0,0:0:0:0:
213,279,36637,2,0,L|234:276,2,17.812500679493,0|0|0,1:2|1:2|1:2,1:2:0:0:
198,281,36799,6,0,L|201:262,1,17.812500679493,8|0,0:0|0:0,0:0:0:0:
213,183,36962,2,0,L|216:164,1,17.812500679493,8|0,0:0|0:0,0:0:0:0:
228,85,37124,6,0,L|239:-1,1,71.2500027179719,0|8,1:2|0:0,0:0:0:0:
228,2,37367,2,0,L|219:73,1,71.2500027179719,0|8,1:2|0:0,0:0:0:0:
148,119,37610,1,0,1:2:0:0:
308,191,37772,1,8,0:0:0:0:
144,31,37935,1,0,1:0:0:0:
92,270,38097,1,2,0:0:0:0:
91,269,38421,6,0,P|21:201|57:109,1,209.000006378174,6|8,1:2|0:0,0:0:0:0:
108,184,38908,1,2,1:2:0:0:
307,114,39070,1,2,1:2:0:0:
229,27,39232,1,0,1:2:0:0:
197,132,39394,1,8,0:0:0:0:
408,158,39556,1,2,0:0:0:0:
396,62,39718,6,0,P|460:76|483:218,1,209.000006378174,2|8,1:2|0:0,0:0:0:0:
318,288,40205,1,2,1:2:0:0:
393,221,40367,1,2,1:2:0:0:
336,379,40529,1,0,1:2:0:0:
227,259,40691,1,8,0:0:0:0:
318,288,40854,1,2,0:2:0:0:
113,279,41016,6,0,P|101:230|95:155,1,104.500003189087,2|0,1:2|1:0,0:0:0:0:
226,27,41340,2,0,B|250:4|250:4|274:59|275:127,1,156.750004783631,8|0,0:0|1:0,0:0:0:0:
240,199,41664,1,2,1:2:0:0:
135,55,41827,1,0,1:2:0:0:
295,110,41989,2,0,L|413:93,1,104.500003189087,8|2,0:0|0:0,0:0:0:0:
115,194,42313,6,0,L|-3:177,1,104.500003189087,2|0,1:2|1:0,0:0:0:0:
190,123,42637,1,8,0:0:0:0:
154,293,42799,1,0,1:0:0:0:
154,293,42881,1,0,1:0:0:0:
154,293,42962,1,0,1:2:0:0:
324,328,43124,1,0,1:2:0:0:
215,216,43286,1,8,0:0:0:0:
359,159,43448,1,2,0:0:0:0:
308,238,43610,6,0,P|364:250|448:128,1,209.000006378174,6|8,1:2|0:0,0:0:0:0:
203,12,44097,1,2,1:2:0:0:
359,159,44259,1,2,1:2:0:0:
318,43,44421,1,0,1:2:0:0:
235,133,44583,1,8,0:0:0:0:
436,55,44745,1,2,0:0:0:0:
451,330,44908,6,0,P|351:327|307:237,1,209.000006378174,2|8,1:2|0:0,0:0:0:0:
474,108,45394,1,2,1:2:0:0:
474,108,45475,1,0,1:0:0:0:
474,108,45556,1,2,1:2:0:0:
403,253,45718,1,0,1:2:0:0:
302,125,45881,1,8,0:0:0:0:
392,164,46043,1,2,0:0:0:0:
224,284,46205,6,0,P|217:232|233:183,1,104.500003189087,2|0,1:2|1:0,0:0:0:0:
136,41,46529,2,0,B|149:13|149:13|187:65|172:131,1,156.750004783631,8|0,0:0|1:0,0:0:0:0:
117,196,46854,1,2,1:2:0:0:
327,66,47016,1,0,1:2:0:0:
119,33,47178,1,8,0:0:0:0:
284,209,47340,1,2,1:2:0:0:
300,201,47421,1,0,1:0:0:0:
316,193,47502,6,0,L|309:123,1,52.2500015945435,10|0,1:2|0:0,0:0:0:0:
199,203,47664,2,0,L|206:273,1,52.2500015945435,10|0,1:2|0:0,0:0:0:0:
186,247,48151,6,0,L|179:185,1,61.7499971733095,10|0,1:2|0:0,0:0:0:0:
323,150,48313,2,0,L|329:211,1,61.7499971733095,10|0,1:2|0:0,0:0:0:0:
320,342,48475,1,8,0:0:0:0:
297,354,48556,1,8,0:0:0:0:
269,357,48637,1,10,0:0:0:0:
247,346,48718,1,8,0:0:0:0:
232,326,48799,6,0,B|313:305|385:296|385:296|449:307,1,209.000006378174,6|8,1:2|0:0,0:0:0:0:
280,124,49286,1,2,1:2:0:0:
512,185,49448,2,0,L|403:209,1,104.500003189087,2|0,1:2|1:2,0:0:0:0:
208,66,49772,1,8,0:0:0:0:
361,96,49935,1,2,0:0:0:0:
260,207,50097,6,0,B|250:127|240:49|240:49|254:-10,1,209.000006378174,2|8,1:2|0:0,0:0:0:0:
339,255,50583,1,2,1:2:0:0:
339,255,50664,1,0,1:2:0:0:
339,255,50745,2,0,P|301:291|234:292,1,104.500003189087,2|0,1:2|1:2,0:0:0:0:
94,153,51070,1,8,0:0:0:0:
260,207,51232,1,2,0:0:0:0:
171,50,51394,6,0,L|181:169,1,104.500003189087,2|0,1:2|1:0,0:0:0:0:
40,304,51718,2,0,B|61:189|61:189|70:236,1,156.750004783631,8|0,0:0|1:2,0:0:0:0:
143,268,52043,2,0,P|191:268|239:221,1,104.500003189087,2|0,1:2|1:2,0:0:0:0:
401,112,52367,1,8,0:0:0:0:
247,41,52529,1,2,0:2:0:0:
325,223,52691,6,0,L|309:109,1,104.500003189087,2|0,1:2|1:0,0:0:0:0:
502,316,53016,2,0,P|445:336|425:248,1,156.750004783631,12|0,0:0|0:0,0:0:0:0:
444,188,53340,5,2,1:2:0:0:
413,182,53421,1,0,1:0:0:0:
383,191,53502,1,8,0:0:0:0:
357,208,53583,1,8,0:0:0:0:
339,234,53664,1,8,0:0:0:0:
330,264,53745,1,8,0:0:0:0:
329,295,53827,1,8,0:0:0:0:
335,325,53908,1,8,0:0:0:0:
349,352,53989,6,0,L|221:339,1,104.500003189087,6|0,1:2|0:0,0:0:0:0:
28,220,54313,2,0,P|69:183|150:207,1,104.500003189087,8|0,0:0|0:0,0:0:0:0:
230,246,54637,2,0,P|225:193|219:141,1,104.500003189087,2|0,1:2|0:0,0:0:0:0:
436,56,54962,2,0,P|399:20|348:18,1,104.500003189087,8|0,0:0|1:0,0:0:0:0:
282,65,55205,1,0,1:0:0:0:
266,70,55286,6,0,P|214:64|162:56,1,104.500003189087,2|0,1:2|0:0,0:0:0:0:
374,258,55610,2,0,P|396:207|367:157,1,104.500003189087,8|0,0:0|0:0,0:0:0:0:
97,216,55935,2,0,P|97:267|130:306,1,104.500003189087,2|0,1:2|0:0,0:0:0:0:
303,334,56259,1,8,0:0:0:0:
173,137,56421,1,0,0:0:0:0:
295,216,56583,6,0,L|193:238,1,104.500003189087,6|0,1:2|0:0,0:0:0:0:
126,28,56908,1,8,0:0:0:0:
336,60,57070,1,0,0:0:0:0:
234,132,57232,2,0,P|212:85|227:36,1,104.500003189087,2|0,1:2|0:0,0:0:0:0:
441,180,57556,2,0,P|459:256|385:297,1,156.750004783631,8|0,0:0|0:0,0:0:0:0:
430,327,57881,6,0,P|348:312|274:304,1,156.750004783631,2|0,1:2|0:0,0:0:0:0:
221,368,58205,2,0,B|188:328|188:328|206:236,1,104.500003189087,8|0,0:0|0:0,0:0:0:0:
124,155,58529,1,2,1:2:0:0:
295,216,58691,1,0,0:0:0:0:
140,182,58854,1,8,0:0:0:0:
192,15,59016,1,0,0:0:0:0:
381,157,59178,6,0,P|374:108|370:52,1,104.500003189087,14|0,0:0|0:0,0:0:0:0:
75,251,59502,2,0,P|81:299|85:355,1,104.500003189087,10|0,0:0|0:0,0:0:0:0:
426,354,59827,2,0,P|430:302|437:251,1,104.500003189087,10|0,0:0|0:0,0:0:0:0:
141,53,60151,2,0,P|137:105|131:157,1,104.500003189087,10|0,0:0|1:0,0:0:0:0:
195,211,60394,1,0,1:0:0:0:
266,173,60475,6,0,L|133:194,1,104.500003189087,10|0,0:0|0:0,0:0:0:0:
400,33,60799,2,0,L|267:54,1,104.500003189087,10|0,0:0|0:0,0:0:0:0:
498,279,61124,2,0,L|365:300,1,104.500003189087,10|0,0:0|1:0,0:0:0:0:
321,328,61367,1,0,1:0:0:0:
265,270,61448,2,0,B|252:211|298:163|298:163|271:112,1,156.750004783631,10|0,0:0|0:0,0:0:0:0:
279,127,61772,6,0,P|246:167|231:217,1,104.500003189087,10|0,0:0|0:0,0:0:0:0:
417,109,62097,2,0,P|397:60|362:22,1,104.500003189087,10|0,0:0|0:0,0:0:0:0:
362,235,62421,2,0,P|413:242|464:231,1,104.500003189087,10|0,0:0|0:0,0:0:0:0:
267,119,62745,1,10,0:0:0:0:
138,168,62908,1,2,0:0:0:0:
58,49,63070,6,0,L|112:60,1,52.2500015945435,10|0,1:2|0:0,0:0:0:0:
274,133,63232,2,0,L|222:122,1,52.2500015945435,10|0,1:2|0:0,0:0:0:0:
36,134,63718,6,0,L|90:145,1,52.2500015945435,10|0,1:2|0:0,0:0:0:0:
252,218,63880,2,0,L|200:207,1,52.2500015945435,10|0,1:2|0:0,0:0:0:0:
437,27,64205,1,2,0:0:0:0:
486,97,64367,6,0,P|506:179|497:264,1,170.999994781494,6|0,0:0|0:0,0:0:0:0:
412,289,64854,1,2,0:0:0:0:
489,272,65016,2,0,P|463:229|348:239,1,170.999994781494,2|0,0:0|0:0,0:0:0:0:
298,296,65502,2,0,L|201:304,1,85.4999973907472,2|2,0:0|0:0,0:0:0:0:
206,312,66151,2,0,L|292:305,1,85.4999973907472,2|2,0:0|0:0,0:0:0:0:
485,355,66799,1,2,0:0:0:0:
413,319,66962,6,0,P|426:231|436:149,1,170.999994781494,2|0,0:0|0:0,0:0:0:0:
370,110,67448,1,2,1:2:0:0:
370,110,67529,1,0,1:0:0:0:
370,110,67610,2,0,B|359:81|359:81|374:58|374:58|343:22|274:25|242:52,1,170.999994781494,2|0,1:2|0:0,0:0:0:0:
219,115,68097,1,2,0:0:0:0:
150,59,68259,2,0,P|135:98|134:141,2,85.4999973907472,2|0|0,0:0|0:0|0:0,0:0:0:0:
55,169,68745,1,2,1:2:0:0:
55,169,68827,1,0,1:0:0:0:
55,169,68908,2,0,P|89:211|200:193,1,170.999994781494,2|0,1:2|0:0,0:0:0:0:
219,115,69394,1,2,0:0:0:0:
240,281,69556,6,0,L|325:295,1,85.4999973907472,2|0,0:0|0:0,0:0:0:0:
334,306,70043,1,2,0:0:0:0:
404,344,70205,2,0,L|211:367,1,170.999994781494,2|0,0:0|0:0,0:0:0:0:
160,320,70691,2,0,P|118:324|88:354,1,85.4999973907472,2|2,0:0|0:0,0:0:0:0:
95,358,71340,2,0,P|112:319|101:278,1,85.4999973907472,2|2,0:0|0:0,0:0:0:0:
25,129,71989,1,2,0:0:0:0:
13,214,72151,6,0,B|73:216|100:165|100:165|195:195,1,170.999994781494,2|0,0:0|0:0,0:0:0:0:
235,125,72637,1,2,0:0:0:0:
307,277,72799,2,0,P|262:292|222:292,1,85.4999973907472,2|0,0:0|0:0,0:0:0:0:
295,190,73124,2,0,L|405:212,1,85.4999973907472
454,327,73448,6,0,L|436:269,1,52.2500015945435,10|0,1:2|0:0,0:0:0:0:
436,135,73610,2,0,L|451:66,1,52.2500015945435,10|0,1:2|0:0,0:0:0:0:
467,72,74097,6,0,L|455:132,1,61.7499971733095,10|0,1:2|0:0,0:0:0:0:
457,282,74259,2,0,L|476:343,1,61.7499971733095,10|0,1:2|0:0,0:0:0:0:
83,279,74583,1,2,0:0:0:0:
261,231,74745,6,0,B|192:219|117:202|117:202|150:230|195:246,1,209.000006378174,6|8,1:2|0:0,0:0:0:0:
366,138,75232,1,2,1:2:0:0:
354,268,75394,2,0,P|360:209|311:146,1,104.500003189087,2|0,1:2|1:2,0:0:0:0:
274,120,75637,1,0,1:0:0:0:
274,120,75718,1,8,0:0:0:0:
245,339,75881,1,2,0:0:0:0:
431,295,76043,6,0,B|463:206|406:123|406:123|425:61,1,209.000006378174,2|8,1:2|0:0,0:0:0:0:
274,230,76529,1,2,1:2:0:0:
274,230,76610,1,0,1:2:0:0:
274,230,76691,2,0,L|157:211,1,104.500003189087,2|0,1:2|1:2,0:0:0:0:
63,314,77016,1,8,0:0:0:0:
34,61,77178,1,2,0:0:0:0:
157,201,77340,6,0,L|401:168,1,209.000006378174,6|8,1:2|0:0,0:0:0:0:
450,64,77827,1,2,1:2:0:0:
406,306,77989,2,0,P|351:304|305:259,1,104.500003189087,2|0,1:2|1:2,0:0:0:0:
470,78,78313,2,0,L|489:196,1,104.500003189087,8|2,0:0|0:2,0:0:0:0:
235,317,78637,6,0,P|226:266|247:219,1,104.500003189087,2|0,1:2|1:2,0:0:0:0:
362,53,78962,2,0,P|295:43|298:112,1,156.750004783631,12|0,0:0|0:0,0:0:0:0:
378,133,79286,2,0,P|429:138|474:164,1,104.500003189087,2|8,1:2|0:0,0:0:0:0:
245,207,79610,1,8,0:0:0:0:
209,214,79691,1,8,0:0:0:0:
177,231,79772,1,8,0:0:0:0:
150,257,79854,1,8,0:0:0:0:
131,288,79935,6,0,B|116:320|116:320|64:241|97:129,1,209.000006378174,6|8,1:2|0:0,0:0:0:0:
182,111,80421,1,0,0:0:0:0:
320,224,80583,2,0,B|379:225|449:283|449:283|423:212,1,209.000006378174,2|8,1:2|0:0,0:0:0:0:
360,59,81070,1,0,0:0:0:0:
492,108,81232,2,0,L|382:142,1,104.500003189087,2|0,1:2|0:0,0:0:0:0:
187,71,81556,1,8,0:0:0:0:
381,42,81718,1,0,0:0:0:0:
201,160,81881,2,0,P|111:117|113:18,1,209.000006378174,2|8,1:2|0:0,0:0:0:0:
293,106,82367,1,0,0:0:0:0:
267,315,82529,6,0,P|321:286|325:226,1,104.500003189087,6|0,1:2|0:0,0:0:0:0:
272,126,82854,1,8,0:0:0:0:
178,265,83016,1,0,0:0:0:0:
406,282,83178,2,0,P|413:227|321:159,1,156.750004783631,2|0,1:2|0:0,0:0:0:0:
351,119,83502,2,0,L|222:150,1,104.500003189087,8|0,0:0|0:0,0:0:0:0:
132,286,83827,2,0,P|71:289|28:240,1,104.500003189087,2|0,1:2|0:0,0:0:0:0:
164,129,84151,1,8,0:0:0:0:
329,249,84313,1,0,1:0:0:0:
329,249,84394,1,0,1:0:0:0:
329,249,84475,6,0,L|502:262,1,156.750004783631,6|0,1:2|0:0,0:0:0:0:
471,274,84799,2,0,L|367:266,1,104.500003189087,12|0,0:0|0:0,0:0:0:0:
107,76,85124,6,0,P|145:40|196:34,1,104.500003189087,14|0,0:0|0:0,0:0:0:0:
411,148,85448,2,0,L|298:170,1,104.500003189087,10|0,0:0|0:0,0:0:0:0:
108,290,85772,2,0,P|145:325|196:332,1,104.500003189087,10|0,0:0|0:0,0:0:0:0:
402,170,86097,2,0,L|289:192,1,104.500003189087,10|0,0:0|1:0,0:0:0:0:
222,204,86340,1,0,1:0:0:0:
145,216,86421,6,0,B|144:152|203:131|203:131|182:68,1,156.750004783631,10|0,0:0|0:0,0:0:0:0:
294,0,86745,2,0,L|278:111,1,104.500003189087,10|0,0:0|0:0,0:0:0:0:
108,290,87070,2,0,P|71:254|66:203,1,104.500003189087,10|0,0:0|0:0,0:0:0:0:
368,33,87394,2,0,L|352:144,1,104.500003189087,10|0,0:0|0:0,0:0:0:0:
145,216,87718,6,0,L|125:70,1,142.500005435944,2|2,0:0|0:0,0:0:0:0:
78,280,88367,2,0,P|90:329|138:347,1,106.875004076958,2|0,0:0|0:0,0:0:0:0:
150,335,88691,2,0,P|115:332|93:306,1,71.2500027179719,2|2,0:0|0:0,0:0:0:0:
225,303,89016,2,0,B|270:292|270:292|294:273|294:273|368:256,1,142.500005435944,2|0,0:0|0:0,0:0:0:0:
