osu file format v14

[General]
AudioFilename: audio.mp3
AudioLeadIn: 0
PreviewTime: 38128
Countdown: 0
SampleSet: Soft
StackLeniency: 0.5
Mode: 0
LetterboxInBreaks: 0
WidescreenStoryboard: 0

[Editor]
DistanceSpacing: 1
BeatDivisor: 4
GridSize: 32
TimelineZoom: 1.8

[Metadata]
Title:Inferno (TV Size)
TitleUnicode:インフェルノ (TV Size)
Artist:Mrs. GREEN APPLE
ArtistUnicode:Mrs. GREEN APPLE
Creator:Reform
Version:Nelliel's Normal
Source:炎炎ノ消防隊
Tags:Kujinn [_Eli_] Logic Agent Eli MaestroSplinter browiec Nelliel OnlyBiscuit brotarks Haruto haruto_aizawa KittyAdventure gokugohan12468 Ipas toybot AnzeigeistRaus Anzei FuJu Japanese fire force brigade of flames Enen no Shouboutai opening op anime ミセスグリーンアップル motoki omori 大森元貴 hiroto wakai 若井滉斗 ayaka yamanaka 山中綾華 ryoka fujisawa 藤澤涼架 kiyokatsu takano 髙野清宗
BeatmapID:2089987
BeatmapSetID:999126

[Difficulty]
HPDrainRate:3.5
CircleSize:3
OverallDifficulty:4
ApproachRate:5
SliderMultiplier:0.999999999999999
SliderTickRate:1

[Events]
//Background and Video events
0,0,"BG.jpg",0,0
//Break Periods
//Storyboard Layer 0 (Background)
//Storyboard Layer 1 (Fail)
//Storyboard Layer 2 (Pass)
//Storyboard Layer 3 (Foreground)
//Storyboard Layer 4 (Overlay)
//Storyboard Sound Samples

[TimingPoints]
800,324.324324324324,4,2,22,65,1,0
5989,-100,4,2,22,45,0,0
16367,-100,4,2,22,55,0,0
26745,-100,4,2,22,40,0,0
38421,-100,4,2,22,75,0,1
47502,-100,4,2,22,75,0,0
48799,-100,4,2,22,75,0,1
59178,-100,4,2,22,85,0,1
64367,-100,4,2,22,40,0,0
66636,-100,4,2,22,40,0,0
66962,-100,4,2,22,40,0,0
67934,-100,4,2,22,40,0,0
68259,-100,4,2,22,40,0,0
71826,-100,4,2,22,40,0,0
72151,-100,4,2,22,60,0,0
74745,-100,4,2,22,75,0,1
85124,-100,4,2,22,85,0,1
87070,-100,4,2,22,95,0,1
87718,-100,4,2,22,75,0,0
89340,-100,4,2,22,5,0,0

[Colours]
Combo1 : 105,58,201
Combo2 : 255,128,0
Combo3 : 0,155,230
Combo4 : 255,55,55

[HitObjects]
92,73,800,6,0,P|144:78|197:94,1,99.9999999999999,4|8,1:2|0:0,0:0:0:0:
252,169,1448,2,0,P|304:164|357:148,1,99.9999999999999,0|8,1:2|0:0,0:0:0:0:
425,84,2097,2,0,P|448:126|452:142,1,50,0|0,1:2|1:2,0:0:0:0:
454,177,2421,1,8,0:0:0:0:
383,248,2745,2,0,P|360:290|356:306,1,50,0|0,1:2|1:2,0:0:0:0:
354,341,3069,1,8,0:0:0:0:
253,345,3394,6,0,L|248:239,1,99.9999999999999,4|8,1:2|0:0,0:0:0:0:
243,145,4043,1,8,0:0:0:0:
235,45,4367,1,8,0:0:0:0:
137,23,4691,6,0,L|134:72,1,50,10|10,1:2|1:2,0:0:0:0:
104,112,5016,2,0,L|108:211,1,99.9999999999999,8|10,0:0|1:2,0:0:0:0:
112,261,5502,1,10,1:2:0:0:
246,327,5989,6,0,P|294:305|358:296,1,99.9999999999999,6|2,1:2|1:2,0:0:0:0:
434,329,6637,2,0,L|441:209,1,99.9999999999999,2|2,1:2|1:2,0:0:0:0:
373,153,7286,2,0,L|366:33,1,99.9999999999999,2|0,1:2|1:2,0:0:0:0:
327,23,7772,1,2,0:0:0:0:
327,23,7935,2,0,P|257:26|222:36,1,99.9999999999999,2|0,1:2|1:2,0:0:0:0:
136,72,8583,6,0,L|133:121,1,50,2|2,1:2|0:0,0:0:0:0:
157,165,8908,2,0,L|159:214,1,50,2|2,1:2|0:0,0:0:0:0:
162,264,9232,1,2,1:2:0:0:
252,306,9556,2,0,P|284:300|310:300,1,50,2|2,1:2|0:0,0:0:0:0:
342,328,9881,2,0,P|375:329|408:335,2,50,2|2|2,1:2|0:0|1:2,0:0:0:0:
360,229,10529,1,2,1:2:0:0:
446,177,10854,2,0,L|450:116,1,50,2|2,1:2|0:0,0:0:0:0:
421,85,11178,6,0,P|368:81|306:80,1,99.9999999999999,2|2,1:2|1:2,0:0:0:0:
258,158,11827,2,0,P|205:162|143:163,1,99.9999999999999,2|2,1:2|1:2,0:0:0:0:
79,225,12475,2,0,P|90:276|96:331,1,99.9999999999999,2|0,1:2|1:2,0:0:0:0:
59,358,12962,1,2,0:0:0:0:
59,358,13124,2,0,L|170:367,1,99.9999999999999,2|0,1:2|1:2,0:0:0:0:
236,302,13772,6,0,L|285:297,1,50,2|2,1:2|0:0,0:0:0:0:
335,293,14097,1,2,1:2:0:0:
400,217,14421,2,0,L|395:167,1,50,2|2,1:2|0:0,0:0:0:0:
362,132,14745,2,0,L|366:82,1,50,2|2,1:2|0:0,0:0:0:0:
388,37,15070,2,0,P|348:42|273:41,1,99.9999999999999,2|0,1:2|1:2,0:0:0:0:
189,25,15718,1,2,1:2:0:0:
93,56,16043,1,6,1:2:0:0:
84,155,16367,6,0,P|103:207|107:262,1,99.9999999999999,6|10,1:2|0:0,0:0:0:0:
192,304,17016,2,0,P|197:254|215:207,1,99.9999999999999,2|10,1:2|0:0,0:0:0:0:
308,171,17664,2,0,L|421:181,1,99.9999999999999,2|8,1:2|0:0,0:0:0:0:
452,202,18151,1,2,1:2:0:0:
452,202,18313,2,0,P|441:144|444:83,1,99.9999999999999,2|8,1:2|0:0,0:0:0:0:
478,10,18962,6,0,L|418:15,1,50,2|2,1:2|1:2,0:0:0:0:
378,20,19286,1,10,0:0:0:0:
301,84,19610,2,0,L|241:79,1,50,2|0,1:2|1:2,0:0:0:0:
201,74,19934,1,10,0:0:0:0:
101,58,20259,2,0,P|120:109|134:168,1,99.9999999999999,2|10,1:2|0:0,0:0:0:0:
138,253,20908,1,2,1:2:0:0:
88,339,21232,6,0,L|158:348,1,50,10|2,0:0|0:0,0:0:0:0:
179,372,21556,2,0,L|278:359,1,99.9999999999999,2|10,1:2|0:0,0:0:0:0:
342,282,22205,2,0,L|242:269,1,99.9999999999999,2|10,1:2|0:0,0:0:0:0:
196,180,22854,2,0,L|295:167,1,99.9999999999999,2|8,1:2|0:0,0:0:0:0:
344,173,23340,1,2,1:2:0:0:
344,173,23502,2,0,P|325:126|324:71,1,99.9999999999999,2|8,1:2|0:0,0:0:0:0:
417,44,24151,6,0,L|431:104,1,50,2|2,1:2|1:2,0:0:0:0:
441,140,24475,1,10,0:0:0:0:
403,232,24799,2,0,L|389:292,1,50,2|2,1:2|1:2,0:0:0:0:
379,328,25123,1,10,0:0:0:0:
283,359,25448,2,0,P|216:350|179:332,1,99.9999999999999,2|8,1:2|0:0,0:0:0:0:
126,257,26097,1,8,0:0:0:0:
161,60,26745,6,0,B|258:57|214:166|338:153,1,200,6|10,1:2|0:0,0:0:0:0:
424,153,27718,1,2,0:0:0:0:
474,239,28043,2,0,B|431:263|435:327|435:327|386:293|321:302,1,200,2|10,1:2|0:0,0:0:0:0:
259,357,29016,1,2,0:0:0:0:
162,383,29340,6,0,B|185:224|185:224|143:248,1,200,2|10,1:2|0:0,0:0:0:0:
65,295,30313,1,2,0:0:0:0:
45,196,30637,2,0,B|21:37|21:37|55:56,1,200,2|10,1:2|0:0,0:0:0:0:
142,106,31610,1,2,1:2:0:0:
149,6,31935,6,0,B|203:5|234:37|234:37|275:82|334:62,1,200,2|10,1:2|0:0,0:0:0:0:
416,11,32908,1,2,0:0:0:0:
423,110,33232,2,0,B|415:222,2,99.9999999999999,2|2|10,1:2|0:0|0:0,0:0:0:0:
330,62,34205,1,2,0:0:0:0:
257,130,34529,6,0,B|242:337,1,200,2|10,1:2|0:0,0:0:0:0:
146,302,35502,1,0,0:0:0:0:
47,282,35827,2,0,P|96:205|91:90,1,200,10|8,0:0|0:0,0:0:0:0:
192,78,36799,1,8,0:0:0:0:
291,64,37124,6,0,B|293:210|149:141|176:331,1,300,0|2,1:2|0:0,0:0:0:0:
78,294,38421,6,0,L|87:185,1,99.9999999999999,6|8,1:2|0:0,0:0:0:0:
81,144,38908,1,2,1:2:0:0:
81,144,39070,2,0,P|123:141|181:154,1,99.9999999999999,2|8,1:2|0:0,0:0:0:0:
253,219,39718,2,0,P|295:222|353:209,1,99.9999999999999,2|8,1:2|0:0,0:0:0:0:
376,166,40205,1,2,1:2:0:0:
376,166,40367,2,0,L|370:272,1,99.9999999999999,2|8,1:2|0:0,0:0:0:0:
470,261,41016,6,0,L|475:161,1,99.9999999999999,2|8,1:2|0:0,0:0:0:0:
457,114,41502,1,2,1:2:0:0:
457,114,41664,2,0,P|406:98|344:98,1,99.9999999999999,2|8,1:2|0:0,0:0:0:0:
318,124,42151,1,2,0:0:0:0:
318,124,42313,2,0,P|227:152|116:152,1,200,2|0,1:2|1:2,0:0:0:0:
26,180,43286,2,0,P|49:223|52:239,1,50,8|2,0:0|0:0,0:0:0:0:
27,269,43610,6,0,L|139:281,1,99.9999999999999,6|8,1:2|0:0,0:0:0:0:
154,321,44097,1,2,1:2:0:0:
154,321,44259,2,0,L|253:310,1,99.9999999999999,2|8,1:2|0:0,0:0:0:0:
342,355,44908,2,0,P|342:284|350:247,1,99.9999999999999,2|8,1:2|0:0,0:0:0:0:
389,228,45394,1,2,1:2:0:0:
389,228,45556,2,0,P|389:157|381:120,1,99.9999999999999,2|8,1:2|0:0,0:0:0:0:
283,128,46205,6,0,L|181:137,1,99.9999999999999,2|8,1:2|0:0,0:0:0:0:
138,158,46691,1,2,1:2:0:0:
138,158,46854,2,0,L|88:153,2,50,2|0|8,1:2|1:2|0:0,0:0:0:0:
205,232,47502,2,0,L|202:292,1,50,10|10,1:2|1:2,0:0:0:0:
340,222,48151,2,0,L|337:172,1,50,10|10,1:2|1:2,0:0:0:0:
462,89,48799,6,0,L|455:209,1,99.9999999999999,6|8,1:2|0:0,0:0:0:0:
425,227,49286,1,2,1:2:0:0:
425,227,49448,2,0,L|431:347,1,99.9999999999999,2|8,1:2|0:0,0:0:0:0:
333,354,50097,2,0,P|291:339|223:331,1,99.9999999999999,2|8,1:2|0:0,0:0:0:0:
188,346,50583,1,2,1:2:0:0:
188,346,50745,2,0,P|146:361|78:369,1,99.9999999999999,2|8,1:2|0:0,0:0:0:0:
50,339,51232,1,2,0:0:0:0:
50,339,51394,6,0,L|58:220,1,99.9999999999999,2|8,1:2|0:0,0:0:0:0:
106,152,52043,2,0,L|98:33,1,99.9999999999999,2|8,1:2|0:0,0:0:0:0:
133,16,52529,1,2,0:2:0:0:
133,16,52691,2,0,P|201:13|236:29,1,99.9999999999999,2|12,1:2|0:0,0:0:0:0:
307,87,53340,2,0,P|341:88|358:80,2,50,2|8|8,1:2|0:0|0:0,0:0:0:0:
245,166,53989,6,0,L|246:267,1,99.9999999999999,6|8,1:2|0:0,0:0:0:0:
308,344,54637,2,0,P|351:329|423:325,1,99.9999999999999,2|8,1:2|0:0,0:0:0:0:
460,240,55286,2,0,L|459:140,1,99.9999999999999,2|8,1:2|0:0,0:0:0:0:
382,74,55935,1,2,1:2:0:0:
297,127,56259,1,8,0:0:0:0:
202,94,56583,6,0,P|146:97|96:122,1,99.9999999999999,6|8,1:2|0:0,0:0:0:0:
72,209,57232,2,0,P|102:255|149:286,1,99.9999999999999,2|8,1:2|0:0,0:0:0:0:
236,262,57881,2,0,P|261:212|264:156,1,99.9999999999999,2|8,1:2|0:0,0:0:0:0:
202,94,58529,1,2,1:2:0:0:
269,19,58854,1,8,0:0:0:0:
353,71,59178,6,0,L|466:80,1,99.9999999999999,14|10,0:0|0:0,0:0:0:0:
493,170,59827,2,0,L|380:179,1,99.9999999999999,10|10,0:0|0:0,0:0:0:0:
315,241,60475,1,10,0:0:0:0:
360,330,60799,1,10,0:0:0:0:
273,378,61124,2,0,P|225:379|174:361,1,99.9999999999999,10|10,0:0|0:0,0:0:0:0:
119,285,61772,6,0,P|71:284|20:302,1,99.9999999999999,10|10,0:0|0:0,0:0:0:0:
5,201,62421,1,10,0:0:0:0:
53,113,62745,1,10,0:0:0:0:
147,79,63070,2,0,L|215:84,1,50,10|10,1:2|1:2,0:0:0:0:
316,172,63718,2,0,L|365:168,1,50,10|10,1:2|1:2,0:0:0:0:
436,300,64367,6,0,L|133:322,1,300,6|0,0:0|0:0,0:0:0:0:
66,250,65664,2,0,B|101:160|61:94|61:94|126:37|194:66,1,300,2|0,0:0|0:0,0:0:0:0:
241,148,66962,6,0,B|405:143|331:301|510:282,1,300,2|0,0:0|0:0,0:0:0:0:
506,184,68259,2,0,B|467:110|502:43|502:43|428:84|344:34,1,300,2|0,0:0|0:0,0:0:0:0:
261,8,69556,6,0,P|217:26|280:212,1,300,2|0,0:0|0:0,0:0:0:0:
317,123,70854,2,0,B|367:158|389:221|389:221|410:124|463:58,1,300,2|0,0:0|0:0,0:0:0:0:
508,149,72151,6,0,B|502:344|502:344|390:321,1,300,2|0,0:0|0:0,0:0:0:0:
301,346,73448,2,0,L|232:361,1,50,10|10,1:2|1:2,0:0:0:0:
157,240,74097,2,0,L|108:229,1,50,10|10,1:2|1:2,0:0:0:0:
47,91,74745,6,0,L|150:67,1,99.9999999999999,6|8,1:2|0:0,0:0:0:0:
189,91,75232,1,2,1:2:0:0:
189,91,75394,2,0,L|286:112,1,99.9999999999999,2|8,1:2|0:0,0:0:0:0:
365,51,76043,2,0,L|462:29,1,99.9999999999999,2|8,1:2|0:0,0:0:0:0:
492,69,76529,1,2,1:2:0:0:
492,69,76691,2,0,P|461:136|453:170,1,99.9999999999999,2|8,1:2|0:0,0:0:0:0:
456,261,77340,6,0,P|487:328|495:362,1,99.9999999999999,6|8,1:2|0:0,0:0:0:0:
450,379,77827,1,2,1:2:0:0:
450,379,77989,2,0,P|376:372|343:362,1,99.9999999999999,2|8,1:2|0:0,0:0:0:0:
277,298,78637,2,0,P|203:304|170:314,1,99.9999999999999,2|12,1:2|0:0,0:0:0:0:
83,342,79286,2,0,L|79:292,2,50,2|8|8,1:2|0:0|0:0,0:0:0:0:
178,311,79935,6,0,L|185:200,1,99.9999999999999,6|8,1:2|0:0,0:0:0:0:
203,113,80583,2,0,P|245:95|309:95,1,99.9999999999999,2|8,1:2|0:0,0:0:0:0:
334,186,81232,1,2,1:2:0:0:
426,222,81556,1,8,0:0:0:0:
503,158,81881,2,0,L|499:38,1,99.9999999999999,2|8,1:2|0:0,0:0:0:0:
418,3,82529,6,0,L|298:7,1,99.9999999999999,6|8,1:2|0:0,0:0:0:0:
222,37,83178,1,2,1:2:0:0:
127,70,83502,1,8,0:0:0:0:
35,110,83827,2,0,P|57:159|68:209,1,99.9999999999999,2|8,1:2|0:0,0:0:0:0:
63,300,84475,2,0,L|182:288,1,99.9999999999999,6|12,1:2|0:0,0:0:0:0:
228,214,85124,6,0,L|327:224,1,99.9999999999999,14|10,0:0|0:0,0:0:0:0:
414,273,85772,1,10,0:0:0:0:
468,189,86097,1,10,0:0:0:0:
433,95,86421,2,0,L|333:105,1,99.9999999999999,10|10,0:0|0:0,0:0:0:0:
234,118,87070,1,10,0:0:0:0:
134,131,87394,1,10,0:0:0:0:
172,38,87718,6,0,L|381:59,1,200,2|2,0:0|0:0,0:0:0:0:
416,147,88691,2,0,L|316:157,1,99.9999999999999,2|2,0:0|0:0,0:0:0:0:
