osu file format v14

[General]
AudioFilename: audio.mp3
AudioLeadIn: 0
PreviewTime: 38128
Countdown: 0
SampleSet: Soft
StackLeniency: 0.7
Mode: 0
LetterboxInBreaks: 0
WidescreenStoryboard: 0

[Editor]
Bookmarks: 5939,16317,26695
DistanceSpacing: 1.5
BeatDivisor: 8
GridSize: 32
TimelineZoom: 3.499999

[Metadata]
Title:Inferno (TV Size)
TitleUnicode:インフェルノ (TV Size)
Artist:Mrs. GREEN APPLE
ArtistUnicode:Mrs. GREEN APPLE
Creator:Reform
Version:Maestro's Insane
Source:炎炎ノ消防隊
Tags:Kujinn [_Eli_] Logic Agent Eli MaestroSplinter browiec Nelliel OnlyBiscuit brotarks Haruto haruto_aizawa KittyAdventure gokugohan12468 Ipas toybot AnzeigeistRaus Anzei FuJu Japanese fire force brigade of flames Enen no Shouboutai opening op anime ミセスグリーンアップル motoki omori 大森元貴 hiroto wakai 若井滉斗 ayaka yamanaka 山中綾華 ryoka fujisawa 藤澤涼架 kiyokatsu takano 髙野清宗
BeatmapID:2090745
BeatmapSetID:999126

[Difficulty]
HPDrainRate:5.5
CircleSize:3.8
OverallDifficulty:8.5
ApproachRate:9
SliderMultiplier:1.72
SliderTickRate:1

[Events]
//Background and Video events
0,0,"BG.jpg",0,0
//Break Periods
2,65614,72769
//Storyboard Layer 0 (Background)
//Storyboard Layer 1 (Fail)
//Storyboard Layer 2 (Pass)
//Storyboard Layer 3 (Foreground)
//Storyboard Layer 4 (Overlay)
//Storyboard Sound Samples

[TimingPoints]
800,324.324324324324,4,2,22,65,1,0
5989,-111.111111111111,4,2,22,45,0,0
16367,-100,4,2,22,55,0,0
26745,-133.333333333333,4,2,22,40,0,0
38421,-95.2380952380952,4,2,22,75,0,1
47502,-95.2380952380952,4,2,22,75,0,0
48799,-95.2380952380952,4,2,22,75,0,1
59178,-95.2380952380952,4,2,22,85,0,1
64367,-95.2380952380952,4,2,22,60,0,0
74745,-95.2380952380952,4,2,22,75,0,1
85124,-95.2380952380952,4,2,22,85,0,1
87070,-95.2380952380952,4,2,22,95,0,1
87556,-95.2380952380952,4,2,22,85,0,0
87718,-133.333333333333,4,2,22,75,0,0
89340,-133.333333333333,4,2,22,5,0,0

[Colours]
Combo1 : 105,58,201
Combo2 : 255,128,0
Combo3 : 0,155,230
Combo4 : 255,55,55

[HitObjects]
148,69,800,6,0,P|167:142|179:238,1,172,4|8,1:2|0:0,0:0:0:0:
0,263,1286,1,0,0:0:0:0:
0,263,1448,2,0,P|48:241|82:242,1,86,0|0,1:2|1:2,0:0:0:0:
190,356,1772,2,0,P|147:354|109:334,1,86,8|0,0:0|0:0,0:0:0:0:
156,147,2097,5,0,1:2:0:0:
182,250,2259,1,0,1:2:0:0:
291,128,2421,2,0,P|281:168|277:218,1,86,8|0,0:0|0:0,0:0:0:0:
155,146,2745,2,0,P|151:103|141:62,1,86,0|0,1:2|1:2,0:0:0:0:
281,33,3070,2,0,P|358:54|380:99,1,129,8|0,0:0|0:0,0:0:0:0:
422,124,3394,6,0,P|412:164|408:214,1,86,4|0,1:2|0:0,0:0:0:0:
355,313,3718,2,0,P|394:330|437:330,1,86,8|0,0:0|0:0,0:0:0:0:
306,210,4043,1,8,0:0:0:0:
258,353,4205,1,0,0:0:0:0:
180,233,4367,2,0,P|140:215|98:216,1,86,8|0,0:0|0:0,0:0:0:0:
226,146,4691,5,10,1:2:0:0:
121,318,4854,1,10,1:2:0:0:
51,137,5016,2,0,L|38:90,2,43,8|8|8,0:0|0:0|0:0,0:0:0:0:
180,233,5340,1,10,1:2:0:0:
0,296,5502,1,10,1:2:0:0:
0,296,5989,6,0,P|37:275|74:277,1,77.3999976379395,6|0,1:2|0:0,0:0:0:0:
146,352,6313,2,0,P|183:372|220:371,1,77.3999976379395,2|0,1:2|0:0,0:0:0:0:
291,239,6637,2,0,P|300:276|305:317,1,77.3999976379395,2|0,1:2|0:0,0:0:0:0:
395,378,6962,2,0,P|399:339|408:302,1,77.3999976379395,2|0,1:2|0:0,0:0:0:0:
338,165,7286,6,0,P|284:148|207:220,1,154.799995275879,2|0,1:2|1:2,0:0:0:0:
106,285,7772,1,2,0:0:0:0:
106,285,7935,2,0,P|94:201|78:133,1,154.799995275879,2|0,1:2|1:2,0:0:0:0:
139,22,8421,1,2,0:0:0:0:
139,22,8583,6,0,P|183:29|226:28,1,77.3999976379395,2|2,1:2|0:0,0:0:0:0:
259,127,8908,2,0,P|297:121|335:121,1,77.3999976379395,2|2,1:2|0:0,0:0:0:0:
354,19,9232,2,0,P|392:24|430:24,1,77.3999976379395,2|0,1:2|0:0,0:0:0:0:
500,106,9556,1,2,1:2:0:0:
500,106,9718,1,2,0:0:0:0:
393,161,9881,6,0,P|369:198|367:241,1,77.3999976379395,2|2,1:2|0:0,0:0:0:0:
507,289,10205,2,0,P|486:249|450:226,1,77.3999976379395,2|0,1:2|0:0,0:0:0:0:
336,327,10529,2,0,P|380:329|418:309,1,77.3999976379395,2|0,1:2|0:0,0:0:0:0:
335,196,10854,1,2,1:2:0:0:
335,196,11016,1,2,0:0:0:0:
230,277,11178,6,0,P|224:235|211:193,1,77.3999976379395,2|0,1:2|0:0,0:0:0:0:
349,120,11502,2,0,P|338:157|335:196,1,77.3999976379395,2|0,1:2|0:0,0:0:0:0:
263,40,11827,2,0,P|230:20|189:21,1,77.3999976379395,2|0,1:2|0:0,0:0:0:0:
125,139,12151,2,0,P|163:138|195:119,1,77.3999976379395,2|0,1:2|0:0,0:0:0:0:
68,57,12475,6,0,P|89:134|93:224,1,154.799995275879,2|0,1:2|1:2,0:0:0:0:
191,257,12962,1,2,0:0:0:0:
191,257,13124,2,0,P|182:295|180:345,1,77.3999976379395,2|0,1:2|0:0,0:0:0:0:
43,377,13448,2,0,P|40:338|31:300,1,77.3999976379395,0|2,1:2|0:0,0:0:0:0:
101,194,13772,5,2,1:2:0:0:
101,194,13935,1,2,0:0:0:0:
30,109,14097,2,0,P|71:90|107:92,1,77.3999976379395,2|0,1:2|0:0,0:0:0:0:
210,233,14421,1,2,1:2:0:0:
101,194,14583,1,2,0:0:0:0:
183,127,14745,1,2,1:2:0:0:
183,127,14908,1,2,0:0:0:0:
125,293,15070,5,2,1:2:0:0:
125,293,15232,2,0,P|86:296|51:282,1,77.3999976379395,2|0,0:0|1:2,0:0:0:0:
210,233,15556,1,2,0:0:0:0:
210,233,15718,2,0,P|221:269|221:316,1,77.3999976379395,2|0,1:2|0:0,0:0:0:0:
337,378,16043,2,0,P|337:339|349:302,1,77.3999976379395,6|2,1:2|0:0,0:0:0:0:
271,161,16367,6,0,P|178:141|118:200,1,172,6|10,1:2|0:0,0:0:0:0:
8,126,16854,1,0,1:2:0:0:
8,126,17016,2,0,P|21:169|28:215,1,86,2|0,1:2|1:2,0:0:0:0:
139,38,17340,2,0,P|126:81|119:127,1,86,10|0,0:0|0:0,0:0:0:0:
178,257,17664,6,0,B|262:222|265:291|346:256,1,172,2|8,1:2|0:0,0:0:0:0:
467,195,18151,1,2,1:2:0:0:
383,72,18313,2,0,P|298:107|302:197,1,172,2|8,1:2|0:0,0:0:0:0:
467,195,18799,1,2,0:0:0:0:
467,195,18962,6,0,P|419:189|380:175,1,86,2|2,1:2|1:2,0:0:0:0:
292,305,19286,2,0,P|332:291|375:286,1,86,10|2,0:0|1:2,0:0:0:0:
265,182,19610,2,0,P|258:110|242:44,1,129,2|0,1:2|0:0,0:0:0:0:
238,27,19935,1,10,0:0:0:0:
157,136,20097,1,2,0:0:0:0:
57,45,20259,5,2,1:2:0:0:
57,45,20421,1,2,1:2:0:0:
157,136,20583,2,0,P|145:176|139:227,1,86,10|0,0:0|1:2,0:0:0:0:
42,310,20908,2,0,P|36:267|24:226,1,86,2|0,1:2|1:0,0:0:0:0:
209,336,21232,1,10,0:0:0:0:
128,256,21394,1,2,0:0:0:0:
261,213,21556,6,0,P|253:288|247:390,1,172,2|10,1:2|0:0,0:0:0:0:
344,262,22043,1,0,1:0:0:0:
344,262,22205,2,0,P|388:240|428:239,1,86,2|0,1:2|1:2,0:0:0:0:
498,371,22529,2,0,P|455:367|417:347,1,86,10|0,0:0|0:0,0:0:0:0:
435,140,22854,6,0,P|482:158|511:275,1,172,2|8,1:2|0:0,0:0:0:0:
417,347,23340,1,2,1:2:0:0:
312,254,23502,2,0,B|232:219|229:288|145:253,1,172,2|8,1:2|0:0,0:0:0:0:
16,227,23989,1,2,0:0:0:0:
181,166,24151,5,2,1:2:0:0:
16,106,24313,1,2,1:2:0:0:
139,39,24475,2,0,P|122:81|110:130,1,86,10|0,0:0|0:0,0:0:0:0:
16,227,24799,1,2,1:2:0:0:
181,166,24962,1,2,1:2:0:0:
0,64,25124,2,0,P|17:106|29:155,1,86,10|2,0:0|1:2,0:0:0:0:
129,270,25448,1,2,1:2:0:0:
192,158,25610,6,0,B|282:145|266:212|353:199,1,172,2|0,1:2|1:2,0:0:0:0:
462,256,26097,1,8,0:0:0:0:
462,256,26745,6,0,P|452:198|423:126,1,129.00000492096,6|0,1:2|0:0,0:0:0:0:
512,5,27232,1,0,1:1:0:0:
512,5,27394,2,0,P|498:34|488:64,1,64.5000024604798,10|0,0:0|0:0,0:0:0:0:
449,191,27718,2,0,P|439:161|426:132,1,64.5000024604798,2|0,0:0|1:2,0:0:0:0:
365,21,28043,6,0,P|306:7|256:48,1,129.00000492096,2|0,1:2|0:0,0:0:0:0:
251,67,28691,2,0,P|263:103|269:136,1,64.5000024604798,10|0,0:0|0:0,0:0:0:0:
326,264,29016,2,0,P|333:233|344:203,1,64.5000024604798,2|0,0:0|1:2,0:0:0:0:
199,215,29340,2,0,P|130:203|62:195,2,129.00000492096,2|2|10,1:2|1:2|0:0,0:0:0:0:
407,141,30313,1,2,0:0:0:0:
425,158,30637,6,0,P|412:220|409:294,1,129.00000492096,2|0,1:2|0:0,0:0:0:0:
338,357,31124,2,0,P|332:342|324:321,2,32.2500012302399,0|0|10,1:2|1:2|0:0,0:0:0:0:
408,285,31448,2,0,P|410:266|412:257,4,16.12500061512,0|0|0|0|2,1:2|1:0|1:2|1:0|1:2,0:0:0:0:
355,189,31772,1,0,1:2:0:0:
326,326,31935,6,0,P|285:337|252:332,1,64.5000024604798,2|0,1:2|0:0,0:0:0:0:
201,254,32259,2,0,P|170:243|138:244,1,64.5000024604798,2|0,0:0|1:2,0:0:0:0:
13,300,32583,2,0,P|19:327|23:363,1,64.5000024604798,10|0,0:0|0:0,0:0:0:0:
137,243,32908,2,0,P|130:270|127:306,1,64.5000024604798,2|0,0:0|1:2,0:0:0:0:
61,182,33232,6,0,P|99:150|175:157,2,129.00000492096,2|2|10,1:2|0:0|1:2,0:0:0:0:
46,164,34205,2,0,P|37:130|25:96,1,64.5000024604798,2|0,0:0|1:2,0:0:0:0:
214,24,34529,2,0,P|204:81|199:162,2,129.00000492096,2|2|10,1:2|1:2|0:0,0:0:0:0:
214,24,35502,1,0,0:2:0:0:
214,24,35827,6,0,P|258:48|286:51,1,64.5000024604798,10|8,0:0|0:0,0:0:0:0:
317,37,36070,2,0,P|361:13|389:10,1,64.5000024604798,0|8,1:2|1:2,0:0:0:0:
420,29,36313,1,0,1:2:0:0:
360,129,36475,6,0,L|370:194,1,64.5000024604798,8|0,0:0|1:2,0:0:0:0:
471,292,36799,1,8,0:0:0:0:
471,292,36962,1,8,0:0:0:0:
471,292,37124,6,0,P|427:268|399:265,1,64.5000024604798,0|8,1:2|0:0,0:0:0:0:
368,279,37367,2,0,P|324:303|296:306,1,64.5000024604798,0|8,1:2|0:0,0:0:0:0:
268,287,37610,1,0,1:2:0:0:
159,244,37772,6,0,L|150:176,1,64.5000024604798,8|0,0:0|0:0,0:0:0:0:
190,87,38097,1,2,0:0:0:0:
190,87,38259,1,2,0:0:0:0:
190,87,38421,6,0,B|295:57|260:132|381:104,1,180.599994488526,6|8,1:2|0:0,0:0:0:0:
512,90,38908,1,2,1:2:0:0:
346,18,39070,2,0,P|358:61|364:113,1,90.2999972442628,2|0,1:2|1:2,0:0:0:0:
486,204,39394,2,0,P|491:159|503:115,1,90.2999972442628,8|2,0:0|0:0,0:0:0:0:
381,260,39718,6,0,P|346:211|233:218,1,180.599994488526,2|8,1:2|0:0,0:0:0:0:
128,298,40205,1,2,1:2:0:0:
23,232,40367,2,0,P|38:281|42:327,1,90.2999972442628,2|0,1:2|1:2,0:0:0:0:
199,384,40691,2,0,P|204:339|217:296,1,90.2999972442628,8|2,0:0|0:2,0:0:0:0:
89,146,41016,6,0,P|52:125|2:124,1,90.2999972442628,2|0,1:2|1:0,0:0:0:0:
23,232,41340,1,8,0:0:0:0:
178,105,41502,1,2,1:2:0:0:
178,105,41583,1,0,1:0:0:0:
178,105,41664,2,0,P|192:162|192:213,1,90.2999972442628,2|0,1:2|1:2,0:0:0:0:
310,286,41989,2,0,P|313:241|325:197,1,90.2999972442628,8|2,0:0|0:0,0:0:0:0:
366,66,42313,6,0,P|419:42|499:146,1,180.599994488526,2|8,1:2|0:0,0:0:0:0:
382,168,42799,1,0,0:0:0:0:
512,245,42962,1,0,1:2:0:0:
512,245,43043,1,0,1:2:0:0:
512,245,43124,1,0,1:2:0:0:
502,113,43286,1,8,0:0:0:0:
408,276,43448,1,2,0:0:0:0:
266,102,43610,6,0,P|278:191|285:295,1,180.599994488526,6|8,1:2|0:0,0:0:0:0:
408,276,44097,1,2,1:2:0:0:
313,370,44259,2,0,P|263:373|225:354,1,90.2999972442628,2|0,1:2|1:2,0:0:0:0:
153,229,44583,2,0,P|193:211|238:215,1,90.2999972442628,8|2,0:0|0:0,0:0:0:0:
97,349,44908,6,0,P|46:311|39:197,1,180.599994488526,2|8,1:2|0:0,0:0:0:0:
72,88,45394,1,2,1:2:0:0:
184,191,45556,2,0,P|192:141|204:103,1,90.2999972442628,2|0,1:2|1:2,0:0:0:0:
53,0,45881,2,0,P|65:43|72:87,1,90.2999972442628,8|2,0:0|0:0,0:0:0:0:
268,39,46205,6,0,P|222:15|167:22,1,90.2999972442628,2|0,1:2|1:0,0:0:0:0:
1,150,46529,2,0,P|39:172|85:174,1,90.2999972442628,8|2,0:0|1:2,0:0:0:0:
129,163,46772,1,0,1:0:0:0:
128,162,46854,2,0,P|141:206|148:251,1,90.2999972442628,2|0,1:2|1:2,0:0:0:0:
260,353,47179,2,0,P|266:309|279:266,1,90.2999972442628,8|2,0:0|0:0,0:0:0:0:
216,157,47502,5,10,1:2:0:0:
377,102,47664,1,10,1:2:0:0:
393,104,48151,5,10,1:2:0:0:
202,48,48313,1,10,1:2:0:0:
326,8,48475,2,0,P|320:33|317:56,3,45.1499986221314,8|8|10|8,0:0|0:0|0:0|0:0,0:0:0:0:
246,130,48799,6,0,P|254:216|262:313,1,180.599994488526,6|8,1:2|0:0,0:0:0:0:
165,233,49286,1,2,1:2:0:0:
346,197,49448,2,0,P|348:253|358:321,1,90.2999972442628,2|0,1:2|1:2,0:0:0:0:
176,362,49772,2,0,P|173:305|163:237,1,90.2999972442628,8|2,0:0|0:0,0:0:0:0:
297,133,50097,6,0,P|351:111|441:182,1,180.599994488526,2|8,1:2|0:0,0:0:0:0:
312,237,50583,1,2,1:2:0:0:
505,295,50745,2,0,P|456:278|405:277,1,90.2999972442628,2|0,1:2|1:2,0:0:0:0:
258,376,51070,2,0,P|302:371|345:357,1,90.2999972442628,8|2,0:0|0:0,0:0:0:0:
377,178,51394,6,0,P|388:128|381:89,1,90.2999972442628,2|0,1:2|1:0,0:0:0:0:
301,8,51718,1,8,0:0:0:0:
226,194,51881,1,2,1:2:0:0:
226,194,51962,1,0,1:2:0:0:
226,194,52043,2,0,P|215:144|222:105,1,90.2999972442628,2|0,1:2|1:2,0:0:0:0:
377,178,52367,2,0,P|388:228|381:267,1,90.2999972442628,8|2,0:0|0:2,0:0:0:0:
245,357,52691,6,0,B|162:316|151:393|68:352,1,180.599994488526,2|12,1:2|0:0,0:0:0:0:
163,253,53178,1,0,0:2:0:0:
30,178,53340,2,0,P|39:207|46:239,3,45.1499986221314,2|0|8|8,1:2|1:0|0:0|0:0,0:0:0:0:
140,120,53664,2,0,P|130:149|124:181,3,45.1499986221314,8|8|8|8,0:0|0:0|0:0|0:0,0:0:0:0:
46,62,53989,6,0,P|89:25|207:54,1,180.599994488526,6|8,1:2|0:0,0:0:0:0:
280,120,54475,1,0,0:0:0:0:
280,120,54637,2,0,P|269:159|263:210,1,90.2999972442628,2|0,1:2|0:0,0:0:0:0:
179,318,54962,2,0,P|174:273|162:229,1,90.2999972442628,8|0,0:0|0:0,0:0:0:0:
369,194,55286,6,0,P|353:283|345:373,2,180.599994488526,2|8|2,1:2|0:0|1:2,0:0:0:0:
280,120,56097,1,0,0:0:0:0:
346,34,56259,2,0,P|396:27|438:20,1,90.2999972442628,8|0,0:0|0:0,0:0:0:0:
280,120,56583,6,0,B|195:76|189:146|104:108,1,180.599994488526,6|8,1:2|0:0,0:0:0:0:
21,48,57070,1,0,0:0:0:0:
21,48,57232,2,0,P|-3:100|10:156,1,90.2999972442628,2|0,1:2|0:0,0:0:0:0:
125,239,57556,2,0,P|147:200|147:156,1,90.2999972442628,8|0,0:0|0:0,0:0:0:0:
35,299,57881,6,0,P|108:288|234:281,1,180.599994488526,2|8,1:2|0:0,0:0:0:0:
321,204,58367,1,0,0:0:0:0:
321,204,58529,2,0,P|354:144|313:43,1,180.599994488526,2|8,1:2|0:0,0:0:0:0:
168,24,59016,1,0,0:0:0:0:
168,24,59178,6,0,P|177:73|180:118,1,90.2999972442628,14|0,0:0|0:0,0:0:0:0:
284,247,59502,2,0,P|287:202|295:157,1,90.2999972442628,10|0,0:0|0:0,0:0:0:0:
282,26,59827,5,10,0:0:0:0:
190,199,59989,1,0,0:0:0:0:
274,6,60151,1,10,0:0:0:0:
378,208,60313,1,0,0:0:0:0:
228,95,60475,6,0,P|197:84|132:82,1,90.2999972442628,10|0,0:0|0:0,0:0:0:0:
290,223,60799,2,0,P|334:222|377:208,1,90.2999972442628,10|0,0:0|0:0,0:0:0:0:
118,244,61124,5,10,0:0:0:0:
306,128,61286,1,0,0:0:0:0:
95,238,61448,1,10,0:0:0:0:
332,303,61610,1,0,0:0:0:0:
122,363,61772,6,0,P|112:304|96:254,1,90.2999972442628,10|0,0:0|0:0,0:0:0:0:
279,149,62097,2,0,P|267:192|260:237,1,90.2999972442628,10|0,0:0|0:0,0:0:0:0:
143,110,62421,1,10,0:0:0:0:
225,359,62583,1,0,0:0:0:0:
12,245,62745,1,10,0:0:0:0:
247,158,62908,1,2,0:0:0:0:
78,359,63070,5,10,1:2:0:0:
78,359,63232,1,10,1:2:0:0:
5,118,63718,5,10,1:2:0:0:
5,118,63880,1,10,1:2:0:0:
242,164,64367,5,6,0:0:0:0:
151,163,73448,5,10,1:2:0:0:
228,315,73610,1,10,1:2:0:0:
235,333,74097,5,10,1:2:0:0:
32,298,74259,1,10,1:2:0:0:
240,212,74745,6,0,B|347:208|303:271|405:269,1,180.599994488526,6|8,1:2|0:0,0:0:0:0:
371,99,75232,1,2,1:2:0:0:
371,99,75313,1,0,1:2:0:0:
371,99,75394,2,0,P|383:145|388:188,1,90.2999972442628,2|0,1:2|1:2,0:0:0:0:
488,301,75718,2,0,P|492:256|504:212,1,90.2999972442628,8|2,0:0|0:0,0:0:0:0:
466,52,76043,6,0,P|413:7|309:28,1,180.599994488526,2|8,1:2|0:0,0:0:0:0:
185,122,76529,1,2,1:2:0:0:
185,122,76610,1,0,1:2:0:0:
185,122,76691,2,0,P|231:109|280:108,1,90.2999972442628,2|0,1:2|1:2,0:0:0:0:
344,233,77016,2,0,P|298:230|255:218,1,90.2999972442628,8|2,0:0|0:0,0:0:0:0:
94,103,77340,6,0,P|105:146|112:213,1,90.2999972442628,6|0,1:2|1:0,0:0:0:0:
250,129,77664,1,8,0:0:0:0:
210,314,77827,1,2,1:2:0:0:
210,314,77908,1,0,1:2:0:0:
210,314,77989,2,0,P|215:269|227:225,1,90.2999972442628,2|0,1:2|1:2,0:0:0:0:
313,66,78313,2,0,P|267:41|225:45,1,90.2999972442628,8|2,0:0|0:2,0:0:0:0:
328,202,78637,6,0,P|406:188|510:181,1,180.599994488526,2|12,1:2|0:0,0:0:0:0:
407,101,79124,1,0,0:0:0:0:
507,181,79286,2,0,P|501:203|498:226,3,45.1499986221314,2|0|8|8,1:2|1:0|0:0|0:0,0:0:0:0:
407,101,79610,2,0,P|403:78|398:56,3,45.1499986221314,8|8|8|8,0:0|0:0|0:0|0:0,0:0:0:0:
328,202,79935,6,0,B|243:158|237:231|152:190,1,180.599994488526,6|8,1:2|0:0,0:0:0:0:
51,141,80421,1,0,0:0:0:0:
51,141,80583,2,0,P|43:191|64:238,1,90.2999972442628,2|0,1:2|0:0,0:0:0:0:
220,117,80907,2,0,P|223:66|198:21,1,90.2999972442628,8|0,0:0|0:0,0:0:0:0:
153,190,81232,6,0,P|163:273|169:390,2,180.599994488526,2|8|2,1:2|0:0|1:2,0:0:0:0:
105,80,82043,1,0,0:0:0:0:
235,18,82205,2,0,P|223:58|215:113,1,90.2999972442628,8|0,0:0|0:0,0:0:0:0:
379,234,82529,6,0,P|423:146|378:81,1,180.599994488526,6|8,1:2|0:0,0:0:0:0:
224,145,83016,1,0,0:0:0:0:
224,145,83178,2,0,P|301:159|333:159,1,90.2999972442628,2|0,1:2|0:0,0:0:0:0:
434,265,83502,2,0,P|389:268|345:279,1,90.2999972442628,8|0,0:0|0:0,0:0:0:0:
196,380,83827,6,0,P|152:292|197:227,1,180.599994488526,2|8,1:2|0:0,0:0:0:0:
320,189,84313,1,0,0:0:0:0:
320,189,84475,2,0,B|235:145|229:218|144:177,1,180.599994488526,6|12,1:2|0:0,0:0:0:0:
216,68,84962,1,0,0:0:0:0:
0,27,85124,6,0,P|15:70|22:116,1,90.2999972442628,14|0,0:0|0:0,0:0:0:0:
125,265,85448,2,0,P|131:220|146:177,1,90.2999972442628,10|0,0:0|0:0,0:0:0:0:
125,16,85772,1,10,0:0:0:0:
11,225,85935,1,0,0:0:0:0:
243,173,86097,1,10,0:0:0:0:
33,89,86259,1,0,0:0:0:0:
211,312,86421,6,0,P|250:323|300:318,1,90.2999972442628,10|0,0:0|0:0,0:0:0:0:
301,147,86745,2,0,P|274:183|262:226,1,90.2999972442628,10|0,0:0|0:0,0:0:0:0:
382,268,87070,1,10,0:0:0:0:
159,162,87232,1,0,0:0:0:0:
380,84,87394,1,10,0:0:0:0:
380,84,87718,6,0,P|355:44|272:33,1,129.00000492096,2|2,0:0|0:0,0:0:0:0:
181,94,88367,6,0,P|191:149|195:229,1,129.00000492096,2|2,0:0|0:0,0:0:0:0:
242,303,88854,5,2,0:0:0:0:
242,303,89016,6,0,B|306:275|308:321|371:296,1,129.00000492096,2|0,0:0|0:0,0:0:0:0:
