osu file format v14

[General]
AudioFilename: audio.mp3
AudioLeadIn: 0
PreviewTime: 38128
Countdown: 0
SampleSet: Soft
StackLeniency: 0.7
Mode: 0
LetterboxInBreaks: 0
WidescreenStoryboard: 1

[Editor]
DistanceSpacing: 0.9
BeatDivisor: 4
GridSize: 32
TimelineZoom: 2.899999

[Metadata]
Title:Inferno (TV Size)
TitleUnicode:インフェルノ (TV Size)
Artist:Mrs. GREEN APPLE
ArtistUnicode:Mrs. GREEN APPLE
Creator:Reform
Version:Logic's Extreme
Source:炎炎ノ消防隊
Tags:Kujinn [_Eli_] Logic Agent Eli MaestroSplinter browiec Nelliel OnlyBiscuit brotarks Haruto haruto_aizawa KittyAdventure gokugohan12468 Ipas toybot AnzeigeistRaus Anzei FuJu Japanese fire force brigade of flames Enen no Shouboutai opening op anime ミセスグリーンアップル motoki omori 大森元貴 hiroto wakai 若井滉斗 ayaka yamanaka 山中綾華 ryoka fujisawa 藤澤涼架 kiyokatsu takano 髙野清宗
BeatmapID:2191143
BeatmapSetID:999126

[Difficulty]
HPDrainRate:5.5
CircleSize:4
OverallDifficulty:9
ApproachRate:9.3
SliderMultiplier:1.8
SliderTickRate:1

[Events]
//Background and Video events
0,0,"BG.jpg",0,0
//Break Periods
//Storyboard Layer 0 (Background)
//Storyboard Layer 1 (Fail)
//Storyboard Layer 2 (Pass)
//Storyboard Layer 3 (Foreground)
//Storyboard Layer 4 (Overlay)
//Storyboard Sound Samples

[TimingPoints]
800,324.324324324324,4,2,22,65,1,0
5827,-133.333333333333,4,2,22,45,0,0
15718,-66.6666666666667,4,2,22,45,0,0
15799,-66.6666666666667,4,2,22,5,0,0
15881,-133.333333333333,4,2,22,45,0,0
16367,-105.263157894737,4,2,22,55,0,0
26178,-105.263157894737,4,2,22,5,0,0
26259,-105.263157894737,4,2,22,55,0,0
26745,-153.846153846155,4,2,22,40,0,0
33394,-153.846153846155,4,2,22,15,0,0
33556,-153.846153846155,4,2,22,40,0,0
33718,-153.846153846155,4,2,22,15,0,0
33881,-153.846153846155,4,2,22,40,0,0
34043,-153.846153846155,4,2,22,15,0,0
34205,-153.846153846155,4,2,22,40,0,0
35827,-133.333333333334,4,2,22,40,0,0
37124,-153.846153846155,4,2,22,40,0,0
37367,-125,4,2,22,40,0,0
37610,-55.5555555555556,4,2,22,40,0,0
37772,-111.111111111111,4,2,22,40,0,0
38421,-95.2380952380952,4,2,22,75,0,1
47502,-95.2380952380952,4,2,22,75,0,0
48799,-95.2380952380952,4,2,22,75,0,1
59178,-95.2380952380952,4,2,22,85,0,1
64367,-181.818181818182,4,2,22,40,0,0
70529,-181.818181818182,4,2,22,5,0,0
70691,-181.818181818182,4,2,22,40,0,0
71178,-181.818181818182,4,2,22,5,0,0
71340,-181.818181818182,4,2,22,40,0,0
71827,-181.818181818182,4,2,22,5,0,0
71989,-181.818181818182,4,2,22,40,0,0
72475,-181.818181818182,4,2,22,5,0,0
72637,-181.818181818182,4,2,22,40,0,0
73124,-181.818181818182,4,2,22,5,0,0
73286,-181.818181818182,4,2,22,40,0,0
73448,-181.818181818182,4,2,22,60,0,0
74745,-95.2380952380952,4,2,22,75,0,1
84151,-86.9565217391304,4,2,22,75,0,1
84475,-80,4,2,22,75,0,1
84799,-71.4285714285714,4,2,22,75,0,1
85124,-95.2380952380952,4,2,22,85,0,1
87070,-95.2380952380952,4,2,22,95,0,1
87718,-181.818181818182,4,2,22,75,0,0
89340,-181.818181818182,4,2,22,5,0,0

[Colours]
Combo1 : 105,58,201
Combo2 : 255,128,0
Combo3 : 0,155,230
Combo4 : 255,55,55

[HitObjects]
13,125,800,6,0,P|57:116|101:108,1,90,4|0,1:2|0:0,0:0:0:0:
320,85,1124,1,8,0:0:0:0:
235,15,1286,1,0,1:0:0:0:
235,15,1367,1,0,1:2:0:0:
235,15,1448,2,0,P|209:73|224:128,1,90,0|0,1:2|1:2,0:0:0:0:
493,32,1772,2,0,P|449:23|405:15,1,90,8|0,0:0|0:0,0:0:0:0:
275,185,2097,5,0,1:2:0:0:
211,97,2259,1,0,1:2:0:0:
231,285,2421,1,8,0:0:0:0:
384,174,2583,1,0,1:0:0:0:
384,174,2664,1,0,1:2:0:0:
384,174,2745,1,0,1:2:0:0:
166,196,2908,1,0,1:2:0:0:
296,374,3070,2,0,P|340:365|384:357,1,90,8|0,0:0|0:0,0:0:0:0:
275,185,3394,5,4,1:2:0:0:
186,384,3556,1,0,0:0:0:0:
211,97,3718,5,8,0:0:0:0:
339,273,3881,1,0,0:0:0:0:
275,9,4043,5,8,0:0:0:0:
231,285,4205,1,0,0:0:0:0:
493,32,4367,5,8,0:0:0:0:
164,194,4529,1,0,0:0:0:0:
384,356,4691,5,10,1:2:0:0:
211,97,4854,1,10,1:2:0:0:
99,312,5016,1,8,0:0:0:0:
131,303,5097,1,8,0:0:0:0:
164,296,5178,1,8,0:0:0:0:
197,290,5259,1,8,0:0:0:0:
231,285,5340,5,10,1:2:0:0:
275,9,5502,1,10,1:2:0:0:
275,9,5827,5,2,0:0:0:0:
211,97,5989,5,6,1:2:0:0:
142,41,6151,1,0,0:0:0:0:
129,129,6313,2,0,P|78:122|28:117,1,101.250003862381,2|0,1:2|0:0,0:0:0:0:
34,250,6637,5,2,1:2:0:0:
116,217,6799,1,0,0:0:0:0:
198,184,6962,2,0,P|208:228|217:273,1,67.5000025749208,2|0,1:2|0:0,0:0:0:0:
142,41,7286,5,2,1:2:0:0:
211,97,7448,1,0,0:0:0:0:
279,41,7610,2,0,P|323:16|379:21,1,101.250003862381,0|0,1:2|0:0,0:0:0:0:
430,124,7935,5,2,1:2:0:0:
485,56,8097,1,0,0:0:0:0:
461,205,8259,1,0,1:2:0:0:
344,111,8421,1,2,0:0:0:0:
492,286,8583,5,2,1:2:0:0:
437,354,8745,1,2,0:0:0:0:
382,286,8908,2,0,P|338:261|282:266,1,101.250003862381,2|0,1:2|0:0,0:0:0:0:
344,111,9232,5,2,1:2:0:0:
271,158,9393,1,0,0:0:0:0:
218,87,9556,2,0,P|221:53|226:20,1,67.5000025749208,2|2,1:2|0:0,0:0:0:0:
145,134,9881,5,2,1:2:0:0:
92,63,10043,1,2,0:0:0:0:
19,110,10205,2,0,P|12:161|7:211,1,101.250003862381,2|0,1:2|0:0,0:0:0:0:
138,286,10529,5,2,1:2:0:0:
206,231,10691,1,0,0:0:0:0:
220,318,10854,1,2,1:2:0:0:
288,263,11016,1,2,0:0:0:0:
192,144,11178,5,2,1:2:0:0:
206,231,11340,1,0,0:0:0:0:
274,176,11502,2,0,P|324:166|374:158,1,101.250003862381,2|0,1:2|0:0,0:0:0:0:
512,90,11827,5,2,1:2:0:0:
487,174,11989,1,0,0:0:0:0:
462,258,12151,2,0,P|429:251|396:246,1,67.5000025749208,2|0,1:2|0:0,0:0:0:0:
301,349,12475,5,2,1:2:0:0:
220,318,12637,1,0,0:0:0:0:
139,349,12799,2,0,P|89:339|39:331,1,101.250003862381,0|0,1:2|0:0,0:0:0:0:
138,175,13124,5,2,1:2:0:0:
207,118,13286,1,0,0:0:0:0:
152,263,13448,1,0,1:2:0:0:
56,143,13610,1,2,0:0:0:0:
289,150,13772,5,2,1:2:0:0:
221,206,13935,1,2,0:0:0:0:
303,236,14097,2,0,P|329:279|330:332,1,101.250003862381,2|0,1:2|0:0,0:0:0:0:
371,180,14421,5,2,1:2:0:0:
288,150,14583,1,2,0:0:0:0:
207,120,14745,2,0,P|196:91|204:40,1,67.5000025749208,2|2,1:2|0:0,0:0:0:0:
356,94,15070,5,2,1:2:0:0:
438,124,15232,2,0,P|471:129|503:137,1,67.5000025749208,2|0,0:0|1:2,0:0:0:0:
303,236,15556,1,2,0:0:0:0:
385,266,15718,6,0,P|417:258|451:252,1,67.5000025749208,2|0,1:2|0:0,0:0:0:0:
424,50,16043,6,0,P|388:19|314:24,1,101.250003862381,6|0,1:2|0:0,0:0:0:0:
186,42,16367,6,0,P|197:84|205:125,1,85.4999977169037,6|0,1:2|0:0,0:0:0:0:
356,94,16691,1,10,0:0:0:0:
204,221,16854,1,0,1:2:0:0:
204,221,16935,1,0,1:2:0:0:
204,221,17016,2,0,P|161:212|119:206,1,85.4999977169037,2|0,1:2|1:2,0:0:0:0:
15,68,17340,2,0,P|57:59|99:53,1,85.4999977169037,10|0,0:0|0:0,0:0:0:0:
35,337,17664,6,0,P|21:252|5:168,1,170.999995433807,2|8,1:2|0:0,0:0:0:0:
136,337,18151,1,2,1:2:0:0:
134,122,18313,2,0,P|125:163|119:206,1,85.4999977169037,2|0,1:2|1:2,0:0:0:0:
10,67,18637,1,8,0:0:0:0:
186,42,18799,1,2,0:0:0:0:
25,168,18962,5,2,1:2:0:0:
91,4,19124,1,2,1:2:0:0:
120,207,19286,1,10,0:0:0:0:
10,67,19448,1,2,1:2:0:0:
10,67,19529,1,0,1:2:0:0:
10,67,19610,5,2,1:2:0:0:
186,42,19772,1,0,1:2:0:0:
106,105,19935,1,10,0:0:0:0:
91,4,20097,1,2,0:0:0:0:
201,143,20259,6,0,L|289:121,1,85.4999977169037,2|2,1:2|1:2,0:0:0:0:
422,29,20583,2,0,P|407:90|451:166,1,128.249996575356,10|0,0:0|1:2,0:0:0:0:
323,41,20908,1,2,1:2:0:0:
503,83,21070,1,0,1:0:0:0:
283,122,21232,1,10,0:0:0:0:
422,29,21394,1,2,0:0:0:0:
333,196,21556,6,0,P|345:236|355:278,1,85.4999977169037,2|0,1:2|0:0,0:0:0:0:
201,143,21881,1,10,0:0:0:0:
211,359,22043,1,0,1:0:0:0:
211,359,22124,1,0,1:2:0:0:
211,359,22205,2,0,P|251:346|293:336,1,85.4999977169037,2|0,1:2|1:2,0:0:0:0:
512,276,22529,2,0,P|473:285|432:298,1,85.4999977169037,10|0,0:0|0:0,0:0:0:0:
252,187,22854,6,0,P|334:199|399:147,1,170.999995433807,2|8,1:2|0:0,0:0:0:0:
429,298,23340,1,2,1:2:0:0:
512,100,23502,2,0,P|499:140|489:182,1,85.4999977169037,2|0,1:2|1:2,0:0:0:0:
314,204,23827,1,8,0:0:0:0:
429,298,23989,1,2,0:0:0:0:
223,157,24151,5,2,1:2:0:0:
400,147,24313,1,2,1:2:0:0:
132,113,24475,1,10,0:0:0:0:
314,204,24637,1,0,1:0:0:0:
314,204,24718,1,0,1:2:0:0:
314,204,24799,5,2,1:2:0:0:
49,170,24962,1,2,1:2:0:0:
223,157,25124,1,10,0:0:0:0:
140,214,25286,1,2,1:2:0:0:
132,113,25448,5,2,1:2:0:0:
215,56,25610,1,2,1:2:0:0:
223,157,25772,2,0,P|266:149|320:142,1,85.4999977169037,8|0,0:0|1:2,0:0:0:0:
390,86,26016,1,0,1:0:0:0:
390,86,26097,2,0,P|411:89|432:93,1,42.7499988584519,8|0,0:0|0:0,0:0:0:0:
440,194,26421,1,2,0:0:0:0:
440,193,26745,6,0,P|397:232|393:289,1,116.999994644165,6|0,1:2|0:0,0:0:0:0:
320,357,27232,1,0,1:1:0:0:
320,357,27313,1,0,1:0:0:0:
320,357,27394,2,0,P|287:350|248:343,1,58.4999973220826,10|0,0:0|0:0,0:0:0:0:
215,258,27718,2,0,P|186:265|158:274,1,58.4999973220826,2|0,0:0|1:2,0:0:0:0:
77,352,28043,6,0,P|60:289|41:228,1,116.999994644165,2|0,1:2|0:0,0:0:0:0:
124,180,28529,1,0,0:0:0:0:
124,180,28691,2,0,P|133:142|145:105,1,58.4999973220826,10|0,0:0|0:0,0:0:0:0:
58,64,29016,2,0,P|51:35|43:7,1,58.4999973220826,2|0,0:0|1:2,0:0:0:0:
205,9,29340,6,0,P|176:15|148:23,1,58.4999973220826,2|0,1:2|0:0,0:0:0:0:
250,101,29665,1,2,1:2:0:0:
263,96,29746,1,0,1:0:0:0:
278,92,29827,1,0,1:2:0:0:
292,89,29908,1,0,1:2:0:0:
306,86,29989,2,0,P|297:58|290:29,1,58.4999973220826,10|0,0:0|1:2,0:0:0:0:
389,15,30313,2,0,P|397:42|404:71,1,58.4999973220826,2|0,0:0|1:2,0:0:0:0:
323,185,30637,6,0,P|373:157|429:168,1,116.999994644165,2|0,1:2|0:0,0:0:0:0:
508,238,31124,1,0,1:2:0:0:
508,238,31205,1,0,1:2:0:0:
508,238,31286,2,0,P|494:272|498:313,1,58.4999973220826,10|0,0:0|1:2,0:0:0:0:
416,348,31529,1,0,1:2:0:0:
416,348,31610,2,0,P|393:318|356:301,1,58.4999973220826,2|0,1:2|1:2,0:0:0:0:
162,306,31935,6,0,P|218:289|275:274,1,116.999994644165,2|2,1:2|0:0,0:0:0:0:
323,185,32421,1,0,1:2:0:0:
217,183,32583,2,0,P|177:171|138:160,1,58.4999973220826,10|0,0:0|0:0,0:0:0:0:
378,307,33070,1,0,1:2:0:0:
444,225,33232,6,0,P|451:196|460:168,1,58.4999973220826,2|0,1:2|0:0,0:0:0:0:
497,70,33556,2,0,P|457:58|418:47,1,58.4999973220826,2|0,0:0|0:0,0:0:0:0:
342,16,33881,2,0,P|333:43|325:72,1,58.4999973220826,10|0,1:2|0:0,0:0:0:0:
289,172,34205,2,0,P|317:179|345:188,1,58.4999973220826,2|0,0:0|1:2,0:0:0:0:
378,307,34529,6,0,P|322:289|265:273,1,116.999994644165,2|2,1:2|1:2,0:0:0:0:
188,201,35016,1,0,1:2:0:0:
289,172,35178,1,10,0:0:0:0:
289,172,35340,1,0,1:2:0:0:
166,303,35664,1,0,1:0:0:0:
166,303,35827,6,0,P|132:292|97:282,1,67.5000025749208,10|8,0:0|0:0,0:0:0:0:
0,185,36070,2,0,P|32:174|64:165,1,67.5000025749208,0|8,1:2|1:2,0:0:0:0:
101,47,36313,1,0,1:2:0:0:
200,201,36475,1,8,0:0:0:0:
0,80,36637,2,0,L|-14:40,3,22.5000008583069,0|0|0|8,1:2|1:2|1:2|0:0,1:2:0:0:
36,384,36962,1,8,0:0:0:0:
36,384,37124,6,0,L|30:302,1,58.4999973220826,0|8,1:2|0:0,0:0:0:0:
205,274,37367,6,0,L|199:192,1,72,0|8,1:2|0:0,0:0:0:0:
64,85,37610,6,0,L|56:-16,1,80.9999975280763,0|0,1:2|0:0,0:0:0:0:
196,75,37772,1,8,0:0:0:0:
0,224,37935,1,0,1:2:0:0:
0,224,38016,1,0,1:2:0:0:
0,224,38097,2,0,P|59:210|118:198,1,121.499996292114,2|0,0:0|0:0,0:0:0:0:
377,43,38421,6,0,P|331:31|284:22,1,94.499997116089,6|0,1:2|0:0,0:0:0:0:
237,282,38745,1,8,0:0:0:0:
196,75,38908,1,2,1:2:0:0:
196,75,38989,1,0,1:0:0:0:
196,75,39070,1,2,1:2:0:0:
427,126,39232,1,0,1:2:0:0:
199,202,39394,1,8,0:0:0:0:
377,43,39556,1,2,0:0:0:0:
384,229,39718,6,0,P|430:217|477:208,1,94.499997116089,2|0,1:2|1:2,0:0:0:0:
289,97,40043,1,8,0:0:0:0:
309,295,40205,1,2,1:2:0:0:
309,295,40286,1,0,1:2:0:0:
309,295,40367,1,2,1:2:0:0:
427,126,40529,1,0,1:2:0:0:
359,378,40691,1,8,0:0:0:0:
477,209,40854,1,2,0:2:0:0:
211,271,41016,6,0,P|163:259|119:250,1,94.499997116089,2|0,1:2|1:0,0:0:0:0:
294,93,41340,1,8,0:0:0:0:
309,295,41502,1,2,1:2:0:0:
309,295,41583,1,0,1:0:0:0:
309,295,41664,1,2,1:2:0:0:
210,47,41827,1,0,1:2:0:0:
427,126,41989,1,8,0:0:0:0:
213,143,42151,1,2,0:0:0:0:
477,44,42313,6,0,P|425:30|370:48,1,94.499997116089,2|0,1:2|1:0,0:0:0:0:
477,209,42637,1,8,0:0:0:0:
294,93,42799,1,0,1:0:0:0:
294,93,42881,1,0,1:0:0:0:
294,93,42962,1,0,1:2:0:0:
380,210,43124,1,0,1:2:0:0:
309,0,43286,1,8,0:0:0:0:
427,126,43448,1,2,0:0:0:0:
195,50,43610,6,0,P|183:98|177:142,1,94.499997116089,6|0,1:2|1:0,0:0:0:0:
386,39,43935,1,8,0:0:0:0:
333,294,44097,1,2,1:2:0:0:
333,294,44178,1,0,1:0:0:0:
333,294,44259,1,2,1:2:0:0:
294,93,44421,1,0,1:2:0:0:
496,300,44583,2,0,P|489:253|478:207,1,94.499997116089,8|2,0:0|0:0,0:0:0:0:
210,220,44908,6,0,P|256:210|302:202,1,94.499997116089,2|0,1:2|1:2,0:0:0:0:
120,23,45232,1,8,0:0:0:0:
113,222,45394,1,2,1:2:0:0:
113,222,45475,1,0,1:0:0:0:
113,222,45556,1,2,1:2:0:0:
294,93,45718,1,0,1:2:0:0:
27,175,45881,1,8,0:0:0:0:
302,202,46043,1,2,0:0:0:0:
28,266,46205,6,0,P|18:312|10:358,1,94.499997116089,2|0,1:2|1:0,0:0:0:0:
112,131,46529,1,8,0:0:0:0:
153,352,46691,1,2,1:2:0:0:
153,352,46773,1,0,1:0:0:0:
153,352,46854,1,2,1:2:0:0:
27,175,47016,1,0,1:2:0:0:
238,308,47178,1,8,0:0:0:0:
9,358,47340,1,2,0:0:0:0:
32,80,47502,5,10,1:2:0:0:
428,186,47664,1,10,1:2:0:0:
107,230,48151,5,10,1:2:0:0:
436,83,48313,1,10,1:2:0:0:
162,8,48475,1,8,0:0:0:0:
145,39,48556,1,8,0:0:0:0:
140,74,48637,1,10,0:0:0:0:
144,109,48718,1,8,0:0:0:0:
160,141,48799,6,0,P|206:131|252:123,1,94.499997116089,6|0,1:2|0:0,0:0:0:0:
0,8,49124,1,8,0:0:0:0:
107,230,49286,1,2,1:2:0:0:
107,230,49367,1,0,1:0:0:0:
107,230,49448,1,2,1:2:0:0:
145,39,49610,1,0,1:2:0:0:
22,274,49772,1,8,0:0:0:0:
63,65,49935,1,2,0:0:0:0:
103,326,50097,6,0,P|149:316|195:308,1,94.499997116089,2|0,1:2|1:2,0:0:0:0:
252,122,50421,1,8,0:0:0:0:
276,359,50583,1,2,1:2:0:0:
276,359,50664,1,0,1:2:0:0:
276,359,50745,1,2,1:2:0:0:
107,230,50908,1,0,1:2:0:0:
341,289,51070,1,8,0:0:0:0:
103,326,51232,1,2,0:0:0:0:
333,174,51394,6,0,P|379:164|425:156,1,94.499997116089,2|0,1:2|1:0,0:0:0:0:
399,366,51718,1,8,0:0:0:0:
506,207,51881,1,2,1:2:0:0:
506,207,51962,1,0,1:2:0:0:
506,207,52043,1,2,1:2:0:0:
276,359,52205,1,0,1:2:0:0:
512,384,52367,1,8,0:0:0:0:
341,287,52529,1,2,0:2:0:0:
509,109,52691,6,0,P|500:62|490:16,1,94.499997116089,2|0,1:2|1:0,0:0:0:0:
333,174,53016,1,12,0:0:0:0:
399,32,53178,1,0,1:2:0:0:
399,32,53259,1,0,1:0:0:0:
399,32,53340,1,2,1:2:0:0:
387,296,53502,1,8,0:0:0:0:
387,296,53583,1,8,0:0:0:0:
387,296,53664,2,0,P|354:289|322:283,1,47.2499985580445,8|8,0:0|0:0,0:0:0:0:
245,116,53827,2,0,P|221:120|198:125,1,47.2499985580445,8|8,0:0|0:0,0:0:0:0:
16,333,53989,6,0,P|55:276|124:268,1,141.749995674133,6|0,1:2|0:0,0:0:0:0:
231,253,54313,2,0,P|214:297|205:343,1,94.499997116089,8|0,0:0|0:0,0:0:0:0:
412,384,54637,2,0,P|402:337|386:293,1,94.499997116089,2|0,1:2|0:0,0:0:0:0:
481,129,54962,2,0,P|441:185|372:193,1,141.749995674133,8|0,0:0|0:0,0:0:0:0:
501,283,55286,5,2,1:2:0:0:
391,102,55610,2,0,P|346:85|300:76,1,94.499997116089,8|0,0:0|0:0,0:0:0:0:
198,0,55935,2,0,P|151:9|107:25,1,94.499997116089,2|0,1:2|0:0,0:0:0:0:
231,253,56259,2,0,P|216:183|192:117,1,141.749995674133,8|0,0:0|0:0,0:0:0:0:
324,0,56583,6,0,P|309:44|300:91,1,94.499997116089,6|0,1:2|0:0,0:0:0:0:
432,6,56908,1,8,0:0:0:0:
372,193,57070,1,0,0:0:0:0:
192,117,57232,2,0,P|206:161|215:208,1,94.499997116089,2|0,1:2|0:0,0:0:0:0:
84,123,57557,1,8,0:0:0:0:
144,310,57719,1,0,0:0:0:0:
391,114,57881,6,0,P|346:99|299:90,1,94.499997116089,2|0,1:2|0:0,0:0:0:0:
124,231,58205,2,0,P|168:216|215:207,1,94.499997116089,8|0,0:0|0:0,0:0:0:0:
391,348,58529,2,0,P|346:333|299:324,1,94.499997116089,2|0,1:2|0:0,0:0:0:0:
512,175,58854,2,0,P|442:189|375:212,1,141.749995674133,8|0,0:0|0:0,0:0:0:0:
391,114,59178,5,14,0:0:0:0:
235,384,59340,1,0,0:0:0:0:
198,85,59502,5,10,0:0:0:0:
299,324,59664,1,0,0:0:0:0:
346,0,59827,5,10,0:0:0:0:
215,207,59989,1,0,0:0:0:0:
449,0,60151,5,10,0:0:0:0:
198,85,60313,1,0,0:0:0:0:
504,80,60475,5,10,0:0:0:0:
152,0,60637,1,0,0:0:0:0:
449,0,60799,5,10,0:0:0:0:
102,83,60962,1,0,0:0:0:0:
449,160,61124,5,10,0:0:0:0:
198,85,61286,1,0,0:0:0:0:
394,80,61448,1,10,0:0:0:0:
215,207,61610,1,0,0:0:0:0:
339,0,61772,5,10,0:0:0:0:
400,233,61935,1,0,0:0:0:0:
245,0,62097,5,10,0:0:0:0:
312,272,62259,1,0,0:0:0:0:
153,24,62421,5,10,0:0:0:0:
224,311,62583,1,0,0:0:0:0:
71,71,62745,5,10,0:0:0:0:
136,350,62907,1,2,0:0:0:0:
449,160,63070,5,10,1:2:0:0:
26,268,63232,1,10,1:2:0:0:
411,265,63718,5,10,1:2:0:0:
8,142,63881,1,10,1:2:0:0:
237,253,64367,6,0,P|280:196|352:193,1,148.50000453186,6|2,0:0|0:0,0:0:0:0:
498,87,65016,2,0,P|434:120|368:93,1,148.50000453186,2|2,0:0|0:0,0:0:0:0:
267,96,65664,1,2,0:0:0:0:
267,96,66151,1,2,0:0:0:0:
196,12,66313,2,0,B|106:48|106:48|48:25,1,148.50000453186,2|2,0:0|0:0,0:0:0:0:
44,137,66962,5,2,0:0:0:0:
44,137,67448,1,2,0:0:0:0:
148,167,67610,2,0,P|127:249|121:312,1,148.50000453186,2|2,0:0|0:0,0:0:0:0:
209,377,68259,2,0,P|233:343|336:335,1,148.50000453186,2|2,0:0|0:0,0:0:0:0:
366,228,68908,1,2,0:0:0:0:
121,311,69394,5,2,0:0:0:0:
44,226,69556,1,2,0:0:0:0:
44,226,70043,1,2,0:0:0:0:
40,112,70205,6,0,P|101:103|162:98,1,123.75000377655,2|0,0:0|0:0,0:0:0:0:
175,196,70691,1,2,0:0:0:0:
175,196,70854,2,0,P|236:187|297:182,1,123.75000377655,2|0,0:0|0:0,0:0:0:0:
310,280,71340,1,2,0:0:0:0:
310,280,71502,2,0,P|371:271|432:266,1,123.75000377655,2|0,0:0|0:0,0:0:0:0:
445,364,71989,1,2,0:0:0:0:
254,359,72151,6,0,P|193:350|132:345,1,123.75000377655,2|0,0:0|0:0,0:0:0:0:
50,288,72637,1,2,0:0:0:0:
175,196,72799,2,0,P|236:187|297:182,1,123.75000377655,2|0,0:0|0:0,0:0:0:0:
379,125,73286,1,0,0:0:0:0:
131,18,73448,5,10,1:2:0:0:
386,224,73610,1,10,1:2:0:0:
74,146,74097,5,10,1:2:0:0:
423,36,74259,1,10,1:2:0:0:
9,49,74583,5,2,0:0:0:0:
233,193,74745,2,0,P|221:239|212:286,1,94.499997116089,6|0,1:2|0:0,0:0:0:0:
469,169,75070,1,8,0:0:0:0:
206,115,75232,1,2,1:2:0:0:
206,115,75313,1,0,1:2:0:0:
206,115,75394,1,2,1:2:0:0:
423,36,75556,1,0,1:2:0:0:
179,37,75718,1,8,0:0:0:0:
407,115,75881,1,2,0:0:0:0:
152,178,76043,6,0,P|106:166|59:157,1,94.499997116089,2|0,1:2|1:2,0:0:0:0:
346,61,76367,1,8,0:0:0:0:
232,198,76529,1,2,1:2:0:0:
232,198,76610,1,0,1:2:0:0:
232,198,76691,1,2,1:2:0:0:
285,7,76854,1,0,1:2:0:0:
467,170,77016,1,8,0:0:0:0:
269,87,77178,1,2,0:0:0:0:
512,0,77340,5,6,1:2:0:0:
483,250,77502,1,0,1:0:0:0:
346,61,77664,1,8,0:0:0:0:
456,327,77827,1,2,1:2:0:0:
456,327,77908,1,0,1:2:0:0:
456,327,77989,1,2,1:2:0:0:
447,79,78151,1,0,1:2:0:0:
394,380,78313,1,8,0:0:0:0:
281,140,78475,1,2,0:2:0:0:
156,343,78637,6,0,P|110:331|63:322,1,94.499997116089,2|0,1:2|1:2,0:0:0:0:
132,78,78962,1,12,0:0:0:0:
218,246,79124,1,0,1:0:0:0:
218,246,79205,1,0,1:0:0:0:
218,246,79286,1,2,1:2:0:0:
59,190,79448,1,8,0:0:0:0:
59,190,79529,1,8,0:0:0:0:
59,190,79610,2,0,P|91:181|124:175,1,47.2499985580445,8|8,0:0|0:0,0:0:0:0:
228,25,79772,2,0,P|251:30|273:36,1,47.2499985580445,8|8,0:0|0:0,0:0:0:0:
497,231,79935,6,0,P|445:186|373:187,1,141.749995674133,6|0,1:2|0:0,0:0:0:0:
331,101,80259,2,0,P|294:136|280:181,1,94.499997116089,8|0,0:0|0:0,0:0:0:0:
96,382,80583,2,0,P|131:345|176:331,1,94.499997116089,2|0,1:2|0:0,0:0:0:0:
218,246,80908,2,0,P|262:297|261:369,1,141.749995674133,8|0,0:0|0:0,0:0:0:0:
353,275,81232,5,2,1:2:0:0:
331,101,81556,2,0,P|296:82|238:80,1,94.499997116089,8|0,0:0|0:0,0:0:0:0:
162,3,81881,2,0,P|127:22|69:23,1,94.499997116089,2|0,1:2|0:0,0:0:0:0:
0,196,82205,2,0,P|42:141|111:136,1,141.749995674133,8|0,0:0|0:0,0:0:0:0:
159,225,82529,6,0,P|203:210|250:201,1,94.499997116089,6|0,1:2|0:0,0:0:0:0:
111,136,82854,1,8,0:0:0:0:
124,319,83016,1,0,0:0:0:0:
331,101,83178,2,0,P|287:86|240:77,1,94.499997116089,2|0,1:2|0:0,0:0:0:0:
379,12,83503,1,8,0:0:0:0:
366,195,83665,1,0,0:0:0:0:
101,272,83827,6,0,P|113:318|123:364,1,94.499997116089,2|0,1:2|0:0,0:0:0:0:
255,182,84151,6,0,P|241:232|230:282,1,103.500001974106,8|0,0:0|0:0,0:0:0:0:
116,67,84475,6,0,P|130:121|143:177,1,112.5,6|0,1:2|0:0,0:0:0:0:
369,0,84799,6,0,P|352:63|337:128,1,125.999996154785,12|0,0:0|0:0,0:0:0:0:
60,195,85124,5,14,0:0:0:0:
318,316,85286,1,0,0:0:0:0:
116,67,85448,5,10,0:0:0:0:
233,282,85610,1,0,0:0:0:0:
216,0,85772,5,10,0:0:0:0:
146,304,85935,1,0,0:0:0:0:
369,0,86097,5,10,0:0:0:0:
60,195,86259,1,0,0:0:0:0:
426,125,86421,5,10,0:0:0:0:
116,67,86583,1,0,0:0:0:0:
470,36,86745,5,10,0:0:0:0:
222,118,86908,1,0,0:0:0:0:
481,207,87070,5,10,0:0:0:0:
216,0,87232,1,0,0:0:0:0:
426,125,87394,1,10,0:0:0:0:
169,224,87556,1,0,0:0:0:0:
437,296,87718,6,0,P|395:271|346:276,1,99.0000030212403,2|2,0:0|0:0,0:0:0:0:
273,326,88367,2,0,L|262:374,1,49.5000015106202,2|0,0:0|0:0,0:0:0:0:
181,239,88691,2,0,L|191:287,1,49.5000015106202,2|2,0:0|0:0,0:0:0:0:
262,200,89016,5,2,0:0:0:0:
