osu file format v14

[General]
AudioFilename: audio.mp3
AudioLeadIn: 0
PreviewTime: 38128
Countdown: 0
SampleSet: Soft
StackLeniency: 0.2
Mode: 0
LetterboxInBreaks: 0
WidescreenStoryboard: 0

[Editor]
DistanceSpacing: 1.5
BeatDivisor: 4
GridSize: 4
TimelineZoom: 2.1

[Metadata]
Title:Inferno (TV Size)
TitleUnicode:インフェルノ (TV Size)
Artist:Mrs. GREEN APPLE
ArtistUnicode:Mrs. GREEN APPLE
Creator:Reform
Version:KittyAdventure's Light Insane
Source:炎炎ノ消防隊
Tags:Kujinn [_Eli_] Logic Agent Eli MaestroSplinter browiec Nelliel OnlyBiscuit brotarks Haruto haruto_aizawa KittyAdventure gokugohan12468 Ipas toybot AnzeigeistRaus Anzei FuJu Japanese fire force brigade of flames Enen no Shouboutai opening op anime ミセスグリーンアップル motoki omori 大森元貴 hiroto wakai 若井滉斗 ayaka yamanaka 山中綾華 ryoka fujisawa 藤澤涼架 kiyokatsu takano 髙野清宗
BeatmapID:2123908
BeatmapSetID:999126

[Difficulty]
HPDrainRate:5
CircleSize:3.7
OverallDifficulty:8.3
ApproachRate:9
SliderMultiplier:1.5
SliderTickRate:2

[Events]
//Background and Video events
0,0,"BG.jpg",0,0
//Break Periods
//Storyboard Layer 0 (Background)
//Storyboard Layer 1 (Fail)
//Storyboard Layer 2 (Pass)
//Storyboard Layer 3 (Foreground)
//Storyboard Layer 4 (Overlay)
//Storyboard Sound Samples

[TimingPoints]
800,324.324324324324,4,2,22,65,1,0
3313,-100,4,2,22,70,0,0
3394,-100,4,2,22,65,0,0
5664,-100,4,2,22,70,0,0
5827,-100,4,2,22,45,0,0
5989,-111.111111111111,4,2,22,45,0,0
7448,-111.111111111111,4,2,22,60,0,0
7610,-111.111111111111,4,2,22,45,0,0
12637,-111.111111111111,4,2,22,60,0,0
12799,-111.111111111111,4,2,22,45,0,0
15718,-111.111111111111,4,2,22,45,0,0
16043,-111.111111111111,4,2,22,45,0,0
16367,-100,4,2,22,55,0,0
17827,-100,4,2,22,55,0,0
17989,-100,4,2,22,55,0,0
26421,-133.333333333333,4,2,22,55,0,0
26583,-133.333333333333,4,2,22,60,0,0
26745,-133.333333333333,4,2,22,40,0,0
36718,-133.333333333333,4,2,22,40,0,0
36799,-133.333333333333,4,2,22,40,0,0
37286,-133.333333333333,4,2,22,40,0,0
37934,-133.333333333333,4,2,22,60,0,0
38097,-117.647058823529,4,2,22,40,0,0
38340,-117.647058823529,4,2,22,60,0,0
38421,-90.9090909090909,4,2,22,75,0,1
38989,-90.9090909090909,4,2,22,75,0,1
39070,-90.9090909090909,4,2,22,75,0,1
41583,-90.9090909090909,4,2,22,75,0,1
41664,-90.9090909090909,4,2,22,75,0,1
42881,-90.9090909090909,4,2,22,60,0,1
42962,-90.9090909090909,4,2,22,75,0,1
44178,-90.9090909090909,4,2,22,75,0,1
44259,-90.9090909090909,4,2,22,75,0,1
45475,-90.9090909090909,4,2,22,75,0,1
45556,-90.9090909090909,4,2,22,75,0,1
46772,-90.9090909090909,4,2,22,75,0,1
46854,-90.9090909090909,4,2,22,75,0,1
47502,-90.9090909090909,4,2,22,75,0,0
48151,-90.9090909090909,4,2,22,75,0,0
48394,-90.9090909090909,4,2,22,60,0,0
48475,-90.9090909090909,4,2,22,75,0,0
48799,-90.9090909090909,4,2,22,75,0,1
49367,-90.9090909090909,4,2,22,75,0,1
49448,-90.9090909090909,4,2,22,75,0,1
51313,-90.9090909090909,4,2,22,60,0,1
51394,-90.9090909090909,4,2,22,75,0,1
53340,-133.333333333333,4,2,22,75,0,1
53421,-133.333333333333,4,2,22,60,0,1
53502,-133.333333333333,4,2,22,75,0,1
53908,-90.9090909090909,4,2,22,60,0,0
53989,-90.9090909090909,4,2,22,75,0,1
54151,-90.9090909090909,4,2,22,60,0,1
54313,-90.9090909090909,4,2,22,75,0,1
55448,-90.9090909090909,4,2,22,60,0,1
55610,-90.9090909090909,4,2,22,75,0,1
55772,-90.9090909090909,4,2,22,60,0,1
55935,-90.9090909090909,4,2,22,75,0,1
58043,-90.9090909090909,4,2,22,75,0,1
58205,-90.9090909090909,4,2,22,75,0,1
58854,-90.9090909090909,4,2,22,75,0,0
59178,-90.9090909090909,4,2,22,85,0,1
63070,-90.9090909090909,4,2,22,85,0,0
64043,-90.9090909090909,4,2,22,60,0,0
64205,-90.9090909090909,4,2,22,40,0,0
64367,-133.333333333333,4,2,22,40,0,0
73448,-133.333333333333,4,2,22,60,0,0
74745,-90.9090909090909,4,2,22,75,0,1
79286,-133.333333333333,4,2,22,75,0,1
79367,-133.333333333333,4,2,22,60,0,1
79448,-133.333333333333,4,2,22,75,0,1
79854,-90.9090909090909,4,2,22,60,0,0
79935,-90.9090909090909,4,2,22,75,0,1
81718,-90.9090909090909,4,2,22,60,0,1
81881,-90.9090909090909,4,2,22,75,0,1
85043,-90.9090909090909,4,2,22,60,0,0
85124,-90.9090909090909,4,2,22,85,0,1
87070,-90.9090909090909,4,2,22,95,0,1
87718,-133.333333333333,4,2,22,75,0,0
89339,-133.333333333333,4,2,22,5,0,0
89340,-133.333333333333,4,2,22,5,0,0

[Colours]
Combo1 : 105,58,201
Combo2 : 255,128,0
Combo3 : 0,155,230
Combo4 : 255,55,55

[HitObjects]
70,135,800,6,0,P|119:79|200:86,1,150,4|8,1:2|0:0,0:0:0:0:
155,160,1286,2,0,L|150:208,1,37.5,0|0,0:0|1:2,0:0:0:0:
245,150,1448,2,0,L|238:224,1,75,0|0,1:2|1:2,0:0:0:0:
280,65,1772,2,0,P|313:81|350:79,1,75,8|0,0:0|0:0,0:0:0:0:
490,5,2097,6,0,P|453:32|440:68,1,75,0|0,1:2|1:2,0:0:0:0:
490,145,2421,2,0,L|416:151,1,75,8|0,0:0|0:0,0:0:0:0:
395,190,2664,1,0,1:2:0:0:
375,230,2745,1,0,1:2:0:0:
350,79,2908,1,0,1:2:0:0:
465,245,3070,2,0,P|455:281|425:313,1,75,8|0,0:0|1:0,0:0:0:0:
399,323,3313,1,0,1:0:0:0:
399,323,3394,6,0,P|359:273|271:272,1,150,4|8,1:2|0:0,0:0:0:0:
210,340,3881,1,0,0:0:0:0:
205,190,4043,1,8,0:0:0:0:
93,286,4205,2,0,P|65:217|95:144,1,150
70,40,4691,6,0,P|113:19|144:23,1,75,10|10,1:2|1:2,0:0:0:0:
205,190,5016,1,8,0:0:0:0:
230,186,5097,1,8,0:0:0:0:
256,182,5178,1,8,0:0:0:0:
351,255,5340,2,0,L|277:268,1,75,10|10,1:2|1:2,0:0:0:0:
350,165,5664,1,0,0:0:0:0:
330,345,5827,1,2,0:0:0:0:
245,350,5989,6,0,P|211:328|196:298,1,67.4999979400635,6|0,1:2|0:0,0:0:0:0:
120,275,6313,2,0,P|142:241|172:226,1,67.4999979400635,2|0,1:2|0:0,0:0:0:0:
197,93,6637,2,0,P|215:129|213:162,1,67.4999979400635,2|0,1:2|0:0,0:0:0:0:
315,250,6962,2,0,P|274:247|246:229,1,67.4999979400635,2|0,1:2|0:0,0:0:0:0:
305,165,7286,6,0,P|346:168|374:186,1,67.4999979400635,2|0,1:2|0:0,0:0:0:0:
400,265,7610,2,0,P|389:303|366:328,1,67.4999979400635,0|2,1:2|0:0,0:0:0:0:
290,355,7935,2,0,P|252:344|227:321,1,67.4999979400635,2|0,1:2|0:0,0:0:0:0:
165,265,8259,2,0,L|91:271,1,67.4999979400635,0|2,1:2|0:0,0:0:0:0:
40,345,8583,5,2,1:2:0:0:
30,200,8745,1,2,0:0:0:0:
115,180,8908,2,0,L|182:174,1,67.4999979400635,2|2,1:2|0:0,0:0:0:0:
280,180,9232,2,0,L|251:240,1,67.4999979400635,2|0,1:2|0:0,0:0:0:0:
203,320,9556,2,0,L|165:265,1,67.4999979400635,2|2,1:2|0:0,0:0:0:0:
235,100,9881,5,2,1:2:0:0:
280,180,10043,1,2,0:0:0:0:
325,105,10205,2,0,P|356:135|366:166,1,67.4999979400635,2|0,1:2|0:0,0:0:0:0:
450,155,10529,2,0,P|429:216|367:245,1,134.999995880127,2|2,1:2|1:2,0:0:0:0:
280,180,11016,1,2,0:0:0:0:
295,320,11178,6,0,P|250:274|179:268,1,134.999995880127,2|2,1:2|1:2,0:0:0:0:
135,190,11664,1,0,0:0:0:0:
182,267,11827,2,0,L|185:335,1,67.4999979400635,2|0,1:2|0:0,0:0:0:0:
100,340,12151,2,0,L|97:272,1,67.4999979400635,2|0,1:2|0:0,0:0:0:0:
15,265,12394,1,2,0:0:0:0:
15,265,12475,6,0,P|24:228|46:201,1,67.4999979400635,2|0,1:2|0:0,0:0:0:0:
20,80,12799,2,0,P|48:111|79:122,1,67.4999979400635,0|2,1:2|0:0,0:0:0:0:
215,60,13124,2,0,P|177:28|93:40,1,134.999995880127,2|0,1:2|1:2,0:0:0:0:
173,143,13610,1,2,0:0:0:0:
173,143,13691,1,0,0:0:0:0:
173,143,13772,6,0,L|167:217,1,67.4999979400635,2|2,1:2|0:0,0:0:0:0:
255,220,14097,2,0,L|260:152,1,67.4999979400635,2|0,1:2|0:0,0:0:0:0:
200,295,14421,2,0,L|194:369,1,67.4999979400635,2|2,1:2|0:0,0:0:0:0:
282,372,14746,2,0,L|287:304,1,67.4999979400635,2|2,1:2|0:0,0:0:0:0:
255,220,15070,5,2,1:2:0:0:
350,230,15232,2,0,L|417:224,1,67.4999979400635,2|0,0:0|1:2,0:0:0:0:
310,145,15556,1,2,0:0:0:0:
375,325,15718,2,0,L|442:319,1,67.4999979400635,2|0,1:2|0:0,0:0:0:0:
505,250,16043,1,6,1:2:0:0:
505,250,16205,1,2,0:0:0:0:
500,25,16367,6,0,B|466:70|466:70|484:167,1,150,6|10,1:2|0:0,0:0:0:0:
505,250,16854,1,0,1:2:0:0:
417,224,17016,2,0,L|338:230,1,75,2|0,1:2|1:2,0:0:0:0:
367,324,17340,2,0,L|441:318,1,75,10|0,0:0|0:0,0:0:0:0:
320,145,17664,5,2,1:2:0:0:
342,229,17827,1,0,1:0:0:0:
230,125,17989,2,0,P|245:91|281:65,1,75,8|2,0:0|1:2,0:0:0:0:
410,140,18313,1,2,1:2:0:0:
360,60,18475,1,0,1:2:0:0:
255,210,18637,2,0,L|165:218,1,75,8|2,0:0|0:0,0:0:0:0:
100,180,18962,5,2,1:2:0:0:
145,100,19124,1,2,1:2:0:0:
195,300,19286,2,0,L|120:293,1,75,10|2,0:0|1:2,0:0:0:0:
251,369,19610,2,0,P|275:337|281:299,1,75,2|0,1:2|1:2,0:0:0:0:
230,125,19935,1,10,0:0:0:0:
100,180,20097,1,2,0:0:0:0:
195,300,20259,5,2,1:2:0:0:
100,180,20421,1,2,1:2:0:0:
230,125,20583,2,0,L|316:122,1,75,10|0,0:0|1:2,0:0:0:0:
331,97,20827,1,0,1:2:0:0:
331,97,20908,1,2,1:2:0:0:
375,247,21070,1,0,1:0:0:0:
468,56,21232,2,0,L|459:138,1,75,10|2,0:0|0:0,0:0:0:0:
375,247,21556,6,0,P|442:260|511:208,1,150,2|10,1:2|0:0,0:0:0:0:
460,130,22043,1,0,1:0:0:0:
434,132,22124,1,0,1:2:0:0:
408,134,22205,1,2,1:2:0:0:
270,125,22367,1,0,1:2:0:0:
362,48,22529,2,0,L|276:37,1,75,10|0,0:0|0:0,0:0:0:0:
135,140,22854,6,0,B|206:164|206:164|271:124,1,150,2|8,1:2|0:0,0:0:0:0:
195,65,23340,1,2,1:2:0:0:
42,119,23502,2,0,L|49:212,1,75,2|0,1:2|1:2,0:0:0:0:
125,304,23827,2,0,L|130:229,1,75,8|2,0:0|0:0,0:0:0:0:
47,368,24151,5,2,1:2:0:0:
47,368,24313,1,2,1:2:0:0:
217,292,24475,2,0,L|211:366,1,75,10|0,0:0|0:0,0:0:0:0:
129,229,24799,1,2,1:2:0:0:
220,195,24962,1,2,1:2:0:0:
305,245,25124,1,10,0:0:0:0:
390,200,25286,1,2,1:2:0:0:
385,295,25448,5,2,1:2:0:0:
305,150,25610,1,2,1:2:0:0:
385,295,25772,2,0,L|467:289,1,75,8|0,0:0|1:2,0:0:0:0:
390,200,26097,5,8,0:0:0:0:
390,200,26421,2,0,L|469:193,1,56.2500021457673,2|0,0:0|0:0,0:0:0:0:
305,150,26745,6,0,P|287:105|230:83,1,112.500004291535,6|0,1:2|0:0,0:0:0:0:
151,34,27232,1,0,1:1:0:0:
147,127,27394,2,0,B|91:141|96:82|31:102,1,112.500004291535,10|2,0:0|0:0,0:0:0:0:
39,179,27881,1,0,1:2:0:0:
39,179,28043,6,0,P|13:218|26:296,1,112.500004291535,2|0,1:2|0:0,0:0:0:0:
187,327,28691,2,0,P|148:353|70:340,1,112.500004291535,10|2,0:0|0:0,0:0:0:0:
125,270,29178,1,0,1:2:0:0:
210,240,29340,6,0,L|334:249,1,112.500004291535,2|2,1:2|1:2,0:0:0:0:
330,160,29827,1,0,1:2:0:0:
330,160,29989,2,0,L|217:151,1,112.500004291535,10|2,0:0|0:0,0:0:0:0:
224,59,30475,1,0,1:2:0:0:
224,59,30637,6,0,L|337:68,1,112.500004291535,2|0,1:2|0:0,0:0:0:0:
140,105,31286,2,0,L|27:96,1,112.500004291535,10|2,0:0|1:2,0:0:0:0:
15,185,31772,1,0,1:2:0:0:
15,185,31935,6,0,B|59:217|59:217|119:204,1,112.500004291535,2|2,1:2|0:0,0:0:0:0:
255,305,32583,2,0,B|211:337|211:337|151:324,1,112.500004291535,10|2,0:0|0:0,0:0:0:0:
315,230,33232,2,0,P|344:278|339:338,1,112.500004291535,2|2,1:2|0:0,0:0:0:0:
245,170,33881,2,0,P|293:141|353:146,1,112.500004291535,10|2,1:2|0:0,0:0:0:0:
410,205,34367,1,0,1:2:0:0:
410,205,34530,5,2,1:2:0:0:
385,35,34854,1,2,1:2:0:0:
385,35,35016,1,0,1:2:0:0:
301,45,35178,1,10,0:0:0:0:
301,45,35340,1,0,1:2:0:0:
217,54,35502,2,0,L|224:114,1,56.2500021457673,0|0,0:2|1:0,0:0:0:0:
243,234,35827,6,0,P|185:198|182:304,1,225.000008583069,10|8,0:0|0:0,0:0:0:0:
310,354,36637,1,0,1:2:0:0:
310,354,36718,1,0,1:2:0:0:
310,354,36799,2,0,L|314:297,1,56.2500021457673,8|8,0:0|0:0,0:0:0:0:
243,234,37124,6,0,L|247:177,1,56.2500021457673,0|8,1:2|0:0,0:0:0:0:
275,160,37367,2,0,L|279:103,1,56.2500021457673,0|8,1:2|0:0,0:0:0:0:
310,85,37610,2,0,L|314:28,2,56.2500021457673,0|8|0,1:2|0:0|0:0,0:0:0:0:
375,160,38097,6,0,P|421:173|467:158,1,95.6250018239022,2|0,0:0|0:0,0:0:0:0:
485,135,38421,6,0,L|473:305,1,165.000005035401,6|8,1:2|0:0,0:0:0:0:
398,363,38908,1,2,1:2:0:0:
398,363,38989,1,0,1:0:0:0:
398,363,39070,2,0,P|357:334|323:333,1,82.5000025177003,2|0,1:2|1:2,0:0:0:0:
200,290,39394,2,0,P|245:268|263:240,1,82.5000025177003,8|2,0:0|0:0,0:0:0:0:
355,160,39718,6,0,P|350:210|366:239,1,82.5000025177003,2|0,1:2|1:2,0:0:0:0:
504,131,40043,2,0,P|463:102|429:101,1,82.5000025177003,8|2,0:0|1:2,0:0:0:0:
369,39,40286,1,0,1:2:0:0:
369,39,40367,2,0,P|328:68|294:69,1,82.5000025177003,2|0,1:2|1:2,0:0:0:0:
135,10,40691,2,0,P|184:15|210:37,1,82.5000025177003,8|2,0:0|0:2,0:0:0:0:
220,125,41016,6,0,P|189:165|157:176,1,82.5000025177003,2|0,1:2|1:0,0:0:0:0:
5,105,41340,2,0,P|54:110|80:132,1,82.5000025177003,8|2,0:0|1:2,0:0:0:0:
79,224,41583,1,0,1:0:0:0:
79,224,41664,2,0,P|75:264|93:300,1,82.5000025177003,2|0,1:2|1:2,0:0:0:0:
175,345,41989,2,0,P|215:348|251:330,1,82.5000025177003,8|2,0:0|0:0,0:0:0:0:
331,236,42313,6,0,P|305:275|333:387,1,165.000005035401,2|8,1:2|0:0,0:0:0:0:
401,329,42799,1,0,1:0:0:0:
401,329,42881,1,0,1:0:0:0:
401,329,42962,2,0,L|504:338,1,82.5000025177003,0|0,1:2|1:2,0:0:0:0:
331,236,43286,2,0,L|248:228,1,82.5000025177003,8|2,0:0|0:0,0:0:0:0:
440,220,43610,6,0,B|464:173|464:173|452:54,1,165.000005035401,6|8,1:2|0:0,0:0:0:0:
360,30,44097,1,2,1:2:0:0:
365,75,44178,1,0,1:0:0:0:
370,125,44259,1,2,1:2:0:0:
453,61,44421,1,0,1:2:0:0:
280,95,44583,2,0,L|197:87,1,82.5000025177003,8|2,0:0|0:0,0:0:0:0:
14,196,44908,6,0,P|99:211|156:164,1,165.000005035401,2|8,1:2|0:0,0:0:0:0:
83,48,45394,1,2,1:2:0:0:
83,48,45475,1,0,1:0:0:0:
83,48,45556,2,0,P|67:98|79:137,1,82.5000025177003,2|0,1:2|1:2,0:0:0:0:
245,185,45881,1,8,0:0:0:0:
230,0,46043,1,2,0:0:0:0:
335,185,46205,6,0,P|299:258|216:273,1,165.000005035401,2|8,1:2|0:0,0:0:0:0:
123,253,46691,1,2,1:2:0:0:
123,253,46772,1,0,1:0:0:0:
123,253,46854,2,0,L|130:352,1,82.5000025177003,2|0,1:2|1:2,0:0:0:0:
245,185,47178,2,0,L|239:102,1,82.5000025177003,8|2,0:0|0:0,0:0:0:0:
223,274,47502,5,10,1:2:0:0:
320,49,47664,1,10,1:2:0:0:
320,49,48151,5,10,1:2:0:0:
223,274,48313,2,0,L|275:269,1,41.2500012588501,10|0,1:2|0:0,0:0:0:0:
280,356,48475,1,8,0:0:0:0:
317,353,48556,1,8,0:0:0:0:
354,350,48637,1,10,0:0:0:0:
391,348,48718,1,8,0:0:0:0:
428,346,48799,6,0,B|406:298|406:298|426:187,1,165.000005035401,6|8,1:2|0:0,0:0:0:0:
493,114,49286,1,2,1:2:0:0:
493,114,49367,1,0,1:0:0:0:
493,114,49448,2,0,P|401:142|340:92,1,165.000005035401,2|8,1:2|0:0,0:0:0:0:
275,55,49935,1,2,0:0:0:0:
265,145,50097,6,0,L|148:131,1,82.5000025177003,2|0,1:2|1:2,0:0:0:0:
165,225,50421,2,0,L|48:211,1,82.5000025177003,8|2,0:0|1:2,0:0:0:0:
49,214,50664,1,0,1:2:0:0:
49,214,50745,2,0,L|62:298,1,82.5000025177003,2|0,1:2|1:2,0:0:0:0:
218,383,51070,2,0,L|230:301,1,82.5000025177003,8|2,0:0|1:2,0:0:0:0:
309,246,51313,1,0,1:0:0:0:
309,246,51394,6,0,P|232:269|165:224,1,165.000005035401,2|8,1:2|0:0,0:0:0:0:
223,153,51881,1,2,1:2:0:0:
223,153,51962,1,0,1:2:0:0:
223,153,52043,2,0,P|237:102|232:71,1,82.5000025177003,2|0,1:2|1:2,0:0:0:0:
160,15,52367,2,0,P|119:11|80:24,1,82.5000025177003,8|2,0:0|0:2,0:0:0:0:
20,190,52691,6,0,P|97:170|129:97,1,165.000005035401,2|12,1:2|0:0,0:0:0:0:
40,100,53178,1,0,0:2:0:0:
175,220,53340,5,2,1:2:0:0:
177,247,53421,1,0,1:0:0:0:
186,274,53502,1,8,0:0:0:0:
203,297,53583,1,8,0:0:0:0:
224,315,53664,1,8,0:0:0:0:
249,327,53745,1,8,0:0:0:0:
277,332,53826,1,8,0:0:0:0:
305,330,53907,1,8,0:0:0:0:
331,320,53989,6,0,P|308:286|306:242,1,82.5000025177003,6|0,1:2|0:0,0:0:0:0:
340,160,54313,2,0,P|374:137|418:135,1,82.5000025177003,8|0,0:0|0:0,0:0:0:0:
250,170,54637,2,0,P|213:152|189:114,1,82.5000025177003,2|0,1:2|0:0,0:0:0:0:
210,30,54962,2,0,P|246:47|269:81,1,82.5000025177003,8|0,0:0|0:0,0:0:0:0:
110,140,55286,6,0,P|107:99|124:62,1,82.5000025177003,2|0,1:2|0:0,0:0:0:0:
172,202,55610,2,0,P|138:224|97:227,1,82.5000025177003,8|0,0:0|0:0,0:0:0:0:
190,118,55935,2,0,P|226:135|249:169,1,82.5000025177003,2|0,1:2|0:0,0:0:0:0:
231,253,56259,2,0,P|194:235|171:201,1,82.5000025177003,8|0,0:0|0:0,0:0:0:0:
330,145,56583,6,0,P|334:185|317:222,1,82.5000025177003,6|0,1:2|0:0,0:0:0:0:
285,60,56908,2,0,L|369:54,1,82.5000025177003,8|0,0:0|0:0,0:0:0:0:
505,125,57232,2,0,L|422:130,1,82.5000025177003,2|0,1:2|0:0,0:0:0:0:
316,222,57556,2,0,L|400:216,1,82.5000025177003,8|0,0:0|0:0,0:0:0:0:
425,300,57881,6,0,P|468:268|479:241,1,82.5000025177003,2|0,1:2|0:0,0:0:0:0:
340,315,58205,2,0,P|359:356|393:376,1,82.5000025177003,8|0,0:0|0:0,0:0:0:0:
255,315,58529,2,0,P|236:356|202:376,1,82.5000025177003,2|0,1:2|0:0,0:0:0:0:
116,242,58854,2,0,P|135:278|170:300,1,82.5000025177003,8|0,0:0|0:0,0:0:0:0:
210,135,59178,6,0,L|199:226,1,82.5000025177003,14|0,0:0|0:0,0:0:0:0:
115,150,59502,1,10,0:0:0:0:
150,65,59664,1,0,0:0:0:0:
321,59,59827,2,0,L|240:50,1,82.5000025177003,10|0,0:0|0:0,0:0:0:0:
291,144,60151,2,0,L|210:135,1,82.5000025177003,10|0,0:0|0:0,0:0:0:0:
385,135,60475,5,10,0:0:0:0:
350,220,60637,1,0,0:0:0:0:
322,59,60799,1,10,0:0:0:0:
475,120,60962,1,0,0:0:0:0:
415,50,61124,1,10,0:0:0:0:
292,145,61286,1,0,0:0:0:0:
447,207,61448,2,0,P|496:209|532:188,1,82.5000025177003,10|0,0:0|0:0,0:0:0:0:
350,220,61772,5,10,0:0:0:0:
210,135,61935,1,0,0:0:0:0:
325,310,62097,2,0,P|279:293|244:301,1,82.5000025177003,10|0,0:0|0:0,2:0:0:0:
277,383,62421,5,10,0:0:0:0:
350,220,62583,1,0,0:0:0:0:
160,285,62745,2,0,P|183:237|214:220,1,82.5000025177003,10|2,0:0|0:0,2:0:0:0:
247,299,63070,5,10,1:2:0:0:
100,360,63232,1,10,1:2:0:0:
188,372,63718,5,10,1:2:0:0:
30,220,63881,1,10,1:2:0:0:
100,160,64043,2,0,L|94:68,1,82.5000025177003,0|2,0:0|0:0,0:0:0:0:
180,50,64367,6,0,L|187:162,1,112.500004291535,6|0,0:0|0:0,0:0:0:0:
145,235,64854,1,2,0:0:0:0:
100,160,65016,2,0,L|92:47,1,112.500004291535,2|0,0:0|0:0,0:0:0:0:
10,20,65502,1,2,0:0:0:0:
10,110,65664,6,0,L|17:222,1,112.500004291535,2|0,0:0|0:0,0:0:0:0:
20,310,66151,1,2,0:0:0:0:
20,310,66313,2,0,L|132:303,1,112.500004291535,2|0,0:0|0:0,0:0:0:0:
205,355,66799,1,2,0:0:0:0:
205,355,66962,6,0,P|260:358|305:323,1,112.500004291535,2|0,0:0|0:0,0:0:0:0:
385,350,67448,1,2,0:0:0:0:
385,350,67610,2,0,P|388:295|353:250,1,112.500004291535,2|0,0:0|0:0,0:0:0:0:
270,240,68097,1,2,0:0:0:0:
270,240,68259,6,0,P|293:190|347:168,1,112.500004291535,2|0,0:0|0:0,0:0:0:0:
425,195,68745,1,2,0:0:0:0:
425,195,68908,2,0,P|390:151|395:96,1,112.500004291535,2|0,0:0|0:0,0:0:0:0:
435,20,69394,1,2,0:0:0:0:
435,20,69556,6,0,P|382:10|330:38,1,112.500004291535,2|0,0:0|0:0,0:0:0:0:
305,120,70043,1,2,0:0:0:0:
305,120,70205,2,0,B|260:117|260:117|245:126|245:126|186:121,1,112.500004291535,2|0,0:0|0:0,0:0:0:0:
125,70,70691,1,2,0:0:0:0:
125,70,70854,6,0,B|66:45|75:101|12:75,1,112.500004291535,2|0,0:0|0:0,0:0:0:0:
105,155,71340,1,2,0:0:0:0:
105,155,71503,2,0,B|42:168|81:209|15:223,1,112.500004291535,2|0,0:0|0:0,0:0:0:0:
140,240,71989,1,2,0:0:0:0:
140,240,72152,6,0,B|100:290|157:296|115:350,1,112.500004291535,2|0,0:0|0:0,0:0:0:0:
215,285,72637,1,2,0:0:0:0:
215,285,72800,2,0,B|228:347|269:308|283:374,1,112.500004291535,2|0,0:0|0:0,0:0:0:0:
295,250,73286,1,0,0:0:0:0:
510,195,73448,5,10,1:2:0:0:
295,250,73610,1,10,1:2:0:0:
510,195,74097,5,10,1:2:0:0:
295,250,74259,1,10,1:2:0:0:
295,250,74583,1,2,0:0:0:0:
375,285,74745,6,0,P|373:208|301:162,1,165.000005035401,6|8,1:2|0:0,0:0:0:0:
258,73,75232,1,2,1:2:0:0:
258,73,75313,1,0,1:2:0:0:
258,73,75394,2,0,P|233:107|194:120,1,82.5000025177003,2|0,1:2|1:2,0:0:0:0:
55,25,75718,2,0,P|96:29|127:56,1,82.5000025177003,8|2,0:0|0:0,0:0:0:0:
115,225,76043,6,0,P|98:186|106:146,1,82.5000025177003,2|0,1:2|1:2,0:0:0:0:
210,215,76367,1,8,0:0:0:0:
170,300,76529,1,2,1:2:0:0:
164,320,76610,1,0,1:2:0:0:
156,338,76691,2,0,L|243:336,1,82.5000025177003,2|0,1:2|1:2,0:0:0:0:
292,213,77016,2,0,L|210:215,1,82.5000025177003,8|2,0:0|0:0,0:0:0:0:
355,130,77340,6,0,B|392:181|392:181|380:287,1,165.000005035401,6|8,1:2|0:0,0:0:0:0:
378,378,77827,1,2,1:2:0:0:
378,378,77908,1,0,1:2:0:0:
378,378,77989,2,0,L|472:366,1,82.5000025177003,2|0,1:2|1:2,0:0:0:0:
292,213,78313,2,0,L|210:223,1,82.5000025177003,8|2,0:0|0:2,0:0:0:0:
150,150,78637,6,0,P|97:193|101:300,1,165.000005035401,2|12,1:2|0:0,0:0:0:0:
165,365,79124,1,0,0:0:0:0:
255,325,79286,5,2,1:2:0:0:
281,315,79367,1,0,1:0:0:0:
309,313,79448,1,8,0:0:0:0:
336,319,79529,1,8,0:0:0:0:
360,333,79610,1,8,0:0:0:0:
385,347,79691,1,8,0:0:0:0:
413,351,79772,1,8,0:0:0:0:
440,345,79853,1,8,0:0:0:0:
466,334,79935,6,0,P|496:273|457:174,1,165.000005035401,6|8,1:2|0:0,0:0:0:0:
405,125,80421,1,0,0:0:0:0:
468,184,80583,2,0,P|423:212|386:209,1,82.5000025177003,2|0,1:2|0:0,0:0:0:0:
340,65,80908,2,0,P|372:40|413:37,1,82.5000025177003,8|0,0:0|0:0,0:0:0:0:
315,155,81232,6,0,B|239:112|239:185|158:154,1,165.000005035401,2|8,1:2|0:0,0:0:0:0:
195,75,81718,1,0,0:0:0:0:
70,155,81881,2,0,P|75:117|107:81,1,82.5000025177003,2|0,1:2|0:0,0:0:0:0:
115,230,82205,2,0,P|79:243|28:233,1,82.5000025177003,8|0,0:0|0:0,0:0:0:0:
158,154,82529,6,0,P|201:218|172:299,1,165.000005035401,6|8,1:2|0:0,0:0:0:0:
95,325,83016,1,0,0:0:0:0:
175,296,83178,2,0,L|272:305,1,82.5000025177003,2|0,1:2|0:0,0:0:0:0:
380,230,83502,2,0,L|297:222,1,82.5000025177003,8|0,0:0|0:0,0:0:0:0:
430,310,83827,6,0,B|466:273|466:273|470:156,1,165.000005035401,2|8,1:2|0:0,0:0:0:0:
385,135,84313,1,0,0:0:0:0:
450,75,84475,2,0,P|415:51|371:48,1,82.5000025177003,6|0,1:2|0:0,0:0:0:0:
304,95,84799,2,0,P|294:134|303:173,1,82.5000025177003,12|0,0:0|0:0,0:0:0:0:
385,135,85124,5,14,0:0:0:0:
300,5,85286,1,0,0:0:0:0:
304,174,85448,2,0,P|265:165|226:177,1,82.5000025177003,10|0,0:0|0:0,0:0:0:0:
375,230,85772,1,10,0:0:0:0:
225,177,85935,1,0,0:0:0:0:
230,330,86097,2,0,P|195:344|151:336,1,82.5000025177003,10|0,0:0|0:0,0:0:0:0:
100,188,86421,6,0,B|84:227|84:227|95:265,1,82.5000025177003,10|0,0:0|0:0,0:0:0:0:
53,109,86745,2,0,B|92:93|92:93|130:104,1,82.5000025177003,10|0,0:0|0:0,0:0:0:0:
310,130,87070,1,10,0:0:0:0:
190,35,87232,1,0,0:0:0:0:
220,120,87394,1,10,0:0:0:0:
280,45,87556,1,0,0:0:0:0:
310,130,87718,6,0,B|329:206|306:242|247:253|280:335|339:369|339:369|389:339|439:254|375:243|382:206|402:172|402:172|364:180|350:224,1,562.500021457673,2|0,0:0|0:0,0:0:0:0:
