osu file format v14

[General]
AudioFilename: audio.mp3
AudioLeadIn: 0
PreviewTime: 38128
Countdown: 0
SampleSet: Soft
StackLeniency: 0.4
Mode: 0
LetterboxInBreaks: 0
WidescreenStoryboard: 0

[Editor]
DistanceSpacing: 1.3
BeatDivisor: 8
GridSize: 32
TimelineZoom: 3.599998

[Metadata]
Title:Inferno (TV Size)
TitleUnicode:インフェルノ (TV Size)
Artist:Mrs. GREEN APPLE
ArtistUnicode:Mrs. GREEN APPLE
Creator:Reform
Version:Haruto's Extra
Source:炎炎ノ消防隊
Tags:Kujinn [_Eli_] Logic Agent Eli MaestroSplinter browiec Nelliel OnlyBiscuit brotarks Haruto haruto_aizawa KittyAdventure gokugohan12468 Ipas toybot AnzeigeistRaus Anzei FuJu Japanese fire force brigade of flames Enen no Shouboutai opening op anime ミセスグリーンアップル motoki omori 大森元貴 hiroto wakai 若井滉斗 ayaka yamanaka 山中綾華 ryoka fujisawa 藤澤涼架 kiyokatsu takano 髙野清宗
BeatmapID:2123906
BeatmapSetID:999126

[Difficulty]
HPDrainRate:6
CircleSize:4.3
OverallDifficulty:8.6
ApproachRate:9.3
SliderMultiplier:1.76
SliderTickRate:1

[Events]
//Background and Video events
0,0,"BG.jpg",0,0
//Break Periods
//Storyboard Layer 0 (Background)
//Storyboard Layer 1 (Fail)
//Storyboard Layer 2 (Pass)
//Storyboard Layer 3 (Foreground)
//Storyboard Layer 4 (Overlay)
//Storyboard Sound Samples

[TimingPoints]
800,324.324324324324,4,2,22,65,1,0
2016,-100,4,2,22,70,0,0
2097,-100,4,2,22,65,0,0
5421,-100,4,2,22,70,0,0
5502,-100,4,2,22,65,0,0
5583,-100,4,2,22,70,0,0
5827,-100,4,2,22,45,0,0
5989,-111.111111111111,4,2,22,45,0,0
7205,-111.111111111111,4,2,22,60,0,0
7286,-111.111111111111,4,2,22,45,0,0
7448,-111.111111111111,4,2,22,60,0,0
7610,-111.111111111111,4,2,22,45,0,0
8502,-111.111111111111,4,2,22,60,0,0
8583,-135.135135135135,4,2,22,45,0,0
9799,-135.135135135135,4,2,22,60,0,0
9881,-135.135135135135,4,2,22,45,0,0
12394,-135.135135135135,4,2,22,60,0,0
12475,-135.135135135135,4,2,22,45,0,0
12637,-135.135135135135,4,2,22,60,0,0
12799,-135.135135135135,4,2,22,45,0,0
14989,-135.135135135135,4,2,22,60,0,0
15070,-135.135135135135,4,2,22,45,0,0
15718,-100,4,2,22,45,0,0
15961,-100,4,2,22,60,0,0
16043,-47.6190476190476,4,2,22,45,0,0
16367,-100,4,2,22,55,0,0
16529,-100,4,2,22,60,0,0
16691,-100,4,2,22,55,0,0
18881,-100,4,2,22,60,0,0
18962,-100,4,2,22,55,0,0
20178,-100,4,2,22,60,0,0
20259,-100,4,2,22,55,0,0
21232,-90.9090909090909,4,2,22,55,0,0
21475,-90.9090909090909,4,2,22,60,0,0
21556,-100,4,2,22,55,0,0
26421,-133.333333333333,4,2,22,55,0,0
26745,-133.333333333333,4,2,22,40,0,0
27313,-133.333333333333,4,2,22,60,0,0
27394,-133.333333333333,4,2,22,40,0,0
28529,-133.333333333333,4,2,22,60,0,0
28691,-133.333333333333,4,2,22,40,0,0
35827,-95.2380952380951,4,2,22,40,0,0
36151,-95.2380952380951,4,2,22,60,0,0
36232,-95.2380952380951,4,2,22,40,0,0
36758,-95.2380952380951,4,2,22,60,0,0
36799,-95.2380952380951,4,2,22,40,0,0
36880,-95.2380952380951,4,2,22,60,0,0
36961,-95.2380952380951,4,2,22,40,0,0
36962,-95.2380952380951,4,2,22,40,0,0
37043,-95.2380952380951,4,2,22,60,0,0
37124,-95.2380952380951,4,2,22,40,0,0
37286,-95.2380952380951,4,2,22,40,0,0
37853,-95.2380952380951,4,2,22,60,0,0
38097,-78.125,4,2,22,40,0,0
38340,-78.125,4,2,22,60,0,0
38421,-98.0392156862745,4,2,22,75,0,1
38989,-98.0392156862745,4,2,22,75,0,1
39070,-98.0392156862745,4,2,22,75,0,1
39637,-98.0392156862745,4,2,22,70,0,1
39718,-98.0392156862745,4,2,22,75,0,1
43043,-98.0392156862745,4,2,22,75,0,1
43124,-98.0392156862745,4,2,22,75,0,1
43205,-98.0392156862745,4,2,22,70,0,1
43286,-98.0392156862745,4,2,22,75,0,1
43772,-98.0392156862745,4,2,22,70,0,1
43935,-98.0392156862745,4,2,22,75,0,1
45475,-98.0392156862745,4,2,22,75,0,1
45556,-98.0392156862745,4,2,22,75,0,1
46367,-98.0392156862745,4,2,22,75,0,1
46529,-98.0392156862745,4,2,22,75,0,1
46772,-98.0392156862745,4,2,22,75,0,1
46854,-98.0392156862745,4,2,22,75,0,1
47502,-90.9090909090909,4,2,22,75,0,0
48151,-76.9230769230769,4,2,22,75,0,0
48799,-94.3396226415094,4,2,22,75,0,1
53989,-94.3396226415094,4,2,22,70,0,0
54313,-94.3396226415094,4,2,22,75,0,0
58448,-94.3396226415094,4,2,22,70,0,0
58529,-94.3396226415094,4,2,22,75,0,0
59178,-94.3396226415094,4,2,22,85,0,1
64205,-94.3396226415094,4,2,22,40,0,1
64367,-135.135135135135,4,2,22,40,0,0
74097,-76.9230769230769,4,2,22,60,0,0
74745,-96.1538461538461,4,2,22,75,0,1
78556,-96.1538461538461,4,2,22,60,0,1
78637,-96.1538461538461,4,2,22,75,0,1
79935,-108.695652173913,4,2,22,75,0,0
80097,-108.695652173913,4,2,22,60,0,0
80259,-108.695652173913,4,2,22,75,0,0
83989,-108.695652173913,4,2,22,60,0,0
84151,-89.2857142857143,4,2,22,75,0,0
84475,-81.9672131147541,4,2,22,75,0,0
84799,-75.7575757575758,4,2,22,75,0,0
85124,-90.9090909090909,4,2,22,85,0,1
87070,-90.9090909090909,4,2,22,95,0,1
87718,-185.185185185185,4,2,22,75,0,0
89340,-133.333333333333,4,2,1,5,0,0

[Colours]
Combo1 : 105,58,201
Combo2 : 255,128,0
Combo3 : 0,155,230
Combo4 : 255,55,55

[HitObjects]
150,185,800,6,0,B|230:192|237:134|319:145,1,176,4|8,1:2|0:0,0:0:0:0:
222,302,1286,2,0,L|232:355,2,44,0|0|0,1:0|1:2|1:2,0:0:0:0:
288,233,1610,1,0,1:2:0:0:
412,356,1772,1,8,0:0:0:0:
163,89,1935,5,0,1:0:0:0:
163,89,2016,1,0,1:0:0:0:
163,89,2097,2,0,P|114:80|68:69,1,88,0|0,1:2|1:2,0:0:0:0:
288,233,2421,2,0,P|330:223|411:208,1,88,8|0,0:0|0:0,0:0:0:0:
114,355,2745,6,0,P|100:316|109:255,1,88,0|0,1:2|1:2,0:0:0:0:
378,1,3070,2,0,P|392:40|383:101,1,88,8|0,0:0|0:0,0:0:0:0:
317,144,3394,6,0,L|119:115,1,176,4|8,1:2|0:0,0:0:0:0:
105,38,3881,1,0,0:0:0:0:
187,227,4043,1,8,0:0:0:0:
302,51,4205,1,0,0:0:0:0:
33,235,4367,1,8,0:0:0:0:
142,118,4529,1,0,0:0:0:0:
234,314,4691,1,10,1:2:0:0:
234,314,4854,1,10,1:2:0:0:
307,254,5016,5,8,0:0:0:0:
350,257,5097,1,8,0:0:0:0:
389,277,5178,1,8,0:0:0:0:
416,311,5259,1,8,0:0:0:0:
428,354,5340,6,0,L|380:364,1,44,10|0,1:2|0:0,0:0:0:0:
263,170,5502,2,0,L|215:160,1,44,10|0,1:2|2:0,0:0:0:0:
461,18,5827,5,2,0:0:0:0:
461,18,5989,2,0,P|449:63|443:119,2,79.1999975830079,6|0|2,1:2|0:0|1:2,0:0:0:0:
321,332,6637,2,0,P|314:292|304:254,1,79.1999975830079,2|0,1:2|0:0,0:0:0:0:
263,170,6962,2,0,P|212:215|161:218,1,118.799996374512,2|0,1:2|0:0,0:0:0:0:
141,209,7286,1,2,1:2:0:0:
239,3,7448,6,0,P|228:41|222:80,1,79.1999975830079,0|0,0:0|1:2,0:0:0:0:
321,332,7935,2,0,P|314:292|304:254,1,79.1999975830079,2|0,1:2|0:0,0:0:0:0:
354,174,8259,2,0,L|474:191,1,118.799996374512,0|0,1:2|0:0,0:0:0:0:
492,179,8583,6,0,P|499:139|509:101,2,65.1200015898438,2|2|2,1:2|0:0|1:2,0:0:0:0:
321,332,9232,2,0,P|361:339|399:349,2,65.1200015898438,2|0|2,1:2|0:0|1:2,0:0:0:0:
251,269,9718,1,2,0:0:0:0:
251,269,9799,1,0,0:0:0:0:
251,269,9881,6,0,P|227:311|225:345,1,65.1200015898438,2|2,1:2|0:0,0:0:0:0:
48,229,10205,2,0,L|184:207,1,130.240003179688,2|2,1:2|1:2,0:0:0:0:
424,64,10854,2,0,P|423:15|408:-14,1,65.1200015898438,2|2,1:2|0:0,0:0:0:0:
343,109,11178,6,0,L|355:186,2,65.1200015898438,2|0|2,1:2|0:0|1:2,0:0:0:0:
153,365,11827,2,0,L|164:301,2,65.1200015898438,2|0|2,1:2|0:0|1:2,0:0:0:0:
59,116,12313,1,0,0:0:0:0:
59,116,12394,1,0,0:0:0:0:
59,116,12475,6,0,P|106:125|126:150,1,65.1200015898438,2|0,1:2|0:0,0:0:0:0:
176,208,12799,2,0,L|312:186,1,130.240003179688,0|2,1:2|1:2,0:0:0:0:
79,311,13286,1,0,0:0:0:0:
79,311,13448,2,0,L|93:222,1,65.1200015898438,0|2,1:2|0:0,0:0:0:0:
204,119,13691,5,0,0:0:0:0:
216,107,13772,2,0,L|201:18,2,65.1200015898438,2|2|2,1:2|0:0|1:2,0:0:0:0:
419,319,14421,2,0,L|408:383,2,65.1200015898438,2|2|2,1:2|0:0|1:2,0:0:0:0:
488,266,14908,1,2,0:0:0:0:
488,266,14989,1,0,0:0:0:0:
488,266,15070,6,0,P|449:236|415:234,1,65.1200015898438,2|2,1:2|0:0,0:0:0:0:
250,219,15394,2,0,P|289:189|323:187,1,65.1200015898438,0|2,1:2|0:0,0:0:0:0:
390,150,15718,6,0,B|396:105|396:105|379:73|379:73|386:15,1,132,2|0,1:2|0:0,0:0:0:0:
482,147,16043,6,0,P|435:72|346:68,1,184.799994360352,6|2,1:2|0:0,0:0:0:0:
184,283,16367,6,0,P|193:325|199:375,1,88,6|0,1:2|0:0,0:0:0:0:
112,225,16691,2,0,P|117:181|126:138,1,88,10|0,0:0|1:2,0:0:0:0:
0,352,17016,2,0,P|37:315|88:309,1,88,2|0,1:2|1:2,0:0:0:0:
271,234,17340,2,0,P|234:197|183:191,1,88,10|0,0:0|0:0,0:0:0:0:
22,2,17664,6,0,P|60:41|209:38,1,176,2|8,1:2|0:0,0:0:0:0:
257,9,18151,1,2,1:2:0:0:
257,9,18232,1,0,1:2:0:0:
257,9,18313,1,2,1:2:0:0:
22,204,18475,1,0,1:2:0:0:
92,139,18637,2,0,P|104:185|114:237,1,88,8|2,0:0|1:2,0:0:0:0:
161,351,18881,5,0,1:0:0:0:
172,365,18962,2,0,P|180:321|191:279,1,88,2|2,1:2|1:2,0:0:0:0:
252,202,19286,1,10,0:0:0:0:
92,139,19448,1,2,1:2:0:0:
270,339,19610,1,2,1:2:0:0:
318,104,19772,1,0,1:2:0:0:
190,279,19935,1,10,0:0:0:0:
329,259,20097,5,2,1:2:0:0:
339,250,20178,1,0,1:0:0:0:
349,241,20259,2,0,L|452:222,1,88,2|2,1:2|1:2,0:0:0:0:
466,362,20583,2,0,L|379:346,1,88,10|0,0:0|1:2,0:0:0:0:
318,104,20908,2,0,L|404:119,1,88,2|0,1:2|1:0,0:0:0:0:
219,195,21232,6,0,B|155:205|146:159|75:173,1,145.200004431152,10|0,0:0|0:0,0:0:0:0:
64,158,21556,6,0,P|73:102|76:63,1,88,2|0,1:2|0:0,0:0:0:0:
186,281,21881,2,0,P|177:337|174:376,1,88,10|0,0:0|1:0,0:0:0:0:
0,278,22124,5,0,1:2:0:0:
22,288,22205,2,0,P|70:279|107:242,1,88,2|0,1:2|1:2,0:0:0:0:
298,126,22529,2,0,P|250:117|213:80,1,88,10|0,0:0|0:0,0:0:0:0:
176,13,22854,5,2,1:2:0:0:
219,195,23016,1,0,1:2:0:0:
262,377,23178,1,8,0:0:0:0:
327,306,23340,5,2,1:2:0:0:
334,299,23421,1,0,1:2:0:0:
341,292,23502,2,0,P|389:281|439:267,1,88,2|0,1:2|1:2,0:0:0:0:
128,133,23827,2,0,P|80:144|30:158,1,88,8|2,0:0|0:0,0:0:0:0:
239,286,24151,5,2,1:2:0:0:
219,195,24313,1,2,1:2:0:0:
128,229,24475,1,10,0:0:0:0:
295,36,24637,2,0,L|283:81,2,44,0|0|2,1:0|1:2|1:2,0:0:0:0:
327,306,24962,1,2,1:2:0:0:
128,133,25124,1,10,0:0:0:0:
53,298,25286,1,2,1:2:0:0:
223,177,25448,5,2,1:2:0:0:
219,195,25610,5,2,1:2:0:0:
65,51,25772,1,8,0:0:0:0:
149,330,25935,5,0,1:2:0:0:
216,6,26097,1,8,0:0:0:0:
216,6,26421,1,2,0:0:0:0:
216,6,26745,6,0,P|284:26|351:33,1,132.000005035401,6|0,1:2|0:0,0:0:0:0:
412,98,27232,1,0,1:1:0:0:
412,98,27313,1,0,1:0:0:0:
412,98,27394,2,0,L|399:172,1,66.0000025177003,10|0,0:0|0:0,0:0:0:0:
330,260,27718,1,2,0:0:0:0:
326,251,27881,1,0,1:2:0:0:
335,253,28043,6,0,L|311:117,1,132.000005035401,2|0,1:2|0:0,0:0:0:0:
226,113,28529,1,0,0:0:0:0:
335,253,28691,6,0,P|318:291|313:323,1,66.0000025177003,10|0,0:0|0:0,0:0:0:0:
398,348,29016,2,0,P|415:310|420:278,1,66.0000025177003,2|0,0:0|1:2,0:0:0:0:
242,211,29340,6,0,P|187:223|151:298,2,132.000005035401,2|2|10,1:2|1:2|0:0,0:0:0:0:
90,359,30151,1,0,1:2:0:0:
0,279,30313,2,0,L|65:267,1,66.0000025177003,2|0,0:0|1:2,0:0:0:0:
95,182,30637,6,0,P|101:144|83:48,1,132.000005035401,2|0,1:2|0:0,0:0:0:0:
16,0,31124,1,0,1:2:0:0:
181,116,31286,2,0,L|256:103,1,66.0000025177003,10|0,0:0|1:2,0:0:0:0:
266,101,31529,1,0,1:2:0:0:
288,97,31610,1,2,1:2:0:0:
0,279,31772,1,0,1:2:0:0:
90,358,31935,6,0,B|135:347|135:347|155:323|155:323|208:309,1,132.000005035401,2|2,1:2|0:0,0:0:0:0:
266,240,32421,1,0,1:2:0:0:
112,204,32583,6,0,L|181:220,1,66.0000025177003,10|0,0:0|0:0,0:0:0:0:
297,327,32908,2,0,L|366:311,1,66.0000025177003,2|0,0:0|1:2,0:0:0:0:
330,19,33232,6,0,P|300:71|287:149,2,132.000005035401,2|2|10,1:2|0:0|1:2,0:0:0:0:
176,218,34205,2,0,P|158:171|151:126,1,66.0000025177003,2|0,0:0|1:2,0:0:0:0:
158,64,34529,6,0,L|21:42,1,132.000005035401,2|2,1:2|1:2,0:0:0:0:
209,302,35016,2,0,L|274:291,1,66.0000025177003,0|10,1:2|0:0,0:0:0:0:
64,384,35340,2,0,P|81:337|92:251,1,132.000005035401,0|0,1:2|1:0,0:0:0:0:
37,187,35827,5,10,0:0:0:0:
162,384,35989,1,8,0:0:0:0:
174,371,36070,2,0,L|168:316,1,46.1999985900879,0|0,1:2|0:0,0:0:0:0:
218,262,36232,1,8,1:2:0:0:
233,256,36313,1,0,1:2:0:0:
0,301,36475,5,8,0:0:0:0:
137,84,36637,2,0,L|130:119,3,23.099999295044,0|0|0|0,1:2|1:2|1:2|0:0,1:2:0:0:
147,122,36799,2,0,P|140:162|148:215,1,92.3999971801759,8|8,0:0|0:0,0:0:0:0:
367,247,37124,5,0,1:2:0:0:
493,128,37286,5,8,0:0:0:0:
487,147,37367,1,0,1:2:0:0:
403,370,37529,5,8,0:0:0:0:
391,333,37610,1,0,1:2:0:0:
302,179,37772,6,0,L|244:170,1,46.1999985900879,8|0,0:0|0:0,0:0:0:0:
450,266,37935,2,0,L|495:273,1,46.1999985900879,0|0,1:0|1:0,0:0:0:0:
455,5,38097,6,0,P|409:76|392:158,1,168.96,2|0,0:0|0:0,0:0:0:0:
296,353,38421,6,0,B|213:363|205:302|123:312,1,179.520001095703,6|8,1:2|0:0,0:0:0:0:
50,372,38908,1,2,1:2:0:0:
50,372,38989,1,0,1:0:0:0:
50,372,39070,1,2,1:2:0:0:
222,231,39232,1,0,1:2:0:0:
21,82,39394,1,8,0:0:0:0:
91,217,39556,1,2,1:2:0:0:
97,225,39637,1,0,1:0:0:0:
102,232,39718,6,0,P|110:173|134:42,1,179.520001095703,2|8,1:2|0:0,0:0:0:0:
214,10,40205,2,0,L|281:-2,2,44.8800002739258,2|0|2,1:2|1:2|1:2,0:0:0:0:
17,282,40529,5,0,1:2:0:0:
222,231,40691,1,8,0:0:0:0:
131,54,40854,1,2,0:2:0:0:
222,231,41016,6,0,P|311:255|342:335,1,179.520001095703,2|8,1:2|0:0,0:0:0:0:
248,322,41502,1,2,1:2:0:0:
416,97,41664,2,0,P|407:150|400:200,1,89.7600005478516,2|0,1:2|1:2,0:0:0:0:
493,344,41989,2,0,P|486:299|478:255,1,89.7600005478516,8|2,0:0|0:0,0:0:0:0:
339,33,42313,6,0,P|281:59|162:70,1,179.520001095703,2|8,1:2|0:0,0:0:0:0:
89,22,42799,1,0,0:0:0:0:
254,219,42962,1,0,1:2:0:0:
257,207,43043,1,0,1:2:0:0:
260,195,43124,2,0,L|271:145,1,44.8800002739258,0|0,1:2|0:0,0:0:0:0:
339,33,43286,1,8,0:0:0:0:
142,173,43448,1,2,0:0:0:0:
332,276,43610,6,0,P|338:318|342:371,1,89.7600005478516,6|0,1:2|1:0,0:0:0:0:
512,258,43935,2,0,P|466:190|379:191,1,179.520001095703,8|2,0:0|1:2,0:0:0:0:
248,361,44421,1,0,1:2:0:0:
429,275,44583,1,8,0:0:0:0:
269,151,44745,1,2,0:0:0:0:
360,89,44908,6,0,P|365:43|371:-3,1,89.7600005478516,2|0,1:2|1:2,0:0:0:0:
181,207,45232,2,0,P|172:287|161:367,1,134.640000821777,8|0,0:0|1:0,0:0:0:0:
175,356,45556,1,2,1:2:0:0:
73,133,45718,1,0,1:2:0:0:
272,254,45881,1,8,0:0:0:0:
68,353,46043,1,2,0:0:0:0:
269,151,46205,5,2,1:2:0:0:
181,207,46367,1,0,1:0:0:0:
269,151,46529,6,0,B|329:143|335:189|399:182,1,134.640000821777,8|0,0:0|1:0,0:0:0:0:
409,200,46854,1,2,1:2:0:0:
285,52,47016,1,0,1:2:0:0:
272,254,47178,2,0,L|266:349,1,89.7600005478516,8|2,0:0|0:0,0:0:0:0:
466,103,47502,5,10,1:2:0:0:
181,207,47664,1,10,1:2:0:0:
63,33,48151,5,10,1:2:0:0:
463,282,48313,1,10,1:2:0:0:
408,199,48475,5,8,0:0:0:0:
368,198,48556,1,8,0:0:0:0:
331,214,48637,1,10,0:0:0:0:
305,244,48718,1,8,0:0:0:0:
292,281,48799,6,0,P|196:298|101:316,1,186.560000284668,6|8,1:2|0:0,0:0:0:0:
44,376,49286,1,2,1:2:0:0:
177,211,49448,2,0,P|184:165|173:104,1,93.280000142334,2|0,1:2|1:2,0:0:0:0:
292,281,49772,2,0,P|285:327|296:388,1,93.280000142334,8|2,0:0|0:0,0:0:0:0:
25,64,50097,6,0,B|106:74|115:12|202:21,1,186.560000284668,2|8,1:2|0:0,0:0:0:0:
93,202,50583,1,2,1:2:0:0:
178,119,50745,2,0,L|195:220,1,93.280000142334,2|0,1:2|1:2,0:0:0:0:
107,13,51070,1,8,0:0:0:0:
275,92,51232,1,2,0:0:0:0:
129,296,51394,6,0,P|183:268|319:239,1,186.560000284668,2|8,1:2|0:0,0:0:0:0:
448,104,51881,1,2,1:2:0:0:
459,102,51962,1,0,1:2:0:0:
470,100,52043,1,2,1:2:0:0:
233,9,52205,1,0,1:2:0:0:
378,165,52367,2,0,L|362:71,1,93.280000142334,8|2,0:0|0:2,0:0:0:0:
227,171,52691,5,2,1:2:0:0:
227,171,52854,1,0,1:0:0:0:
495,11,53016,1,12,0:0:0:0:
418,373,53340,5,2,1:2:0:0:
363,298,53502,1,8,0:0:0:0:
317,290,53583,1,8,0:0:0:0:
272,301,53664,1,8,0:0:0:0:
232,325,53745,1,8,0:0:0:0:
191,348,53826,1,8,0:0:0:0:
146,356,53907,1,8,0:0:0:0:
100,349,53988,5,6,1:2:0:0:
51,126,54313,1,8,0:0:0:0:
100,349,54637,5,2,1:2:0:0:
152,187,54962,1,8,0:0:0:0:
100,349,55286,5,2,1:2:0:0:
249,99,55610,1,8,0:0:0:0:
100,349,55935,5,2,1:2:0:0:
15,20,56259,1,8,0:0:0:0:
275,217,56583,6,0,P|328:202|379:195,1,93.280000142334,6|0,1:2|0:0,0:0:0:0:
100,349,56908,2,0,P|47:364|-4:371,1,93.280000142334,8|0,0:0|0:0,0:0:0:0:
135,95,57232,6,0,L|152:190,1,93.280000142334,2|0,1:2|0:0,0:0:0:0:
355,378,57556,2,0,L|338:283,1,93.280000142334,8|0,0:0|0:0,0:0:0:0:
365,196,57881,6,0,P|432:208|467:282,1,139.920000213501,2|0,1:2|0:0,0:0:0:0:
463,288,58205,5,8,0:0:0:0:
319,38,58367,1,0,1:0:0:0:
319,38,58448,1,0,1:0:0:0:
319,38,58529,2,0,L|302:129,1,93.280000142334,2|0,1:2|0:0,0:0:0:0:
214,358,58854,2,0,L|197:266,1,93.280000142334,8|0,0:0|0:0,0:0:0:0:
67,32,59178,5,14,0:0:0:0:
40,129,59340,1,0,0:0:0:0:
301,129,59502,5,10,0:0:0:0:
338,264,59664,1,0,0:0:0:0:
162,9,59827,5,10,0:0:0:0:
106,211,59989,1,0,0:0:0:0:
207,99,60151,5,10,0:0:0:0:
277,352,60313,1,0,0:0:0:0:
473,154,60475,6,0,P|423:167|366:176,1,93.280000142334,10|0,0:0|0:0,0:0:0:0:
95,332,60799,2,0,P|145:319|202:310,1,93.280000142334,10|0,0:0|0:0,0:0:0:0:
230,135,61124,6,0,P|241:180|230:225,1,93.280000142334,10|0,0:0|0:0,0:0:0:0:
430,350,61448,2,0,P|419:305|431:261,1,93.280000142334,10|0,0:0|0:0,0:0:0:0:
57,138,61772,5,10,0:0:0:0:
315,267,61935,1,0,0:0:0:0:
52,265,62097,5,10,0:0:0:0:
329,124,62260,1,0,0:0:0:0:
38,47,62421,6,0,P|51:98|58:143,1,93.280000142334,10|0,0:0|0:0,0:0:0:0:
296,359,62745,2,0,P|303:313|315:267,1,93.280000142334,10|2,0:0|0:0,0:0:0:0:
431,12,63070,5,10,1:2:0:0:
409,209,63232,1,10,1:2:0:0:
158,22,63718,5,10,1:2:0:0:
194,346,63880,1,10,1:2:0:0:
194,346,64205,1,2,0:0:0:0:
131,278,64367,6,0,P|78:291|-5:319,1,130.240003179688,6|0,0:0|0:0,0:0:0:0:
181,200,64854,1,2,0:0:0:0:
181,200,65016,2,0,P|193:155|184:123,1,65.1200015898438,2|0,0:0|0:0,0:0:0:0:
245,266,65340,2,0,L|321:254,1,65.1200015898438,0|2,0:0|0:0,0:0:0:0:
129,70,65664,6,0,L|-15:92,1,130.240003179688,2|0,0:0|0:0,0:0:0:0:
58,228,66151,1,2,1:2:0:0:
58,228,66232,1,0,1:0:0:0:
58,228,66313,2,0,P|66:187|70:158,1,65.1200015898438,2|0,0:0|0:0,0:0:0:0:
246,14,66637,2,0,P|250:46|257:78,1,65.1200015898438,0|2,0:0|0:0,0:0:0:0:
325,140,66962,6,0,P|379:144|424:217,1,130.240003179688,2|0,0:0|0:0,0:0:0:0:
394,282,67448,2,0,L|344:295,2,32.5600007949219,2|0|2,1:2|1:0|1:2,0:0:0:0:
464,338,67772,1,0,0:0:0:0:
496,251,67935,1,0,0:0:0:0:
496,251,68097,1,2,0:0:0:0:
271,234,68259,6,0,L|291:369,1,130.240003179688,2|0,0:0|0:0,0:0:0:0:
200,329,68745,2,0,L|193:283,2,32.5600007949219,2|0|2,1:2|1:0|1:2,0:0:0:0:
130,238,69070,1,0,0:0:0:0:
130,238,69232,2,0,P|89:253|60:254,1,65.1200015898438,0|2,0:0|0:0,0:0:0:0:
225,43,69556,6,0,P|205:94|201:168,1,130.240003179688,2|0,0:0|0:0,0:0:0:0:
271,234,70043,1,2,0:0:0:0:
271,234,70205,2,0,P|291:183|295:109,1,130.240003179688,2|0,0:0|0:0,0:0:0:0:
363,45,70691,1,2,0:0:0:0:
183,253,70854,6,0,B|122:246|115:290|59:283,1,130.240003179688,2|0,0:0|0:0,0:0:0:0:
0,219,71340,1,2,0:0:0:0:
234,384,71502,2,0,L|242:312,1,65.1200015898438,2|0,0:0|0:0,0:0:0:0:
347,141,71827,2,0,L|354:205,1,65.1200015898438,0|2,0:0|0:0,0:0:0:0:
422,269,72151,6,0,P|465:257|480:164,1,130.240003179688,2|0,0:0|0:0,0:0:0:0:
363,45,72637,1,2,0:0:0:0:
363,45,72799,6,0,P|308:61|229:76,1,130.240003179688,2|0,0:0|0:0,0:0:0:0:
248,91,73448,5,10,1:2:0:0:
174,302,73610,1,10,1:2:0:0:
188,9,74097,5,10,1:2:0:0:
234,384,74259,1,10,1:2:0:0:
181,161,74583,5,2,0:0:0:0:
7,119,74745,6,0,B|87:109|96:170|182:161,1,183.039998882813,6|8,1:2|0:0,0:0:0:0:
248,91,75232,1,2,1:2:0:0:
252,79,75313,1,0,1:2:0:0:
256,67,75394,1,2,1:2:0:0:
305,275,75556,1,0,1:2:0:0:
154,67,75718,1,8,0:0:0:0:
33,215,75881,1,2,0:0:0:0:
310,164,76043,6,0,L|493:127,1,183.039998882813,2|8,1:2|0:0,0:0:0:0:
434,52,76529,1,2,1:2:0:0:
434,52,76610,1,0,1:2:0:0:
434,52,76691,2,0,L|344:70,1,91.5199994414063,2|0,1:2|1:2,0:0:0:0:
429,240,77016,1,8,0:0:0:0:
512,0,77178,1,2,0:0:0:0:
197,171,77340,6,0,P|181:231|182:269,1,91.5199994414063,6|0,1:2|1:0,0:0:0:0:
154,67,77664,1,8,0:0:0:0:
310,164,77827,1,2,1:2:0:0:
95,306,77989,1,2,1:2:0:0:
197,171,78151,1,0,1:2:0:0:
341,358,78313,1,8,0:0:0:0:
410,285,78475,5,2,1:2:0:0:
410,285,78556,1,0,1:0:0:0:
410,285,78637,2,0,L|422:191,1,91.5199994414063,2|0,1:2|1:2,0:0:0:0:
281,50,78962,2,0,P|203:75|195:191,1,183.039998882813,12|2,0:0|1:2,0:0:0:0:
474,359,79448,1,8,0:0:0:0:
410,285,79611,5,8,0:0:0:0:
364,289,79692,1,8,0:0:0:0:
325,312,79773,1,8,0:0:0:0:
287,337,79854,1,8,0:0:0:0:
242,342,79935,6,0,L|157:327,1,80.9599972822267,6|0,1:2|0:0,0:0:0:0:
359,189,80259,2,0,L|444:173,1,80.9599972822267,8|0,0:0|0:0,0:0:0:0:
281,50,80583,2,0,P|268:94|272:145,1,80.9599972822267,2|0,1:2|0:0,0:0:0:0:
162,327,80908,2,0,P|175:283|171:232,1,80.9599972822267,8|0,0:0|0:0,0:0:0:0:
121,174,81232,6,0,P|71:169|16:274,2,161.919994564453,2|8|2,1:2|0:0|1:2,0:0:0:0:
185,101,82043,1,0,0:0:0:0:
185,101,82205,2,0,L|174:19,1,80.9599972822267,8|0,0:0|0:0,0:0:0:0:
100,258,82529,6,0,L|111:340,1,80.9599972822267,6|0,1:2|0:0,0:0:0:0:
278,199,82854,2,0,L|360:188,1,80.9599972822267,8|0,0:0|0:0,0:0:0:0:
97,63,83178,2,0,L|15:74,1,80.9599972822267,2|0,1:2|0:0,0:0:0:0:
302,30,83502,6,0,P|276:95|278:134,1,80.9599972822267,8|0,0:0|0:0,0:0:0:0:
394,334,83827,2,0,P|413:298|420:258,1,80.9599972822267,2|0,1:2|0:0,0:0:0:0:
358,188,84151,6,0,L|253:202,1,98.560001203125,8|0,0:0|0:0,0:0:0:0:
217,352,84475,6,0,L|102:336,1,107.359995576904,6|0,1:2|0:0,0:0:0:0:
127,233,84799,6,0,L|12:248,1,116.159999645508,12|0,0:0|0:0,0:0:0:0:
302,30,85124,5,14,0:0:0:0:
394,334,85286,1,0,0:0:0:0:
282,140,85448,5,10,0:0:0:0:
217,352,85610,1,0,0:0:0:0:
82,85,85772,5,10,0:0:0:0:
137,254,85934,1,0,0:0:0:0:
202,52,86097,5,10,0:0:0:0:
173,144,86259,1,0,0:0:0:0:
107,345,86421,6,0,P|52:335|2:329,1,96.8000029541017,10|0,0:0|0:0,0:0:0:0:
238,225,86745,2,0,P|293:235|343:241,1,96.8000029541017,10|0,0:0|0:0,0:0:0:0:
82,85,87070,2,0,P|64:135|73:183,1,96.8000029541017,10|0,0:0|0:0,0:0:0:0:
396,383,87394,6,0,P|414:333|405:285,1,96.8000029541017,10|0,0:0|0:0,0:0:0:0:
333,240,87718,6,0,P|285:246|237:255,1,95.0400023203126,2|2,0:0|0:0,0:0:0:0:
380,162,88367,6,0,B|366:118|366:118|384:74,1,95.0400023203126,2|2,0:0|0:0,0:0:0:0:
457,214,89016,5,2,0:0:0:0:
