osu file format v14

[General]
AudioFilename: audio.mp3
AudioLeadIn: 0
PreviewTime: 38128
Countdown: 0
SampleSet: Soft
StackLeniency: 0.7
Mode: 0
LetterboxInBreaks: 0
WidescreenStoryboard: 0

[Editor]
Bookmarks: 750,3182,21506,38371,53939,69506
DistanceSpacing: 1.3
BeatDivisor: 4
GridSize: 32
TimelineZoom: 3.799998

[Metadata]
Title:Inferno (TV Size)
TitleUnicode:インフェルノ (TV Size)
Artist:Mrs. GREEN APPLE
ArtistUnicode:Mrs. GREEN APPLE
Creator:Reform
Version:Haruto x Onlybiscuit's Extra
Source:炎炎ノ消防隊
Tags:Kujinn [_Eli_] Logic Agent Eli MaestroSplinter browiec Nelliel OnlyBiscuit brotarks Haruto haruto_aizawa KittyAdventure gokugohan12468 Ipas toybot AnzeigeistRaus Anzei FuJu Japanese fire force brigade of flames Enen no Shouboutai opening op anime ミセスグリーンアップル motoki omori 大森元貴 hiroto wakai 若井滉斗 ayaka yamanaka 山中綾華 ryoka fujisawa 藤澤涼架 kiyokatsu takano 髙野清宗
BeatmapID:2098897
BeatmapSetID:999126

[Difficulty]
HPDrainRate:6
CircleSize:4
OverallDifficulty:8.6
ApproachRate:9.3
SliderMultiplier:1.76
SliderTickRate:1

[Events]
//Background and Video events
0,0,"BG.jpg",0,0
//Break Periods
//Storyboard Layer 0 (Background)
//Storyboard Layer 1 (Fail)
//Storyboard Layer 2 (Pass)
//Storyboard Layer 3 (Foreground)
//Storyboard Layer 4 (Overlay)
//Storyboard Sound Samples

[TimingPoints]
800,324.324324324324,4,2,22,65,1,0
5827,-133.333333333333,4,2,22,45,0,0
16367,-105.263157894737,4,2,22,55,0,0
26745,-133.333333333334,4,2,22,40,0,0
37772,-74.0740740740743,4,2,22,40,0,0
38421,-95.2380952380952,4,2,22,75,0,1
47502,-95.2380952380952,4,2,22,75,0,0
48799,-95.2380952380952,4,2,22,75,0,1
59178,-95.2380952380952,4,2,22,85,0,1
64205,-95.2380952380952,4,2,22,40,0,1
64367,-133.333333333333,4,2,22,40,0,0
73448,-133.333333333333,4,2,22,60,0,0
74745,-95.2380952380952,4,2,22,75,0,1
85124,-95.2380952380952,4,2,22,85,0,1
87070,-95.2380952380952,4,2,22,95,0,1
87718,-181.818181818182,4,2,22,75,0,0
89340,-181.818181818182,4,2,22,5,0,0

[Colours]
Combo1 : 105,58,201
Combo2 : 255,128,0
Combo3 : 0,155,230
Combo4 : 255,55,55

[HitObjects]
440,49,800,6,0,P|432:92|427:135,1,88,4|0,1:2|0:0,0:0:0:0:
303,246,1124,2,0,P|298:202|289:159,1,88,8|0,0:0|1:0,0:0:0:0:
261,127,1367,1,0,1:2:0:0:
261,127,1448,1,0,1:2:0:0:
399,221,1610,1,0,1:2:0:0:
249,341,1772,2,0,P|292:332|335:327,1,88,8|0,0:0|0:0,0:0:0:0:
174,202,2097,5,0,1:2:0:0:
141,341,2259,1,0,1:2:0:0:
28,186,2421,2,0,P|36:229|41:272,1,88,8|0,0:0|1:0,0:0:0:0:
37,308,2664,1,0,1:2:0:0:
37,308,2745,1,0,1:2:0:0:
116,142,2908,1,0,1:2:0:0:
276,246,3070,2,0,P|280:202|289:159,1,88,8|0,0:0|0:0,0:0:0:0:
70,60,3394,6,0,P|154:58|208:124,1,176,4|8,1:2|0:0,0:0:0:0:
110,278,3881,1,0,0:0:0:0:
318,114,4043,1,8,0:0:0:0:
112,144,4205,1,0,0:0:0:0:
232,310,4367,1,8,0:0:0:0:
208,124,4529,1,0,0:0:0:0:
121,352,4691,5,10,1:2:0:0:
370,294,4854,1,10,1:2:0:0:
144,219,5016,2,0,P|165:212|187:208,1,44,8|8,0:0|0:0,0:0:0:0:
370,186,5178,2,0,P|349:179|327:175,1,44,8|8,0:0|0:0,0:0:0:0:
115,314,5340,1,10,1:2:0:0:
166,49,5502,1,10,1:2:0:0:
166,49,5827,1,2,0:0:0:0:
311,4,5989,6,0,P|304:36|299:68,1,66.0000025177003,6|0,1:2|0:0,0:0:0:0:
219,188,6313,2,0,P|214:155|207:123,1,66.0000025177003,2|0,1:2|0:0,0:0:0:0:
352,173,6637,2,0,P|345:205|340:237,1,66.0000025177003,2|0,1:2|0:0,0:0:0:0:
260,357,6962,2,0,P|255:324|248:292,1,66.0000025177003,2|0,1:2|0:0,0:0:0:0:
403,363,7286,6,0,P|466:355|502:303,1,132.000005035401,2|0,1:2|1:2,0:0:0:0:
446,203,7772,1,2,0:0:0:0:
359,292,7935,2,0,L|425:287,1,66.0000025177003,2|0,1:2|0:0,0:0:0:0:
512,209,8259,2,0,L|446:203,1,66.0000025177003,0|2,1:2|0:0,0:0:0:0:
357,92,8583,5,2,1:2:0:0:
424,38,8745,1,2,0:0:0:0:
352,173,8908,1,2,1:2:0:0:
274,91,9070,1,2,0:0:0:0:
198,204,9232,2,0,P|149:191|101:185,1,99.0000037765504,2|0,1:2|0:0,0:0:0:0:
65,207,9556,2,0,P|72:240|76:273,1,66.0000025177003,2|2,1:2|0:0,0:0:0:0:
179,384,9881,5,2,1:2:0:0:
162,296,10043,1,2,0:0:0:0:
302,342,10205,2,0,P|269:334|237:328,1,66.0000025177003,2|0,1:2|0:0,0:0:0:0:
74,364,10529,2,0,P|136:353|161:295,1,132.000005035401,2|2,1:2|1:2,0:0:0:0:
155,166,11016,1,2,0:0:0:0:
76,273,11178,6,0,P|72:240|65:207,1,66.0000025177003,2|0,1:2|0:0,0:0:0:0:
165,100,11502,2,0,P|158:132|154:165,1,66.0000025177003,2|0,1:2|0:0,0:0:0:0:
14,47,11827,2,0,P|40:27|72:22,1,66.0000025177003,2|0,1:2|0:0,0:0:0:0:
154,165,12151,2,0,P|121:159|95:140,1,66.0000025177003,2|0,1:2|0:0,0:0:0:0:
264,61,12475,6,0,P|253:126|248:191,1,132.000005035401,2|0,1:2|1:2,0:0:0:0:
165,100,12962,1,2,0:0:0:0:
65,207,13124,2,0,P|32:203|-1:196,1,66.0000025177003,2|0,1:2|0:0,0:0:0:0:
224,205,13448,2,0,P|230:237|234:270,1,66.0000025177003,0|2,1:2|0:0,0:0:0:0:
215,307,13691,1,0,0:0:0:0:
215,307,13772,5,2,1:2:0:0:
308,241,13935,1,2,0:0:0:0:
404,384,14097,2,0,L|415:252,1,132.000005035401,2|2,1:2|1:2,0:0:0:0:
375,161,14583,1,2,0:0:0:0:
224,205,14745,1,2,1:2:0:0:
308,241,14908,1,2,0:0:0:0:
213,113,15070,5,2,1:2:0:0:
308,67,15232,2,0,P|301:100|298:133,1,66.0000025177003,2|0,0:0|1:2,0:0:0:0:
235,25,15556,1,2,0:0:0:0:
390,87,15718,2,0,P|422:83|455:76,1,66.0000025177003,2|0,1:2|0:0,0:0:0:0:
298,133,16043,1,6,1:2:0:0:
387,182,16205,1,2,0:0:0:0:
321,323,16367,6,0,P|312:282|307:240,1,83.5999977676392,6|0,1:2|0:0,0:0:0:0:
194,107,16691,2,0,P|188:148|180:189,1,83.5999977676392,10|0,0:0|1:2,0:0:0:0:
81,300,17016,2,0,P|120:285|161:279,1,83.5999977676392,2|0,1:2|1:2,0:0:0:0:
321,323,17340,2,0,P|279:316|240:302,1,83.5999977676392,10|0,0:0|0:0,0:0:0:0:
43,214,17664,6,0,P|53:296|57:380,1,167.199995535278,2|8,1:2|0:0,0:0:0:0:
132,178,18151,1,2,1:2:0:0:
240,302,18313,2,0,P|243:260|249:218,1,83.5999977676392,2|0,1:2|1:2,0:0:0:0:
123,94,18637,2,0,P|128:135|131:177,1,83.5999977676392,8|2,0:0|0:0,0:0:0:0:
249,26,18962,5,2,1:2:0:0:
151,7,19124,1,2,1:2:0:0:
224,149,19286,1,10,0:0:0:0:
123,94,19448,1,2,1:2:0:0:
283,92,19610,2,0,P|301:129|304:170,1,83.5999977676392,2|0,1:2|1:2,0:0:0:0:
240,302,19935,1,10,0:0:0:0:
248,218,20097,1,2,0:0:0:0:
356,357,20259,6,0,P|397:353|438:343,1,83.5999977676392,2|2,1:2|1:2,0:0:0:0:
472,181,20583,2,0,P|414:199|391:255,1,125.399996651459,10|0,0:0|1:2,0:0:0:0:
379,278,20908,2,0,L|370:194,1,83.5999977676392,2|0,1:2|1:0,0:0:0:0:
463,61,21232,1,10,0:0:0:0:
472,181,21394,1,2,0:0:0:0:
322,80,21556,6,0,P|285:113|235:115,1,83.5999977676392,2|0,1:2|0:0,0:0:0:0:
107,0,21881,2,0,P|147:9|176:38,1,83.5999977676392,10|0,0:0|1:0,0:0:0:0:
169,79,22124,1,0,1:2:0:0:
169,79,22205,1,2,1:2:0:0:
19,217,22367,1,0,1:2:0:0:
98,173,22529,2,0,P|91:128|76:76,1,83.5999977676392,10|0,0:0|0:0,0:0:0:0:
92,304,22854,6,0,P|121:333|161:342,1,83.5999977676392,2|0,1:2|1:2,0:0:0:0:
351,220,23178,1,8,0:0:0:0:
247,384,23340,1,2,1:2:0:0:
247,384,23421,1,0,1:2:0:0:
247,384,23502,2,0,P|254:339|269:287,1,83.5999977676392,2|0,1:2|1:2,0:0:0:0:
181,147,23827,2,0,P|191:187|197:228,1,83.5999977676392,8|2,0:0|0:0,0:0:0:0:
161,342,24151,5,2,1:2:0:0:
193,240,24313,1,2,1:2:0:0:
301,316,24475,1,10,0:0:0:0:
100,208,24637,1,0,0:0:0:0:
60,384,24799,1,2,1:2:0:0:
277,174,24962,1,2,1:2:0:0:
134,53,25124,2,0,P|93:56|59:91,1,83.5999977676392,10|2,0:0|1:2,0:0:0:0:
50,112,25367,1,0,1:2:0:0:
50,112,25448,5,2,1:2:0:0:
123,294,25610,1,2,1:2:0:0:
205,119,25772,1,8,0:0:0:0:
37,228,25935,1,0,1:2:0:0:
238,364,26097,1,8,0:0:0:0:
205,119,26745,6,0,B|274:105|240:68|317:57,1,132.000005035401,6|0,1:2|0:0,0:0:0:0:
423,21,27232,1,0,1:1:0:0:
423,21,27394,2,0,P|426:60|432:91,1,66.0000025177003,10|0,0:0|0:0,0:0:0:0:
325,154,27718,2,0,P|330:121|332:88,1,66.0000025177003,2|0,0:0|1:2,0:0:0:0:
505,262,28043,6,0,P|469:208|385:215,1,132.000005035401,2|0,1:2|0:0,0:0:0:0:
406,202,28691,2,0,P|407:247|417:280,1,66.0000025177003,10|0,0:0|0:0,0:0:0:0:
317,382,29016,2,0,P|323:349|323:316,1,66.0000025177003,2|0,0:0|1:2,0:0:0:0:
471,59,29340,6,0,L|487:130,1,66.0000025177003,2|0,1:2|0:0,0:0:0:0:
299,216,29664,2,0,L|313:151,1,66.0000025177003,2|0,1:2|1:2,0:0:0:0:
318,124,29908,1,0,1:2:0:0:
318,124,29989,1,10,0:0:0:0:
412,267,30151,1,0,1:2:0:0:
239,329,30313,2,0,P|194:342|151:368,1,66.0000025177003,2|0,0:0|1:2,0:0:0:0:
206,237,30637,6,0,P|173:237|111:155,1,132.000005035401,2|0,1:2|0:0,0:0:0:0:
182,64,31124,1,0,1:2:0:0:
182,64,31205,1,0,1:2:0:0:
182,64,31286,2,0,P|217:84|249:87,1,66.0000025177003,10|0,0:0|1:2,0:0:0:0:
375,147,31610,2,0,P|342:152|314:170,1,66.0000025177003,2|0,1:2|1:2,0:0:0:0:
83,344,31935,6,0,P|96:291|105:204,1,132.000005035401,2|2,1:2|0:0,0:0:0:0:
195,157,32421,1,0,1:2:0:0:
195,157,32583,2,0,P|198:191|206:225,1,66.0000025177003,10|0,0:0|0:0,0:0:0:0:
282,336,32908,2,0,P|289:303|292:270,1,66.0000025177003,2|0,0:0|1:2,0:0:0:0:
190,69,33232,6,0,B|113:80|147:117|78:131,2,132.000005035401,2|2|10,1:2|0:0|1:2,0:0:0:0:
190,69,34205,2,0,L|202:139,1,66.0000025177003,2|0,0:0|1:2,0:0:0:0:
337,333,34529,2,0,L|350:253,1,66.0000025177003,2|0,1:2|0:0,0:0:0:0:
354,70,34854,6,0,P|395:73|423:102,1,66.0000025177003,2|0,1:2|1:2,0:0:0:0:
255,201,35178,2,0,P|227:218|195:218,1,66.0000025177003,10|0,0:0|1:2,0:0:0:0:
354,168,35502,2,0,L|342:233,1,66.0000025177003,0|0,0:2|1:0,0:0:0:0:
80,355,35827,6,0,P|77:323|68:290,1,66.0000025177003,10|8,0:0|0:0,0:0:0:0:
92,275,36070,2,0,P|95:243|104:210,1,66.0000025177003,0|8,1:2|1:2,0:0:0:0:
173,151,36313,1,0,1:2:0:0:
8,92,36475,1,8,0:0:0:0:
186,288,36637,2,0,L|206:285,2,16.5000006294251,0|0|0,1:2|1:2|1:2,1:2:0:0:
0,375,36799,1,8,0:0:0:0:
58,184,36962,1,8,0:0:0:0:
161,311,37124,5,0,1:2:0:0:
110,33,37286,5,8,0:0:0:0:
105,54,37367,1,0,1:2:0:0:
9,295,37529,5,8,0:0:0:0:
2,265,37610,1,0,1:2:0:0:
58,184,37772,6,0,P|97:190|122:210,1,59.400000226593,8|0,0:0|0:0,0:0:0:0:
216,294,37935,2,0,P|190:308|160:310,1,59.400000226593,0|0,1:0|1:0,0:0:0:0:
172,133,38097,6,0,P|182:85|192:4,1,118.800000453186,2|2,0:0|0:0,0:0:0:0:
418,10,38421,6,0,B|404:100|453:71|425:191,1,184.799994360352,6|8,1:2|0:0,0:0:0:0:
384,368,38908,1,2,1:2:0:0:
255,186,39070,2,0,P|295:163|340:154,1,92.3999971801759,2|0,1:2|1:2,0:0:0:0:
200,372,39394,1,8,0:0:0:0:
136,187,39556,1,2,0:0:0:0:
302,355,39718,6,0,P|315:310|321:265,1,92.3999971801759,2|0,1:2|1:2,0:0:0:0:
269,49,40043,1,8,0:0:0:0:
425,191,40205,1,2,1:2:0:0:
217,134,40367,2,0,P|171:143|131:165,1,92.3999971801759,2|0,1:2|1:2,0:0:0:0:
99,365,40691,1,8,0:0:0:0:
34,163,40854,1,2,0:2:0:0:
216,323,41016,6,0,P|256:345|301:354,1,92.3999971801759,2|0,1:2|1:0,0:0:0:0:
409,122,41340,1,8,0:0:0:0:
237,231,41502,1,2,1:2:0:0:
432,335,41664,2,0,P|445:290|451:245,1,92.3999971801759,2|0,1:2|1:2,0:0:0:0:
266,99,41989,1,8,0:0:0:0:
336,282,42151,1,2,0:0:0:0:
468,91,42313,6,0,P|427:68|382:59,1,92.3999971801759,2|0,1:2|1:0,0:0:0:0:
157,138,42637,1,8,0:0:0:0:
308,14,42799,1,0,0:0:0:0:
237,231,42962,1,0,1:2:0:0:
105,60,43124,1,0,1:2:0:0:
47,284,43286,1,8,0:0:0:0:
157,138,43448,1,2,0:0:0:0:
208,384,43610,6,0,P|195:339|189:294,1,92.3999971801759,6|0,1:2|1:0,0:0:0:0:
282,82,43935,1,8,0:0:0:0:
345,258,44097,1,2,1:2:0:0:
157,138,44259,2,0,P|116:116|71:107,1,92.3999971801759,2|0,1:2|1:2,0:0:0:0:
124,340,44583,1,8,0:0:0:0:
225,166,44745,1,2,0:0:0:0:
402,330,44908,6,0,P|415:285|421:240,1,92.3999971801759,2|0,1:2|1:2,0:0:0:0:
360,13,45232,1,8,0:0:0:0:
512,131,45394,1,2,1:2:0:0:
254,148,45556,2,0,P|298:135|344:128,1,92.3999971801759,2|0,1:2|1:2,0:0:0:0:
165,283,45881,1,8,0:0:0:0:
225,57,46043,1,2,0:0:0:0:
347,267,46205,6,0,P|301:260|257:247,1,92.3999971801759,2|0,1:2|1:0,0:0:0:0:
76,151,46529,1,8,0:0:0:0:
102,354,46691,1,2,1:2:0:0:
102,354,46772,1,0,1:0:0:0:
102,354,46854,1,2,1:2:0:0:
168,124,47016,1,0,1:2:0:0:
0,283,47178,1,8,0:0:0:0:
177,260,47340,1,2,0:0:0:0:
1,91,47502,5,10,1:2:0:0:
276,1,47664,1,10,1:2:0:0:
276,1,48151,1,10,1:2:0:0:
319,333,48313,1,10,1:2:0:0:
444,229,48475,2,0,P|450:251|454:273,1,46.1999985900879,8|8,0:0|0:0,0:0:0:0:
290,227,48637,2,0,P|294:204|300:182,1,46.1999985900879,10|8,0:0|0:0,0:0:0:0:
468,36,48799,6,0,B|357:42|420:87|294:84,1,184.799994360352,6|8,1:2|0:0,0:0:0:0:
133,21,49286,1,2,1:2:0:0:
133,21,49367,1,0,1:0:0:0:
133,21,49448,2,0,P|145:66|152:112,1,92.3999971801759,2|0,1:2|1:2,0:0:0:0:
78,303,49772,1,8,0:0:0:0:
26,147,49935,1,2,0:0:0:0:
236,242,50097,6,0,P|247:197|254:151,1,92.3999971801759,2|0,1:2|1:2,0:0:0:0:
103,384,50421,1,8,0:0:0:0:
282,309,50583,1,2,1:2:0:0:
61,219,50745,2,0,P|105:205|150:199,1,92.3999971801759,2|0,1:2|1:2,0:0:0:0:
365,270,51070,1,8,0:0:0:0:
261,111,51232,1,2,0:0:0:0:
254,332,51394,6,0,P|242:287|235:241,1,92.3999971801759,2|0,1:2|1:0,0:0:0:0:
281,32,51718,1,8,0:0:0:0:
371,182,51881,1,2,1:2:0:0:
495,20,52043,2,0,P|488:65|476:110,1,92.3999971801759,2|0,1:2|1:2,0:0:0:0:
426,282,52367,1,8,0:0:0:0:
330,110,52529,1,2,0:2:0:0:
512,265,52691,6,0,P|467:251|422:245,1,92.3999971801759,2|0,1:2|1:0,0:0:0:0:
237,362,53016,2,0,P|282:355|326:342,1,92.3999971801759,12|0,0:0|0:2,0:0:0:0:
225,172,53340,1,2,1:2:0:0:
179,168,53421,1,0,0:0:0:0:
137,187,53502,1,8,0:0:0:0:
110,224,53583,1,8,0:0:0:0:
104,269,53664,2,0,L|109:332,1,46.1999985900879,8|8,0:0|0:0,0:0:0:0:
287,271,53827,2,0,L|289:224,1,46.1999985900879,8|8,0:0|0:0,0:0:0:0:
512,0,53989,6,0,B|429:11|466:51|392:66,1,138.599995770264,6|0,1:2|0:0,0:0:0:0:
375,95,54313,2,0,P|365:154|364:218,1,92.3999971801759,8|0,0:0|0:0,0:0:0:0:
256,338,54637,2,0,P|252:291|244:246,1,92.3999971801759,2|0,1:2|0:0,0:0:0:0:
482,322,54962,2,0,P|446:278|397:278,1,92.3999971801759,8|0,0:0|0:0,0:0:0:0:
133,245,55286,6,0,P|171:163|258:140,2,184.799994360352,2|8|2,1:2|0:0|1:2,0:0:0:0:
117,343,56097,1,0,0:0:0:0:
117,343,56259,2,0,P|73:332|48:294,1,92.3999971801759,8|0,0:0|0:0,0:0:0:0:
381,56,56583,6,0,P|360:115|359:170,1,92.3999971801759,6|0,1:2|0:0,0:0:0:0:
256,325,56908,2,0,P|249:279|232:236,1,92.3999971801759,8|0,0:0|0:0,0:0:0:0:
422,221,57232,6,0,P|389:252|344:255,1,92.3999971801759,2|0,1:2|0:0,0:0:0:0:
202,115,57556,2,0,P|247:118|280:150,1,92.3999971801759,8|0,0:0|0:0,0:0:0:0:
155,316,57881,6,0,P|105:308|8:316,1,138.599995770264,2|0,1:2|0:0,0:0:0:0:
10,293,58205,2,0,P|21:246|26:184,1,92.3999971801759,8|0,0:0|0:0,0:0:0:0:
186,24,58529,2,0,P|190:69|201:114,1,92.3999971801759,2|0,1:2|0:0,0:0:0:0:
318,324,58854,2,0,P|307:277|302:215,1,92.3999971801759,8|0,0:0|0:0,0:0:0:0:
379,47,59178,5,14,0:0:0:0:
427,226,59340,1,0,0:0:0:0:
269,86,59502,5,10,0:0:0:0:
505,133,59664,1,0,0:0:0:0:
373,35,59827,5,10,0:0:0:0:
320,266,59989,1,0,0:0:0:0:
165,86,60151,5,10,0:0:0:0:
223,339,60313,1,0,0:0:0:0:
294,116,60475,5,10,0:0:0:0:
72,168,60637,1,0,0:0:0:0:
185,334,60799,6,0,P|202:281|206:217,1,92.3999971801759,10|0,0:0|0:0,0:0:0:0:
314,108,61124,2,0,P|320:153|335:197,1,92.3999971801759,10|0,0:0|0:0,0:0:0:0:
167,89,61448,2,0,P|182:45|189:0,1,92.3999971801759,10|0,0:0|0:0,0:0:0:0:
490,263,61772,5,10,0:0:0:0:
301,209,61935,1,0,0:0:0:0:
413,126,62097,5,10,0:0:0:0:
428,357,62259,1,0,0:0:0:0:
245,139,62421,5,10,0:0:0:0:
204,338,62583,1,0,0:0:0:0:
133,90,62745,5,10,0:0:0:0:
346,225,62908,1,2,0:0:0:0:
241,19,63070,5,10,1:2:0:0:
139,384,63232,1,10,1:2:0:0:
179,116,63718,5,10,1:2:0:0:
225,309,63880,1,10,1:2:0:0:
225,309,64205,1,2,0:0:0:0:
401,130,64367,6,0,P|441:142|463:175,1,66.0000025177003,6|0,0:0|0:0,0:0:0:0:
353,223,64691,2,0,P|329:245|297:252,1,66.0000025177003,0|2,0:0|0:0,0:0:0:0:
229,176,65016,2,0,P|205:153|173:146,1,66.0000025177003,2|0,0:0|0:0,0:0:0:0:
46,231,65340,1,0,0:0:0:0:
147,363,65502,1,2,0:0:0:0:
147,363,65664,6,0,P|162:299|169:227,1,132.000005035401,2|0,0:0|0:0,0:0:0:0:
339,48,66151,1,2,0:0:0:0:
316,130,66313,6,0,P|301:66|294:-6,1,132.000005035401,2|0,0:0|0:0,0:0:0:0:
190,126,66799,1,2,0:0:0:0:
190,126,66962,6,0,P|156:121|122:97,1,66.0000025177003,2|0,0:0|0:0,0:0:0:0:
300,245,67286,2,0,P|328:228|360:223,1,66.0000025177003,0|2,0:0|0:0,0:0:0:0:
270,360,67610,2,0,P|237:356|209:339,1,66.0000025177003,2|0,0:0|0:0,0:0:0:0:
423,167,67935,1,0,0:0:0:0:
423,167,68097,1,2,0:0:0:0:
423,167,68259,6,0,P|412:225|408:316,1,132.000005035401,2|0,0:0|0:0,0:0:0:0:
270,360,68745,1,2,1:2:0:0:
270,360,68827,1,0,1:0:0:0:
270,360,68908,6,0,P|266:294|254:229,1,132.000005035401,2|0,1:2|0:0,0:0:0:0:
170,7,69394,1,2,0:0:0:0:
313,120,69556,6,0,P|355:117|394:32,1,132.000005035401,2|0,0:0|0:0,0:0:0:0:
452,137,70043,1,2,0:0:0:0:
331,208,70205,2,0,P|396:207|454:238,1,132.000005035401,2|0,0:0|0:0,0:0:0:0:
501,320,70691,1,2,0:0:0:0:
377,384,70854,6,0,B|292:378|339:347|252:347,1,132.000005035401,2|0,0:0|0:0,0:0:0:0:
149,378,71340,1,2,0:0:0:0:
79,243,71502,2,0,P|141:239|176:292,1,132.000005035401,2|0,0:0|0:0,0:0:0:0:
187,181,71989,1,2,0:0:0:0:
46,316,72151,6,0,L|37:184,1,132.000005035401,2|0,0:0|0:0,0:0:0:0:
76,70,72637,1,2,0:0:0:0:
168,162,72799,2,0,P|206:152|241:148,1,66.0000025177003,2|0,0:0|0:0,0:0:0:0:
327,51,73124,2,0,P|295:42|262:37,1,66.0000025177003
343,277,73448,5,10,1:2:0:0:
409,17,73610,1,10,1:2:0:0:
327,51,74097,5,10,1:2:0:0:
408,371,74259,1,10,1:2:0:0:
408,371,74583,5,2,0:0:0:0:
251,263,74745,2,0,B|123:277|206:313|84:331,1,184.799994360352,6|8,1:2|0:0,0:0:0:0:
221,181,75232,1,2,1:2:0:0:
344,319,75394,2,0,P|354:274|360:228,1,92.3999971801759,2|0,1:2|1:2,0:0:0:0:
299,42,75718,1,8,0:0:0:0:
477,159,75881,1,2,0:0:0:0:
232,160,76043,6,0,P|274:142|320:135,1,92.3999971801759,2|0,1:2|1:2,0:0:0:0:
482,278,76367,1,8,0:0:0:0:
387,93,76529,1,2,1:2:0:0:
251,263,76691,2,0,P|205:255|162:238,1,92.3999971801759,2|0,1:2|1:2,0:0:0:0:
299,42,77016,1,8,0:0:0:0:
360,227,77178,1,2,0:0:0:0:
145,37,77340,6,0,P|155:81|161:127,1,92.3999971801759,6|0,1:2|1:0,0:0:0:0:
23,297,77664,1,8,0:0:0:0:
82,124,77827,1,2,1:2:0:0:
146,328,77989,2,0,P|156:283|162:237,1,92.3999971801759,2|0,1:2|1:2,0:0:0:0:
145,37,78313,1,8,0:0:0:0:
55,210,78475,1,2,0:2:0:0:
298,117,78637,6,0,P|340:99|386:92,1,92.3999971801759,2|0,1:2|1:2,0:0:0:0:
405,354,78962,2,0,P|359:346|316:329,1,92.3999971801759,12|0,0:0|0:0,0:0:0:0:
476,92,79286,2,0,B|457:180|501:160|477:274,1,184.799994360352,2|8,1:2|0:0,0:0:0:0:
462,292,79691,1,8,0:0:0:0:
462,292,79772,2,0,P|439:285|419:274,1,46.1999985900879,8|8,0:0|0:0,0:0:0:0:
170,148,79935,6,0,P|127:130|81:123,1,92.3999971801759,6|0,1:2|0:0,0:0:0:0:
259,296,80259,2,0,P|304:288|347:271,1,92.3999971801759,8|0,0:0|0:0,0:0:0:0:
98,244,80583,2,0,P|80:286|73:332,1,92.3999971801759,2|0,1:2|0:0,0:0:0:0:
285,198,80907,2,0,P|277:152|260:109,1,92.3999971801759,8|0,0:0|0:0,0:0:0:0:
405,354,81232,6,0,P|489:327|508:241,1,184.799994360352,2|8,1:2|0:0,0:0:0:0:
462,95,81718,1,0,0:0:0:0:
285,198,81881,2,0,P|200:171|181:85,1,184.799994360352,2|8,1:2|0:0,0:0:0:0:
125,234,82367,1,0,0:0:0:0:
276,105,82529,6,0,B|391:112|326:160|438:180,1,184.799994360352,6|8,1:2|0:0,0:0:0:0:
383,42,83016,2,0,P|401:26|421:16,1,46.1999985900879
285,198,83178,2,0,P|292:243|297:289,1,92.3999971801759,2|0,1:2|0:0,0:0:0:0:
155,51,83502,2,0,P|147:96|142:142,1,92.3999971801759,8|0,0:0|0:0,0:0:0:0:
102,373,83827,6,0,P|18:346|-1:260,1,184.799994360352,2|8,1:2|0:0,0:0:0:0:
45,125,84313,1,0,0:0:0:0:
209,264,84475,2,0,P|252:282|298:289,1,92.3999971801759,6|0,1:2|0:0,0:0:0:0:
364,80,84799,2,0,P|318:87|275:104,1,92.3999971801759,12|0,0:0|0:0,0:0:0:0:
462,331,85124,5,14,0:0:0:0:
380,99,85286,1,0,0:0:0:0:
393,382,85448,5,10,0:0:0:0:
460,124,85610,1,0,0:0:0:0:
274,298,85772,5,10,0:0:0:0:
512,210,85935,1,0,0:0:0:0:
187,202,86097,5,10,0:0:0:0:
420,249,86259,1,0,0:0:0:0:
249,76,86421,5,10,0:0:0:0:
169,331,86583,1,0,0:0:0:0:
79,57,86745,5,10,0:0:0:0:
146,336,86907,1,0,0:0:0:0:
322,103,87070,5,10,0:0:0:0:
29,234,87232,1,0,0:0:0:0:
376,223,87394,5,10,0:0:0:0:
149,88,87556,1,0,0:0:0:0:
251,343,87718,6,0,P|300:333|357:331,1,96.8000029541017,2|2,0:0|0:0,0:0:0:0:
447,230,88367,2,0,P|398:227|351:217,1,96.8000029541017,2|2,0:0|0:0,0:0:0:0:
311,115,88854,1,2,0:0:0:0:
234,213,89016,2,0,P|230:164|222:117,1,96.8000029541017,2|0,0:0|0:0,0:0:0:0:
