osu file format v14

[General]
AudioFilename: audio.mp3
AudioLeadIn: 0
PreviewTime: 38128
Countdown: 0
SampleSet: Soft
StackLeniency: 0.5
Mode: 0
LetterboxInBreaks: 0
WidescreenStoryboard: 1

[Editor]
DistanceSpacing: 1.4
BeatDivisor: 4
GridSize: 32
TimelineZoom: 1.6

[Metadata]
Title:Inferno (TV Size)
TitleUnicode:インフェルノ (TV Size)
Artist:Mrs. GREEN APPLE
ArtistUnicode:Mrs. GREEN APPLE
Creator:Reform
Version:FuJu's Insane
Source:炎炎ノ消防隊
Tags:Kujinn [_Eli_] Logic Agent Eli MaestroSplinter browiec Nelliel OnlyBiscuit brotarks Haruto haruto_aizawa KittyAdventure gokugohan12468 Ipas toybot AnzeigeistRaus Anzei FuJu Japanese fire force brigade of flames Enen no Shouboutai opening op anime ミセスグリーンアップル motoki omori 大森元貴 hiroto wakai 若井滉斗 ayaka yamanaka 山中綾華 ryoka fujisawa 藤澤涼架 kiyokatsu takano 髙野清宗
BeatmapID:2195763
BeatmapSetID:999126

[Difficulty]
HPDrainRate:6
CircleSize:4
OverallDifficulty:8.5
ApproachRate:9
SliderMultiplier:1.75
SliderTickRate:1

[Events]
//Background and Video events
0,0,"BG.jpg",0,0
//Break Periods
2,64567,72151
//Storyboard Layer 0 (Background)
//Storyboard Layer 1 (Fail)
//Storyboard Layer 2 (Pass)
//Storyboard Layer 3 (Foreground)
//Storyboard Layer 4 (Overlay)
//Storyboard Sound Samples

[TimingPoints]
800,324.324324324324,4,2,22,65,1,0
800,-95.2380952380952,4,2,22,65,0,0
3313,-95.2380952380952,4,2,22,64,0,0
3394,-95.2380952380952,4,2,22,65,0,0
5827,-95.2380952380952,4,2,22,45,0,0
5989,-117.647058823529,4,2,22,45,0,0
13691,-117.647058823529,4,2,22,44,0,0
13772,-117.647058823529,4,2,22,45,0,0
16367,-105.263157894737,4,2,22,55,0,0
16529,-105.263157894737,4,2,22,52,0,0
16691,-105.263157894737,4,2,22,55,0,0
22772,-105.263157894737,4,2,22,52,0,0
22854,-105.263157894737,4,2,22,55,0,0
24070,-105.263157894737,4,2,22,52,0,0
24151,-105.263157894737,4,2,22,55,0,0
26259,-105.263157894737,4,2,22,52,0,0
26421,-105.263157894737,4,2,22,55,0,0
26745,-153.846153846154,4,2,22,40,0,0
27069,-153.846153846154,4,2,22,37,0,0
27232,-153.846153846154,4,2,22,40,0,0
27556,-153.846153846154,4,2,22,37,0,0
27718,-153.846153846154,4,2,22,40,0,0
30313,-153.846153846154,4,2,22,37,0,0
30637,-153.846153846154,4,2,22,40,0,0
32097,-153.846153846154,4,2,22,37,0,0
32259,-153.846153846154,4,2,22,40,0,0
33394,-153.846153846154,4,2,22,37,0,0
33556,-153.846153846154,4,2,22,40,0,0
33718,-153.846153846154,4,2,22,37,0,0
33881,-153.846153846154,4,2,22,40,0,0
35827,-133.333333333333,4,2,22,40,0,0
38097,-133.333333333333,4,2,22,40,0,0
38340,-133.333333333333,4,2,22,34,0,0
38421,-86.9565217391304,4,2,22,75,0,1
41178,-86.9565217391304,4,2,22,75,0,1
41340,-86.9565217391304,4,2,22,75,0,1
43529,-86.9565217391304,4,2,22,64,0,1
43610,-86.9565217391304,4,2,22,75,0,1
46367,-86.9565217391304,4,2,22,75,0,1
46529,-86.9565217391304,4,2,22,75,0,1
47502,-95.2380952380952,4,2,22,75,0,0
48799,-86.9565217391304,4,2,22,75,0,1
50502,-86.9565217391304,4,2,22,64,0,1
50583,-86.9565217391304,4,2,22,75,0,1
51556,-86.9565217391304,4,2,22,75,0,1
51718,-86.9565217391304,4,2,22,75,0,1
53989,-95.2380952380952,4,2,22,75,0,0
59178,-89.2857142857143,4,2,22,85,0,1
62664,-89.2857142857143,4,2,22,67,0,1
62745,-89.2857142857143,4,2,22,85,0,1
63070,-89.2857142857143,4,2,22,85,0,0
64205,-89.2857142857143,4,2,22,40,0,0
64286,-89.2857142857143,4,2,22,64,0,0
64367,-108.695652173913,4,2,22,40,0,0
73448,-98.0392156862745,4,2,22,60,0,0
74664,-98.0392156862745,4,2,22,60,0,0
74745,-89.2857142857143,4,2,22,75,0,1
77502,-89.2857142857143,4,2,22,75,0,1
77664,-89.2857142857143,4,2,22,75,0,1
79935,-89.2857142857143,4,2,22,75,0,0
85124,-81.9672131147541,4,2,22,85,0,1
87070,-81.9672131147541,4,2,22,95,0,1
87718,-153.846153846154,4,2,22,75,0,0
87880,-153.846153846154,4,2,22,60,0,0
88043,-153.846153846154,4,2,22,75,0,0
88205,-153.846153846154,4,2,22,60,0,0
88367,-153.846153846154,4,2,22,75,0,0
88529,-153.846153846154,4,2,22,60,0,0
88691,-153.846153846154,4,2,22,75,0,0
89340,-153.846153846154,4,2,22,5,0,0

[Colours]
Combo1 : 105,58,201
Combo2 : 255,128,0
Combo3 : 0,155,230
Combo4 : 255,55,55

[HitObjects]
42,124,800,6,0,P|95:119|139:136,1,91.8749971961976,4|0,1:2|0:0,0:0:0:0:
226,263,1124,2,0,P|182:276|137:270,1,91.8749971961976,8|0,0:0|0:0,0:0:0:0:
212,143,1448,1,0,1:2:0:0:
285,212,1610,1,0,1:2:0:0:
307,30,1772,6,0,L|295:132,1,91.8749971961976,8|0,0:0|0:0,0:0:0:0:
285,212,2097,1,0,1:2:0:0:
285,212,2259,1,0,1:2:0:0:
123,36,2421,2,0,L|135:138,1,91.8749971961976,8|0,0:0|0:0,0:0:0:0:
145,218,2746,1,0,1:2:0:0:
145,218,2908,1,0,1:2:0:0:
345,308,3070,2,0,P|283:264|198:288,1,137.812495794296,8|0,0:0|0:0,0:0:0:0:
194,290,3394,6,0,L|193:381,1,91.8749971961976,4|0,1:2|0:0,0:0:0:0:
375,292,3718,2,0,L|374:201,1,91.8749971961976,8|0,0:0|0:0,0:0:0:0:
212,143,4043,2,0,P|260:130|305:132,1,91.8749971961976,8|0,0:0|0:0,0:0:0:0:
496,105,4367,2,0,P|450:105|406:93,1,91.8749971961976,8|0,0:0|0:0,0:0:0:0:
319,17,4691,1,10,1:2:0:0:
319,17,4854,1,10,1:2:0:0:
206,123,5016,1,8,0:0:0:0:
223,116,5097,1,8,0:0:0:0:
240,111,5178,1,8,0:0:0:0:
259,109,5259,1,8,0:0:0:0:
277,109,5340,5,10,1:2:0:0:
325,249,5502,1,10,1:2:0:0:
420,181,5827,5,2,0:0:0:0:
420,181,5989,2,0,L|412:255,1,74.3750014185906,6|0,1:2|0:0,0:0:0:0:
334,323,6313,2,0,L|325:249,1,74.3750014185906,2|0,1:2|0:0,0:0:0:0:
330,139,6637,1,2,1:2:0:0:
330,139,6799,1,0,0:0:0:0:
179,205,6962,2,0,P|220:188|279:193,1,74.3750014185906,2|0,1:2|0:0,0:0:0:0:
215,322,7286,6,0,B|124:294|152:370|47:327,1,148.750002837181,2|0,1:2|1:2,0:0:0:0:
13,232,7772,1,2,0:0:0:0:
104,180,7935,2,0,L|97:280,1,74.3750014185906,2|0,1:2|0:0,0:0:0:0:
25,135,8259,2,0,L|18:35,1,74.3750014185906,0|2,1:2|0:0,0:0:0:0:
140,10,8583,5,2,1:2:0:0:
101,96,8745,1,2,0:0:0:0:
261,98,8908,1,2,1:2:0:0:
222,12,9070,1,2,0:0:0:0:
179,195,9232,2,0,P|220:178|279:183,1,74.3750014185906,2|0,1:2|0:0,0:0:0:0:
320,230,9556,5,2,1:2:0:0:
335,343,9718,1,2,0:0:0:0:
238,255,9881,1,2,1:2:0:0:
223,368,10043,1,2,0:0:0:0:
331,365,10205,6,0,L|427:358,1,74.3750014185906,2|0,1:2|0:0,0:0:0:0:
394,235,10529,2,0,L|298:228,1,74.3750014185906,2|0,1:2|0:0,0:0:0:0:
478,209,10854,1,2,1:2:0:0:
478,209,11016,1,2,0:0:0:0:
423,140,11178,6,0,P|423:102|436:68,1,74.3750014185906,2|0,1:2|0:0,0:0:0:0:
378,215,11502,2,0,L|282:208,1,74.3750014185906,2|0,1:2|0:0,0:0:0:0:
275,116,11827,2,0,L|371:109,1,74.3750014185906,2|0,1:2|0:0,0:0:0:0:
209,246,12151,2,0,P|205:209|213:173,1,74.3750014185906,2|0,1:2|0:0,0:0:0:0:
361,310,12475,6,0,B|298:303|298:303|270:325|270:325|207:323,1,148.750002837181,2|0,1:2|1:2,0:0:0:0:
127,298,12962,1,2,0:0:0:0:
204,173,13124,2,0,P|212:209|208:245,1,74.3750014185906,2|0,1:2|0:0,0:0:0:0:
103,201,13448,2,0,P|99:164|107:128,1,74.3750014185906,0|2,1:2|0:0,0:0:0:0:
128,96,13691,1,0,0:0:0:0:
128,96,13772,5,2,1:2:0:0:
204,173,13935,1,2,0:0:0:0:
332,98,14097,2,0,P|289:94|243:111,1,74.3750014185906,2|0,1:2|0:0,0:0:0:0:
204,173,14421,5,2,1:2:0:0:
317,211,14583,1,2,0:0:0:0:
258,359,14745,1,2,1:2:0:0:
240,263,14908,1,2,0:0:0:0:
411,320,15070,5,2,1:2:0:0:
411,320,15232,2,0,L|328:307,1,74.3750014185906,2|0,0:0|1:2,0:0:0:0:
167,275,15556,1,2,0:0:0:0:
167,275,15718,2,0,L|250:262,1,74.3750014185906,2|0,1:2|0:0,0:0:0:0:
321,202,16043,1,6,1:2:0:0:
214,144,16205,1,2,0:0:0:0:
408,234,16367,6,0,P|408:179|383:129,1,83.1249977803231,6|0,1:2|0:0,0:0:0:0:
240,263,16691,2,0,P|228:302|230:343,1,83.1249977803231,10|0,0:0|1:2,0:0:0:0:
374,254,17016,1,2,1:2:0:0:
333,361,17178,1,0,1:2:0:0:
310,193,17340,2,0,P|265:170|213:172,1,83.1249977803231,10|0,0:0|0:0,0:0:0:0:
84,262,17664,2,0,P|125:257|160:236,1,83.1249977803231,2|0,1:2|1:0,0:0:0:0:
214,144,17989,1,8,0:0:0:0:
94,96,18151,1,2,1:2:0:0:
94,96,18313,2,0,L|97:179,1,83.1249977803231,2|0,1:2|1:2,0:0:0:0:
4,320,18637,2,0,L|7:236,1,83.1249977803231,8|2,0:0|0:0,0:0:0:0:
0,86,18962,5,2,1:2:0:0:
97,179,19124,1,2,1:2:0:0:
138,5,19286,1,10,0:0:0:0:
208,127,19448,1,2,1:2:0:0:
208,127,19529,1,0,1:2:0:0:
208,127,19610,6,0,P|284:125|294:119,1,83.1249977803231,2|0,1:2|1:2,0:0:0:0:
360,22,19935,1,10,0:0:0:0:
360,22,20097,1,2,0:0:0:0:
315,138,20259,5,2,1:2:0:0:
433,121,20421,1,2,1:2:0:0:
356,305,20583,2,0,L|364:216,1,83.1249977803231,10|0,0:0|1:2,0:0:0:0:
379,197,20827,1,0,1:2:0:0:
379,197,20908,2,0,L|477:203,1,83.1249977803231,2|0,1:2|1:0,0:0:0:0:
355,333,21232,1,10,0:0:0:0:
355,333,21394,1,2,0:0:0:0:
232,216,21556,6,0,L|239:298,1,83.1249977803231,2|0,1:2|0:0,0:0:0:0:
289,142,21881,2,0,P|245:120|191:128,1,83.1249977803231,10|0,0:0|1:0,0:0:0:0:
181,144,22124,1,0,1:2:0:0:
181,144,22205,1,2,1:2:0:0:
137,278,22367,1,0,1:2:0:0:
64,175,22529,2,0,B|61:122|61:122|96:51,1,124.687496670485,10|0,0:0|0:0,0:0:0:0:
116,38,22854,5,2,1:2:0:0:
181,144,23016,1,0,1:2:0:0:
231,25,23178,1,8,0:0:0:0:
370,128,23340,1,2,1:2:0:0:
370,128,23502,2,0,L|282:143,1,83.1249977803231,2|0,1:2|1:2,0:0:0:0:
248,259,23827,2,0,L|336:274,1,83.1249977803231,8|2,0:0|1:2,0:0:0:0:
366,284,24070,1,0,1:0:0:0:
366,284,24151,5,2,1:2:0:0:
262,157,24313,1,2,1:2:0:0:
185,310,24475,2,0,P|131:305|96:285,1,83.1249977803231,10|0,0:0|0:0,0:0:0:0:
77,143,24799,1,2,1:2:0:0:
33,263,24962,1,2,1:2:0:0:
169,204,25124,1,10,0:0:0:0:
169,204,25286,1,2,1:2:0:0:
58,131,25448,5,2,1:2:0:0:
179,69,25610,1,2,1:2:0:0:
272,188,25772,2,0,L|185:178,1,83.1249977803231,8|0,0:0|1:2,0:0:0:0:
23,301,26097,2,0,L|110:291,1,83.1249977803231,8|0,0:0|0:0,0:0:0:0:
225,371,26421,1,2,0:0:0:0:
225,371,26745,6,0,L|223:246,1,113.749994792938,6|0,1:2|0:0,0:0:0:0:
190,152,27232,1,0,1:1:0:0:
302,208,27394,2,0,L|382:201,1,56.8749973964692,10|0,0:0|0:0,0:0:0:0:
331,110,27718,2,0,L|251:103,1,56.8749973964692,2|0,0:0|1:2,0:0:0:0:
311,230,28043,2,0,L|442:221,1,113.749994792938,2|0,1:2|0:0,0:0:0:0:
424,222,28691,6,0,L|426:145,1,56.8749973964692,10|0,0:0|0:0,0:0:0:0:
493,101,29016,2,0,L|491:24,1,56.8749973964692,2|0,0:0|1:2,0:0:0:0:
347,54,29340,2,0,P|378:50|410:58,1,56.8749973964692,2|0,1:2|0:0,0:0:0:0:
292,135,29664,2,0,P|323:139|355:131,1,56.8749973964692,2|0,1:2|1:2,0:0:0:0:
265,53,29989,2,0,P|205:48|132:78,1,113.749994792938,10|0,0:0|0:0,0:0:0:0:
154,63,30637,2,0,L|139:196,1,113.749994792938,2|0,1:2|0:0,0:0:0:0:
37,247,31124,5,0,1:2:0:0:
37,247,31205,1,0,1:2:0:0:
37,247,31286,2,0,L|93:251,1,56.8749973964692,10|0,0:0|1:2,0:0:0:0:
184,256,31610,2,0,L|252:250,1,56.8749973964692,2|0,1:2|1:2,0:0:0:0:
354,222,31935,6,0,L|352:295,1,56.8749973964692,2|0,1:2|0:0,0:0:0:0:
280,181,32259,2,0,L|278:108,1,56.8749973964692,2|0,0:0|1:2,0:0:0:0:
327,43,32583,2,0,P|292:31|252:29,1,56.8749973964692,10|0,0:0|0:0,0:0:0:0:
134,93,32908,2,0,P|162:88|188:78,1,56.8749973964692,2|0,0:0|1:2,0:0:0:0:
195,186,33232,6,0,P|168:175|140:171,1,56.8749973964692,2|0,1:2|0:0,0:0:0:0:
48,155,33556,2,0,L|54:229,1,56.8749973964692,2|0,0:0|0:0,0:0:0:0:
141,267,33881,1,10,1:2:0:0:
141,267,34205,2,0,L|73:281,1,56.8749973964692,2|0,0:0|1:2,0:0:0:0:
18,348,34529,2,0,L|86:362,1,56.8749973964692,2|0,1:2|0:0,0:0:0:0:
163,368,34854,2,0,L|231:354,1,56.8749973964692,2|0,1:2|1:2,0:0:0:0:
303,310,35178,2,0,L|289:242,1,56.8749973964692,10|0,0:0|1:2,0:0:0:0:
226,180,35502,1,0,0:2:0:0:
226,180,35827,6,0,P|265:160|300:160,1,65.6250025033952,10|8,0:0|0:0,0:0:0:0:
326,180,36070,2,0,P|365:200|400:200,1,65.6250025033952,0|8,1:2|1:2,0:0:0:0:
430,191,36313,1,0,1:2:0:0:
483,77,36475,1,8,0:0:0:0:
363,72,36637,2,0,L|320:77,2,32.8125012516976,0|0|8,1:2|1:2|0:2,1:2:0:0:
430,191,36962,2,0,L|423:273,1,65.6250025033952,8|0,0:0|1:2,0:0:0:0:
256,192,37205,12,2,38097,0:0:0:0:
59,258,38259,6,0,L|65:210,1,32.8125012516976,2|0,0:0|0:0,0:0:0:0:
20,145,38421,6,0,B|144:121|105:200|234:167,1,201.250003838539,6|8,1:2|0:0,0:0:0:0:
287,92,38908,1,2,1:2:0:0:
397,188,39070,2,0,L|384:333,1,100.62500191927,2|0,1:2|1:2,0:0:0:0:
234,287,39394,1,8,0:0:0:0:
313,206,39556,1,2,0:0:0:0:
358,382,39718,6,0,P|296:334|169:339,1,201.250003838539,2|8,1:2|0:0,0:0:0:0:
89,384,40205,1,2,1:2:0:0:
98,244,40367,2,0,P|148:219|207:223,1,100.62500191927,2|0,1:2|1:2,0:0:0:0:
24,299,40691,1,8,0:0:0:0:
163,298,40854,1,2,0:2:0:0:
34,108,41016,6,0,L|19:220,1,100.62500191927,2|0,1:2|1:0,0:0:0:0:
129,119,41340,1,8,0:0:0:0:
63,21,41502,1,2,1:2:0:0:
98,207,41664,2,0,P|147:205|191:181,1,100.62500191927,2|0,1:2|1:2,0:0:0:0:
320,65,41989,1,8,0:0:0:0:
307,222,42151,1,2,0:0:0:0:
214,66,42313,5,2,1:2:0:0:
395,143,42475,1,0,1:0:0:0:
214,274,42637,2,0,P|288:266|333:282,1,100.62500191927,8|0,0:0|0:0,0:0:0:0:
441,351,42962,1,0,1:2:0:0:
394,239,43124,1,0,1:2:0:0:
342,351,43286,1,8,0:0:0:0:
482,251,43448,2,0,L|488:181,1,50.3125009596348,2|0,0:0|0:0,0:0:0:0:
512,124,43610,6,0,B|424:119|424:119|392:143|392:143|301:140,1,201.250003838539,6|8,1:2|0:0,0:0:0:0:
189,106,44097,1,2,1:2:0:0:
307,27,44259,2,0,P|327:89|321:139,1,100.62500191927,2|0,1:2|1:2,0:0:0:0:
226,226,44583,1,8,0:0:0:0:
318,140,44745,1,2,0:0:0:0:
346,315,44908,6,0,P|249:270|150:306,1,201.250003838539,2|8,1:2|0:0,0:0:0:0:
49,351,45394,1,2,1:2:0:0:
85,139,45556,2,0,L|99:251,1,100.62500191927,2|0,1:2|1:2,0:0:0:0:
196,102,45881,1,8,0:0:0:0:
27,39,46043,1,2,0:0:0:0:
166,184,46205,6,0,P|226:183|262:164,1,100.62500191927,2|0,1:2|1:0,0:0:0:0:
372,68,46529,1,8,0:0:0:0:
391,203,46691,1,2,1:2:0:0:
273,82,46854,1,2,1:2:0:0:
483,102,47016,1,0,1:2:0:0:
307,260,47178,5,8,0:0:0:0:
388,174,47340,1,2,0:0:0:0:
494,371,47502,5,10,1:2:0:0:
391,203,47664,1,10,1:2:0:0:
303,368,48151,1,10,1:2:0:0:
391,203,48313,1,10,1:2:0:0:
297,291,48475,1,8,0:0:0:0:
297,291,48556,1,8,0:0:0:0:
297,291,48637,2,0,L|241:262,1,45.9374985980988,10|8,0:0|0:0,0:0:0:0:
174,148,48799,6,0,L|161:355,1,201.250003838539,6|8,1:2|0:0,0:0:0:0:
254,362,49286,1,2,1:2:0:0:
361,210,49448,2,0,P|305:187|249:197,1,100.62500191927,2|0,1:2|1:2,0:0:0:0:
297,291,49772,1,8,0:0:0:0:
391,203,49935,1,2,0:0:0:0:
442,352,50097,6,0,B|362:344|362:344|326:375|326:375|229:357,1,201.250003838539,2|8,1:2|0:0,0:0:0:0:
237,353,50502,1,0,1:0:0:0:
237,353,50583,1,2,1:2:0:0:
121,205,50745,2,0,L|132:315,1,100.62500191927,2|0,1:2|1:2,0:0:0:0:
219,268,51070,1,8,0:0:0:0:
254,98,51232,1,2,0:0:0:0:
55,138,51394,6,0,P|123:114|161:119,1,100.62500191927,2|0,1:2|1:0,0:0:0:0:
264,185,51718,1,8,0:0:0:0:
121,205,51881,1,2,1:2:0:0:
353,310,52043,2,0,L|362:192,1,100.62500191927,2|0,1:2|1:2,0:0:0:0:
348,65,52367,1,8,0:0:0:0:
264,185,52529,1,2,0:2:0:0:
416,126,52691,2,0,P|469:130|523:158,1,100.62500191927,2|0,1:2|1:0,0:0:0:0:
360,209,53016,5,12,0:0:0:0:
360,209,53340,2,0,P|310:205|264:185,1,100.62500191927,2|8,1:2|0:0,0:0:0:0:
145,131,53664,1,8,0:0:0:0:
145,131,53745,1,8,0:0:0:0:
145,131,53827,2,0,P|110:132|74:150,1,50.3125009596348,8|8,0:0|0:0,0:0:0:0:
217,262,53989,6,0,P|225:167|237:79,1,183.749994392395,6|8,1:2|0:0,0:0:0:0:
132,215,54475,1,0,0:0:0:0:
132,215,54637,2,0,P|142:266|148:336,1,91.8749971961976,2|0,1:2|0:0,0:0:0:0:
249,275,54962,2,0,P|254:229|263:184,1,91.8749971961976,8|0,0:0|0:0,0:0:0:0:
215,52,55286,6,0,B|152:27|152:27|36:55,2,183.749994392395,2|8|2,1:2|0:0|1:2,0:0:0:0:
284,150,56097,1,0,0:0:0:0:
284,150,56259,2,0,B|329:162|329:162|380:148,1,91.8749971961976,8|0,0:0|0:0,0:0:0:0:
469,42,56583,6,0,L|477:152,1,91.8749971961976,6|0,1:2|0:0,0:0:0:0:
434,318,56908,2,0,L|442:208,1,91.8749971961976,8|0,0:0|0:0,0:0:0:0:
388,17,57232,2,0,B|284:2|321:78|207:50,1,183.749994392395,2|8,1:2|0:0,0:0:0:0:
112,22,57718,1,0,0:0:0:0:
112,22,57881,6,0,P|99:66|97:126,1,91.8749971961976,2|0,1:2|0:0,0:0:0:0:
215,247,58205,2,0,P|211:201|198:157,1,91.8749971961976,8|0,0:0|0:0,0:0:0:0:
117,353,58529,2,0,P|198:299|305:323,1,183.749994392395,2|8,1:2|0:0,0:0:0:0:
280,308,59178,5,14,0:0:0:0:
353,196,59340,1,0,0:0:0:0:
129,138,59502,5,10,0:0:0:0:
215,247,59664,1,0,0:0:0:0:
416,124,59827,2,0,P|365:102|296:117,1,98.0000011962891,10|0,0:0|0:0,0:0:0:0:
308,337,60151,2,0,P|356:338|400:317,1,98.0000011962891,10|0,0:0|0:0,0:0:0:0:
302,114,60475,5,10,0:0:0:0:
280,308,60637,1,0,0:0:0:0:
129,138,60799,5,10,0:0:0:0:
117,353,60961,1,0,0:0:0:0:
257,190,61124,2,0,L|141:214,1,98.0000011962891,10|0,0:0|0:0,0:0:0:0:
314,345,61448,2,0,L|430:369,1,98.0000011962891,10|0,0:0|0:0,0:0:0:0:
471,171,61772,6,0,L|480:298,1,98.0000011962891,10|0,0:0|0:0,0:0:0:0:
293,111,62097,2,0,L|284:238,1,98.0000011962891,10|0,0:0|0:0,0:0:0:0:
505,46,62421,2,0,B|424:26|440:83|349:55,1,147.000001794434,10|0,0:0|0:0,0:0:0:0:
291,27,62745,1,10,0:0:0:0:
291,27,62908,1,2,0:0:0:0:
188,11,63070,5,10,1:2:0:0:
293,111,63232,1,10,1:2:0:0:
291,27,63718,1,10,1:2:0:0:
186,127,63880,1,10,1:2:0:0:
186,127,64205,2,0,P|175:151|171:189,1,49.0000005981445,2|0,0:0|0:0,0:0:0:0:
178,269,64367,5,6,0:0:0:0:
325,235,73448,5,10,1:2:0:0:
218,80,73610,1,10,1:2:0:0:
138,237,74097,5,10,1:2:0:0:
218,80,74259,1,10,1:2:0:0:
218,80,74583,2,0,L|234:26,1,44.6250002723694,2|0,0:0|0:0,0:0:0:0:
153,116,74745,6,0,B|274:107|235:180|368:159,1,196.000002392578,6|8,1:2|0:0,0:0:0:0:
414,72,75232,1,2,1:2:0:0:
487,231,75394,2,0,L|465:373,1,98.0000011962891,2|0,1:2|1:2,0:0:0:0:
309,265,75718,1,8,0:0:0:0:
411,183,75881,1,2,0:0:0:0:
382,353,76043,6,0,B|312:344|312:344|261:364|261:364|168:352,1,196.000002392578,2|8,1:2|0:0,0:0:0:0:
117,206,76529,1,2,1:2:0:0:
211,177,76691,2,0,L|191:295,1,98.0000011962891,2|0,1:2|1:2,0:0:0:0:
108,327,77016,1,8,0:0:0:0:
272,280,77178,1,2,0:0:0:0:
137,106,77340,6,0,P|77:111|35:153,1,98.0000011962891,6|0,1:2|1:0,0:0:0:0:
21,292,77664,1,8,0:0:0:0:
117,206,77827,1,2,1:2:0:0:
208,363,77989,2,0,L|312:352,1,98.0000011962891,2|0,1:2|1:2,0:0:0:0:
295,193,78313,1,8,0:0:0:0:
192,281,78475,1,2,0:2:0:0:
383,246,78637,2,0,P|396:196|383:145,1,98.0000011962891,2|0,1:2|1:2,0:0:0:0:
272,37,78962,5,12,0:0:0:0:
272,37,79286,2,0,L|404:22,1,98.0000011962891,2|8,1:2|0:0,0:0:0:0:
465,118,79610,1,8,0:0:0:0:
465,118,79691,1,8,0:0:0:0:
465,118,79772,2,0,L|471:199,1,49.0000005981445,8|8,0:0|0:0,0:0:0:0:
485,261,79935,6,0,B|374:228|403:311|281:275,1,196.000002392578,6|8,1:2|0:0,0:0:0:0:
202,208,80421,1,0,0:0:0:0:
202,208,80583,2,0,L|211:97,1,98.0000011962891,2|0,1:2|0:0,0:0:0:0:
296,279,80908,2,0,L|305:390,1,98.0000011962891,8|0,0:0|0:0,0:0:0:0:
108,291,81232,6,0,P|188:236|291:271,2,196.000002392578,2|8|2,1:2|0:0|1:2,0:0:0:0:
23,368,82043,1,0,0:0:0:0:
23,368,82205,2,0,P|25:310|19:261,1,98.0000011962891,8|0,0:0|0:0,0:0:0:0:
127,83,82529,6,0,P|122:131|124:180,1,98.0000011962891,6|0,1:2|0:0,0:0:0:0:
278,259,82854,2,0,P|280:210|275:161,1,98.0000011962891,8|0,0:0|0:0,0:0:0:0:
141,6,83178,2,0,B|217:1|217:1|279:27|279:27|345:22,1,196.000002392578,2|8,1:2|0:0,0:0:0:0:
469,143,83664,1,0,0:0:0:0:
469,143,83827,2,0,P|422:117|362:115,1,98.0000011962891,2|0,1:2|0:0,0:0:0:0:
185,191,84151,2,0,P|232:165|292:163,1,98.0000011962891,8|0,0:0|0:0,0:0:0:0:
125,278,84475,2,0,P|130:176|124:61,1,196.000002392578,6|12,1:2|0:0,0:0:0:0:
126,82,85124,5,14,0:0:0:0:
33,236,85286,1,0,0:0:0:0:
125,278,85448,5,10,0:0:0:0:
42,128,85610,1,0,0:0:0:0:
77,358,85772,2,0,P|136:371|190:348,1,106.749995602036,10|0,0:0|0:0,0:0:0:0:
286,192,86097,2,0,P|235:176|184:190,1,106.749995602036,10|0,0:0|0:0,0:0:0:0:
33,236,86421,5,10,0:0:0:0:
126,82,86583,1,0,0:0:0:0:
208,360,86745,5,10,0:0:0:0:
184,190,86908,1,0,0:0:0:0:
10,313,87070,2,0,P|65:278|109:279,1,106.749995602036,10|0,0:0|0:0,0:0:0:0:
121,81,87394,2,0,P|68:77|26:46,1,106.749995602036,10|0,0:0|0:0,0:0:0:0:
278,23,87718,6,0,L|283:87,1,56.8749973964692,2|0,0:0|0:0,0:0:0:0:
224,156,88043,2,0,L|219:220,1,56.8749973964692,2|0,0:0|0:0,0:0:0:0:
208,360,88367,2,0,L|275:347,1,56.8749973964692,2|0,0:0|0:0,0:0:0:0:
308,257,88691,1,2,0:0:0:0:
308,257,88854,1,2,0:0:0:0:
219,212,89016,2,0,L|99:222,1,113.749994792938,2|0,0:0|0:0,0:0:0:0:
