osu file format v14

[General]
AudioFilename: audio.mp3
AudioLeadIn: 0
PreviewTime: 38128
Countdown: 0
SampleSet: Soft
StackLeniency: 0.5
Mode: 0
LetterboxInBreaks: 0
WidescreenStoryboard: 1

[Editor]
DistanceSpacing: 1.1
BeatDivisor: 4
GridSize: 32
TimelineZoom: 1.8

[Metadata]
Title:Inferno (TV Size)
TitleUnicode:インフェルノ (TV Size)
Artist:Mrs. GREEN APPLE
ArtistUnicode:Mrs. GREEN APPLE
Creator:Reform
Version:Easy
Source:炎炎ノ消防隊
Tags:Kujinn [_Eli_] Logic Agent Eli MaestroSplinter browiec Nelliel OnlyBiscuit brotarks Haruto haruto_aizawa KittyAdventure gokugohan12468 Ipas toybot AnzeigeistRaus Anzei FuJu Japanese fire force brigade of flames Enen no Shouboutai opening op anime ミセスグリーンアップル motoki omori 大森元貴 hiroto wakai 若井滉斗 ayaka yamanaka 山中綾華 ryoka fujisawa 藤澤涼架 kiyokatsu takano 髙野清宗
BeatmapID:2126721
BeatmapSetID:999126

[Difficulty]
HPDrainRate:3
CircleSize:3
OverallDifficulty:3
ApproachRate:3
SliderMultiplier:0.849999999999999
SliderTickRate:1

[Events]
//Background and Video events
0,0,"BG.jpg",0,0
//Break Periods
2,64567,72008
//Storyboard Layer 0 (Background)
//Storyboard Layer 1 (Fail)
//Storyboard Layer 2 (Pass)
//Storyboard Layer 3 (Foreground)
//Storyboard Layer 4 (Overlay)
//Storyboard Sound Samples

[TimingPoints]
800,324.324324324324,4,2,22,65,1,0
5989,-100,4,2,22,45,0,0
16367,-100,4,2,22,55,0,0
26745,-100,4,2,22,40,0,0
38421,-100,4,2,22,75,0,1
47502,-100,4,2,22,75,0,0
48799,-100,4,2,22,75,0,1
59178,-100,4,2,22,85,0,1
64367,-100,4,2,22,40,0,0
73448,-100,4,2,22,60,0,0
74745,-100,4,2,22,75,0,1
85124,-100,4,2,22,85,0,1
87069,-100,4,2,22,95,0,1
87718,-100,4,2,22,75,0,0
89340,-100,4,2,22,5,0,0

[Colours]
Combo1 : 105,58,201
Combo2 : 255,128,0
Combo3 : 0,155,230
Combo4 : 255,55,55

[HitObjects]
43,73,800,6,0,B|152:63|103:126|206:118,1,170,4|0,1:2|1:2,0:0:0:0:
278,67,1772,1,8,0:0:0:0:
341,136,2097,2,0,L|336:227,1,84.9999999999999,0|8,1:2|0:0,0:0:0:0:
266,283,2745,2,0,P|218:292|176:272,1,84.9999999999999,0|8,1:2|0:0,0:0:0:0:
105,230,3394,6,0,P|65:216|24:226,2,84.9999999999999,4|8|8,1:2|0:0|0:0,0:0:0:0:
58,311,4367,1,8,0:0:0:0:
138,358,4691,2,0,L|183:354,1,42.5,10|10,1:2|1:2,0:0:0:0:
305,291,5340,2,0,L|347:294,1,42.5,10|10,1:2|1:2,0:0:0:0:
452,201,5989,6,0,L|458:109,1,84.9999999999999,6|2,1:2|1:2,0:0:0:0:
390,51,6637,2,0,B|349:40|349:40|293:52,1,84.9999999999999,2|2,1:2|1:2,0:0:0:0:
221,84,7286,2,0,B|176:93|176:93|138:81,2,84.9999999999999,2|0|2,1:2|1:2|1:2,0:0:0:0:
293,143,8259,1,0,1:2:0:0:
213,192,8583,6,0,P|207:227|216:280,1,84.9999999999999,2|2,1:2|1:2,0:0:0:0:
285,336,9232,2,0,L|382:341,1,84.9999999999999,2|2,1:2|1:2,0:0:0:0:
427,266,9881,1,2,1:2:0:0:
365,195,10205,1,2,1:2:0:0:
430,128,10529,2,0,L|433:32,1,84.9999999999999,2|2,1:2|1:2,0:0:0:0:
341,22,11178,6,0,P|301:14|251:25,1,84.9999999999999,2|2,1:2|1:2,0:0:0:0:
182,78,11827,2,0,P|140:85|99:77,1,84.9999999999999,2|2,1:2|1:2,0:0:0:0:
15,35,12475,2,0,P|3:74|12:123,2,84.9999999999999,2|0|2,1:2|1:2|1:2,0:0:0:0:
99,77,13448,1,0,1:2:0:0:
145,158,13772,6,0,B|154:205|154:205|138:253,1,84.9999999999999,2|2,1:2|1:2,0:0:0:0:
66,295,14421,2,0,B|57:342|57:342|73:390,1,84.9999999999999,2|2,1:2|1:2,0:0:0:0:
153,337,15070,2,0,L|242:327,1,84.9999999999999,2|0,1:2|1:2,0:0:0:0:
320,370,15718,1,2,1:2:0:0:
397,317,16043,1,6,1:2:0:0:
329,251,16367,6,0,P|317:201|333:157,1,84.9999999999999,6|10,1:2|0:0,0:0:0:0:
378,92,17016,2,0,P|390:42|374:-2,1,84.9999999999999,2|10,1:2|0:0,0:0:0:0:
293,41,17664,2,0,L|197:29,1,84.9999999999999,2|8,1:2|0:0,0:0:0:0:
131,83,18313,1,2,1:2:0:0:
200,145,18637,1,8,0:0:0:0:
124,200,18962,6,0,L|133:284,1,84.9999999999999,2|10,1:2|0:0,0:0:0:0:
202,346,19610,2,0,P|232:354|288:342,1,84.9999999999999,2|10,1:2|0:0,0:0:0:0:
368,302,20259,2,0,P|408:291|450:300,2,84.9999999999999,2|10|2,1:2|0:0|1:2,0:0:0:0:
284,343,21232,1,10,0:0:0:0:
222,272,21556,6,0,L|210:170,1,84.9999999999999,2|10,1:2|0:0,0:0:0:0:
262,108,22205,2,0,L|274:6,1,84.9999999999999,2|10,1:2|0:0,0:0:0:0:
182,52,22854,2,0,B|139:63|139:63|85:47,1,84.9999999999999,2|8,1:2|0:0,0:0:0:0:
9,30,23502,1,2,1:2:0:0:
48,115,23827,1,8,0:0:0:0:
5,197,24151,6,0,L|19:283,1,84.9999999999999,2|10,1:2|0:0,0:0:0:0:
89,342,24799,2,0,P|125:330|186:350,1,84.9999999999999,2|10,1:2|0:0,0:0:0:0:
260,362,25448,2,0,P|300:371|341:359,2,84.9999999999999,2|8|8,1:2|0:0|0:0,0:0:0:0:
170,339,26421,1,2,0:0:0:0:
196,249,26745,6,0,P|242:216|343:253,1,170,6|10,1:2|0:0,0:0:0:0:
391,329,27718,1,2,0:0:0:0:
457,262,28043,2,0,B|455:185|455:185|443:164|443:164|439:81,1,170,2|10,1:2|0:0,0:0:0:0:
365,38,29016,1,2,0:0:0:0:
291,95,29340,6,0,B|188:82|232:157|115:137,1,170,2|10,1:2|0:0,0:0:0:0:
41,125,30313,1,2,0:0:0:0:
11,213,30637,2,0,P|22:274|122:301,1,170,2|10,1:2|0:0,0:0:0:0:
186,241,31610,1,2,1:2:0:0:
243,315,31935,6,0,B|314:310|314:310|333:292|333:292|422:285,1,170,2|10,1:2|0:0,0:0:0:0:
482,340,32908,1,2,0:0:0:0:
493,247,33232,2,0,L|500:156,2,84.9999999999999,2|2|10,1:2|0:0|1:2,0:0:0:0:
405,286,34205,1,2,0:0:0:0:
341,217,34529,6,0,P|277:178|191:206,1,170,2|10,1:2|0:0,0:0:0:0:
126,272,35502,1,0,0:2:0:0:
59,205,35827,2,0,P|41:157|98:55,1,170,10|8,0:0|0:0,0:0:0:0:
279,46,37124,6,0,L|372:41,2,84.9999999999999,0|0|8,1:2|0:0|0:0,0:0:0:0:
185,52,38097,1,2,0:0:0:0:
246,122,38421,6,0,P|255:168|241:218,1,84.9999999999999,6|8,1:2|0:0,0:0:0:0:
173,262,39070,2,0,P|164:308|178:358,1,84.9999999999999,2|8,1:2|0:0,0:0:0:0:
262,367,39718,2,0,L|363:354,1,84.9999999999999,2|8,1:2|0:0,0:0:0:0:
392,274,40367,2,0,L|291:261,1,84.9999999999999,2|8,1:2|0:0,0:0:0:0:
262,181,41016,6,0,B|248:135|248:135|264:89,2,84.9999999999999,2|8|2,1:2|0:0|1:2,0:0:0:0:
307,263,41989,1,8,0:0:0:0:
236,324,42313,2,0,L|144:332,1,84.9999999999999,2|8,1:2|0:0,0:0:0:0:
112,245,42962,2,0,L|196:237,1,84.9999999999999,0|8,1:2|0:0,0:0:0:0:
268,178,43610,6,0,P|276:128|260:88,1,84.9999999999999,6|8,1:2|0:0,0:0:0:0:
186,45,44259,2,0,L|96:54,1,84.9999999999999,2|8,1:2|0:0,0:0:0:0:
54,134,44908,2,0,L|144:143,1,84.9999999999999,2|8,1:2|0:0,0:0:0:0:
191,219,45556,1,2,1:2:0:0:
134,293,45881,1,8,0:0:0:0:
199,359,46205,6,0,B|247:369|247:369|295:361,1,84.9999999999999,2|8,1:2|0:0,0:0:0:0:
353,301,46854,2,0,B|395:295|395:295|435:305,1,84.9999999999999,2|8,1:2|0:0,0:0:0:0:
491,229,47502,2,0,L|498:179,1,42.5,10|10,1:2|1:2,0:0:0:0:
388,98,48151,2,0,L|381:148,1,42.5,10|10,1:2|1:2,0:0:0:0:
272,227,48799,6,0,P|224:233|179:217,1,84.9999999999999,6|8,1:2|0:0,0:0:0:0:
124,154,49448,2,0,L|120:65,1,84.9999999999999,2|8,1:2|0:0,0:0:0:0:
203,25,50097,2,0,P|251:19|296:35,1,84.9999999999999,2|8,1:2|0:0,0:0:0:0:
343,102,50745,2,0,L|339:186,1,84.9999999999999,2|8,1:2|0:0,0:0:0:0:
267,246,51394,6,0,L|270:330,2,84.9999999999999,2|8|2,1:2|0:0|1:2,0:0:0:0:
218,165,52367,1,8,0:0:0:0:
136,210,52691,2,0,B|91:216|91:216|43:198,1,84.9999999999999,2|12,1:2|0:0,0:0:0:0:
18,115,53340,2,0,B|63:109|63:109|111:127,1,84.9999999999999,2|8,1:2|0:0,0:0:0:0:
191,141,53989,6,0,L|186:46,2,84.9999999999999,6|8|2,1:2|0:0|1:2,0:0:0:0:
136,210,54962,1,8,0:0:0:0:
192,284,55286,2,0,L|187:368,2,84.9999999999999,2|8|2,1:2|0:0|1:2,0:0:0:0:
256,216,56259,1,8,0:0:0:0:
334,266,56583,6,0,B|375:280|375:280|432:269,2,84.9999999999999,6|8|2,1:2|0:0|1:2,0:0:0:0:
252,312,57556,1,8,0:0:0:0:
191,240,57881,2,0,B|150:226|150:226|93:237,2,84.9999999999999,2|8|2,1:2|0:0|1:2,0:0:0:0:
272,193,58854,1,8,0:0:0:0:
334,266,59178,6,0,L|344:357,1,84.9999999999999,14|10,0:0|0:0,0:0:0:0:
431,318,59827,2,0,L|440:233,1,84.9999999999999,10|10,0:0|0:0,0:0:0:0:
377,164,60475,1,10,0:0:0:0:
440,95,60799,1,10,0:0:0:0:
359,47,61124,2,0,L|269:55,1,84.9999999999999,10|10,0:0|0:0,0:0:0:0:
194,103,61772,6,0,L|109:95,2,84.9999999999999,10|10|10,0:0|0:0|0:0,0:0:0:0:
252,176,62745,1,10,0:0:0:0:
181,237,63070,2,0,L|125:242,1,42.5,10|10,1:2|1:2,0:0:0:0:
240,337,63718,2,0,L|296:342,1,42.5,10|10,1:2|1:2,0:0:0:0:
399,263,64367,5,6,0:0:0:0:
217,310,73448,6,0,L|214:363,1,42.5,10|10,1:2|1:2,0:0:0:0:
114,254,74097,2,0,L|111:211,1,42.5,10|10,1:2|1:2,0:0:0:0:
237,162,74745,6,0,B|284:152|284:152|334:167,1,84.9999999999999,6|8,1:2|0:0,0:0:0:0:
388,230,75394,2,0,L|392:319,1,84.9999999999999,2|8,1:2|0:0,0:0:0:0:
313,366,76043,2,0,B|266:376|266:376|216:361,1,84.9999999999999,2|8,1:2|0:0,0:0:0:0:
174,290,76691,2,0,L|177:205,1,84.9999999999999,2|8,1:2|0:0,0:0:0:0:
245,138,77340,6,0,L|241:53,2,84.9999999999999,6|8|2,1:2|0:0|1:2,0:0:0:0:
294,219,78313,1,8,0:0:0:0:
376,174,78637,2,0,P|422:164|467:180,1,84.9999999999999,2|12,1:2|0:0,0:0:0:0:
499,258,79286,2,0,P|453:268|408:252,1,84.9999999999999,2|8,1:2|0:0,0:0:0:0:
321,243,79935,6,0,L|326:338,2,84.9999999999999,6|8|2,1:2|0:0|1:2,0:0:0:0:
376,174,80908,1,8,0:0:0:0:
320,100,81232,2,0,L|324:15,2,84.9999999999999,2|8|2,1:2|0:0|1:2,0:0:0:0:
256,168,82205,1,8,0:0:0:0:
178,118,82529,6,0,B|137:104|137:104|80:115,2,84.9999999999999,6|8|2,1:2|0:0|1:2,0:0:0:0:
260,72,83502,1,8,0:0:0:0:
321,144,83827,2,0,B|362:158|362:158|419:147,2,84.9999999999999,2|8|6,1:2|0:0|1:2,0:0:0:0:
240,191,84800,1,12,0:0:0:0:
178,118,85124,6,0,L|78:114,1,84.9999999999999,14|10,0:0|0:0,0:0:0:0:
60,202,85772,2,0,L|160:198,1,84.9999999999999,10|10,0:0|0:0,0:0:0:0:
211,265,86421,2,0,B|202:309|202:309|221:364,2,84.9999999999999,10|10|10,0:0|0:0|0:0,0:0:0:0:
247,178,87394,1,10,0:0:0:0:
328,223,87718,6,0,P|412:239|471:173,2,170,2|2|2,0:0|0:0|0:0,0:0:0:0:
