osu file format v14

[General]
AudioFilename: audio.mp3
AudioLeadIn: 0
PreviewTime: 38128
Countdown: 0
SampleSet: Soft
StackLeniency: 0.5
Mode: 0
LetterboxInBreaks: 0
WidescreenStoryboard: 1

[Editor]
Bookmarks: 5744,9311,16122,26500,38176,53744
DistanceSpacing: 1
BeatDivisor: 4
GridSize: 32
TimelineZoom: 2.699999

[Metadata]
Title:Inferno (TV Size)
TitleUnicode:インフェルノ (TV Size)
Artist:Mrs. GREEN APPLE
ArtistUnicode:Mrs. GREEN APPLE
Creator:Reform
Version:Anzei's Extra
Source:炎炎ノ消防隊
Tags:Kujinn [_Eli_] Logic Agent Eli MaestroSplinter browiec Nelliel OnlyBiscuit brotarks Haruto haruto_aizawa KittyAdventure gokugohan12468 Ipas toybot AnzeigeistRaus Anzei FuJu Japanese fire force brigade of flames Enen no Shouboutai opening op anime ミセスグリーンアップル motoki omori 大森元貴 hiroto wakai 若井滉斗 ayaka yamanaka 山中綾華 ryoka fujisawa 藤澤涼架 kiyokatsu takano 髙野清宗
BeatmapID:2195762
BeatmapSetID:999126

[Difficulty]
HPDrainRate:5.8
CircleSize:4
OverallDifficulty:8.8
ApproachRate:9.4
SliderMultiplier:1.8
SliderTickRate:1

[Events]
//Background and Video events
0,0,"BG.jpg",0,0
//Break Periods
2,64567,72008
//Storyboard Layer 0 (Background)
//Storyboard Layer 1 (Fail)
//Storyboard Layer 2 (Pass)
//Storyboard Layer 3 (Foreground)
//Storyboard Layer 4 (Overlay)
//Storyboard Sound Samples

[TimingPoints]
800,324.324324324324,4,2,22,65,1,0
800,-94.3396226415094,4,2,22,65,0,0
1043,-94.3396226415094,4,2,22,5,0,0
1124,-94.3396226415094,4,2,22,65,0,0
2016,-94.3396226415094,4,2,22,5,0,0
2097,-94.3396226415094,4,2,22,65,0,0
2421,-94.3396226415094,4,2,22,65,0,0
3394,-79.3650793650794,4,2,22,65,0,0
5989,-121.951219512195,4,2,22,45,0,0
6556,-121.951219512195,4,2,22,5,0,0
6637,-121.951219512195,4,2,22,45,0,0
7205,-121.951219512195,4,2,22,5,0,0
7286,-121.951219512195,4,2,22,45,0,0
10448,-121.951219512195,4,2,22,5,0,0
10529,-121.951219512195,4,2,22,45,0,0
11421,-121.951219512195,4,2,22,5,0,0
11502,-121.951219512195,4,2,22,45,0,0
11745,-121.951219512195,4,2,22,5,0,0
11827,-121.951219512195,4,2,22,45,0,0
12394,-121.951219512195,4,2,22,50,0,0
12475,-121.951219512195,4,2,22,45,0,0
13691,-121.951219512195,4,2,22,50,0,0
13772,-121.951219512195,4,2,22,45,0,0
14340,-121.951219512195,4,2,22,5,0,0
14421,-121.951219512195,4,2,22,45,0,0
16286,-121.951219512195,4,2,22,5,0,0
16367,-98.0392156862745,4,2,22,55,0,0
16529,-98.0392156862745,4,2,22,60,0,0
16691,-98.0392156862745,4,2,22,55,0,0
17583,-98.0392156862745,4,2,22,5,0,0
17664,-98.0392156862745,4,2,22,55,0,0
18232,-98.0392156862745,4,2,22,5,0,0
18313,-98.0392156862745,4,2,22,55,0,0
20908,-98.0392156862745,4,2,22,55,0,0
21151,-98.0392156862745,4,2,22,60,0,0
21232,-98.0392156862745,4,2,22,55,0,0
21799,-98.0392156862745,4,2,22,5,0,0
21881,-98.0392156862745,4,2,22,55,0,0
22205,-98.0392156862745,4,2,22,55,0,0
22772,-98.0392156862745,4,2,22,5,0,0
22853,-98.0392156862745,4,2,22,60,0,0
22854,-98.0392156862745,4,2,22,55,0,0
26259,-98.0392156862745,4,2,22,60,0,0
26421,-142.857142857143,4,2,22,55,0,0
26664,-142.857142857143,4,2,22,5,0,0
26745,-142.857142857143,4,2,22,40,0,0
27069,-142.857142857143,4,2,22,50,0,0
27394,-142.857142857143,4,2,22,40,0,0
27556,-142.857142857143,4,2,22,50,0,0
27718,-142.857142857143,4,2,22,40,0,0
29583,-142.857142857143,4,2,22,5,0,0
29664,-142.857142857143,4,2,22,40,0,0
30313,-142.857142857143,4,2,22,50,0,0
30637,-142.857142857143,4,2,22,40,0,0
32097,-142.857142857143,4,2,22,50,0,0
32259,-142.857142857143,4,2,22,40,0,0
32826,-142.857142857143,4,2,22,50,0,0
32908,-142.857142857143,4,2,22,40,0,0
33394,-142.857142857143,4,2,22,50,0,0
33556,-142.857142857143,4,2,22,40,0,0
33718,-142.857142857143,4,2,22,50,0,0
33881,-142.857142857143,4,2,22,40,0,0
34043,-142.857142857143,4,2,22,50,0,0
34205,-142.857142857143,4,2,22,40,0,0
35827,-104.166666666667,4,2,22,40,0,0
38016,-104.166666666667,4,2,22,50,0,0
38097,-384.615384615389,4,2,22,40,0,0
38340,-384.615384615389,4,2,22,50,0,0
38421,-89.2857142857143,4,2,22,75,0,0
39637,-89.2857142857143,4,2,22,5,0,0
39718,-89.2857142857143,4,2,22,75,0,0
41178,-89.2857142857143,4,2,22,75,0,0
41340,-89.2857142857143,4,2,22,75,0,0
46367,-89.2857142857143,4,2,22,75,0,0
46529,-89.2857142857143,4,2,22,75,0,0
47502,-89.2857142857143,4,2,22,75,0,0
48799,-89.2857142857143,4,2,22,75,0,0
51556,-89.2857142857143,4,2,22,75,0,0
51718,-89.2857142857143,4,2,22,75,0,0
53421,-89.2857142857143,4,2,22,80,0,0
53502,-89.2857142857143,4,2,22,75,0,0
53989,-95.2380952380952,4,2,22,75,0,0
54151,-95.2380952380952,4,2,22,5,0,0
54313,-95.2380952380952,4,2,22,75,0,0
54475,-95.2380952380952,4,2,22,75,0,0
54637,-95.2380952380952,4,2,22,75,0,0
54799,-95.2380952380952,4,2,22,75,0,0
54962,-95.2380952380952,4,2,22,75,0,0
55124,-95.2380952380952,4,2,22,75,0,0
55286,-95.2380952380952,4,2,22,75,0,0
55448,-95.2380952380952,4,2,22,5,0,0
55610,-95.2380952380952,4,2,22,75,0,0
55772,-95.2380952380952,4,2,22,5,0,0
55935,-95.2380952380952,4,2,22,75,0,0
56096,-95.2380952380952,4,2,22,5,0,0
56097,-95.2380952380952,4,2,22,75,0,0
56259,-95.2380952380952,4,2,22,75,0,0
56421,-95.2380952380952,4,2,22,75,0,0
56583,-95.2380952380952,4,2,22,75,0,0
56745,-95.2380952380952,4,2,22,75,0,0
56907,-95.2380952380952,4,2,22,75,0,0
57069,-95.2380952380952,4,2,22,75,0,0
57232,-95.2380952380952,4,2,22,75,0,0
57394,-95.2380952380952,4,2,22,75,0,0
57556,-95.2380952380952,4,2,22,75,0,0
57718,-95.2380952380952,4,2,22,75,0,0
57881,-95.2380952380952,4,2,22,75,0,0
58205,-95.2380952380952,4,2,22,75,0,0
58367,-95.2380952380952,4,2,22,75,0,0
58529,-95.2380952380952,4,2,22,75,0,0
58691,-95.2380952380952,4,2,22,75,0,0
58854,-95.2380952380952,4,2,22,75,0,0
59016,-95.2380952380952,4,2,22,75,0,0
59097,-95.2380952380952,4,2,22,80,0,0
59178,-89.2857142857143,4,2,22,85,0,1
63070,-89.2857142857143,4,2,22,85,0,0
64367,-89.2857142857143,4,2,22,40,0,0
73448,-89.2857142857143,4,2,22,60,0,0
74745,-81.9672131147541,4,2,22,75,0,0
77502,-81.9672131147541,4,2,22,75,0,0
77664,-81.9672131147541,4,2,22,75,0,0
79367,-81.9672131147541,4,2,22,80,0,0
79448,-81.9672131147541,4,2,22,75,0,0
80097,-95.2380952380952,4,2,22,5,0,0
80259,-95.2380952380952,4,2,22,75,0,0
80421,-95.2380952380952,4,2,22,75,0,0
80583,-95.2380952380952,4,2,22,75,0,0
80745,-95.2380952380952,4,2,22,75,0,0
80908,-95.2380952380952,4,2,22,75,0,0
81070,-95.2380952380952,4,2,22,75,0,0
81232,-95.2380952380952,4,2,22,75,0,0
81394,-95.2380952380952,4,2,22,5,0,0
81556,-95.2380952380952,4,2,22,80,0,0
81557,-95.2380952380952,4,2,22,75,0,0
81719,-95.2380952380952,4,2,22,5,0,0
81880,-95.2380952380952,4,2,22,80,0,0
81881,-95.2380952380952,4,2,22,75,0,0
82042,-95.2380952380952,4,2,22,5,0,0
82043,-95.2380952380952,4,2,22,75,0,0
82205,-95.2380952380952,4,2,22,75,0,0
82367,-95.2380952380952,4,2,22,75,0,0
82529,-95.2380952380952,4,2,22,75,0,0
82691,-95.2380952380952,4,2,22,75,0,0
82853,-95.2380952380952,4,2,22,75,0,0
83015,-95.2380952380952,4,2,22,75,0,0
83178,-95.2380952380952,4,2,22,75,0,0
83340,-95.2380952380952,4,2,22,75,0,0
83502,-95.2380952380952,4,2,22,75,0,0
83664,-95.2380952380952,4,2,22,75,0,0
83826,-95.2380952380952,4,2,22,80,0,0
83827,-95.2380952380952,4,2,22,75,0,0
83989,-95.2380952380952,4,2,22,5,0,0
84151,-95.2380952380952,4,2,22,75,0,0
84313,-95.2380952380952,4,2,22,75,0,0
84475,-95.2380952380952,4,2,22,75,0,0
84637,-95.2380952380952,4,2,22,75,0,0
84962,-95.2380952380952,4,2,22,5,0,0
85043,-95.2380952380952,4,2,22,80,0,0
85124,-95.2380952380952,4,2,22,85,0,1
87070,-95.2380952380952,4,2,22,95,0,1
87718,-153.846153846154,4,2,22,75,0,0
87880,-153.846153846154,4,2,22,40,0,0
88043,-153.846153846154,4,2,22,75,0,0
88205,-153.846153846154,4,2,22,40,0,0
88367,-153.846153846154,4,2,22,75,0,0
88529,-153.846153846154,4,2,22,40,0,0
88691,-153.846153846154,4,2,22,75,0,0
89016,-153.846153846154,4,2,22,75,0,0
89340,-153.846153846154,4,2,22,5,0,0

[Colours]
Combo1 : 105,58,201
Combo2 : 255,128,0
Combo3 : 0,155,230
Combo4 : 255,55,55

[HitObjects]
90,89,800,6,0,B|92:148|92:148|79:181|79:181|81:248,1,143.100000218353,4|0,1:2|0:0,0:0:0:0:
48,303,1124,2,0,P|90:282|137:289,1,95.4000001455689,8|0,0:0|0:0,0:0:0:0:
288,326,1448,1,0,1:2:0:0:
150,379,1610,1,0,1:2:0:0:
241,179,1772,2,0,B|250:148|240:118|240:118|248:85|248:85|236:65|248:33,1,143.100000218353,8|0,0:0|0:0,0:0:0:0:
246,1,2097,5,0,1:2:0:0:
342,225,2259,1,0,1:2:0:0:
372,29,2421,2,0,P|429:16|496:36,1,95.4000001455689,8|0,0:0|0:0,0:0:0:0:
355,248,2745,1,0,1:2:0:0:
296,94,2908,1,0,1:2:0:0:
243,360,3070,2,0,P|183:371|144:346,1,95.4000001455689,8|0,0:0|0:0,0:0:0:0:
296,94,3394,6,0,B|293:121|303:149|303:149|287:171|292:205,1,113.399996539307,4|0,1:2|0:0,0:0:0:0:
55,319,3718,2,0,B|64:286|48:264|48:264|58:236|55:187,1,113.399996539307,8|0,0:0|0:0,0:0:0:0:
110,55,4043,5,8,0:0:0:0:
191,268,4205,1,0,0:0:0:0:
239,11,4367,5,8,0:0:0:0:
174,250,4529,1,0,0:0:0:0:
95,39,4691,5,10,1:2:0:0:
341,168,4854,1,10,1:2:0:0:
171,281,5016,5,8,0:0:0:0:
131,280,5097,1,8,0:0:0:0:
91,276,5178,1,8,0:0:0:0:
51,271,5259,1,8,0:0:0:0:
11,269,5340,5,10,1:2:0:0:
187,67,5502,1,10,1:2:0:0:
388,359,5989,6,0,P|442:367|477:355,1,73.8000011260987,6|0,1:2|0:0,0:0:0:0:
401,233,6313,2,0,P|347:225|289:268,1,110.700001689148,2|0,1:2|0:0,0:0:0:0:
285,292,6637,2,0,P|237:302|197:289,1,73.8000011260987,2|0,1:2|0:0,0:0:0:0:
225,92,6962,2,0,P|273:82|336:120,1,110.700001689148,2|0,1:2|0:0,0:0:0:0:
340,143,7286,6,0,B|384:140|413:159|413:159|441:127|489:128,1,147.600002252197,2|0,1:2|1:2,0:0:0:0:
483,220,7772,1,2,0:0:0:0:
397,262,7935,2,0,B|321:237|344:311|246:276,1,147.600002252197,2|0,1:2|1:2,0:0:0:0:
170,317,8421,1,2,0:0:0:0:
319,361,8583,5,2,1:2:0:0:
319,361,8745,1,2,0:0:0:0:
253,300,8908,1,2,1:2:0:0:
253,300,9070,1,2,0:0:0:0:
150,373,9232,2,0,P|91:372|59:344,1,73.8000011260987,2|0,1:2|0:0,0:0:0:0:
158,278,9556,1,2,1:2:0:0:
237,380,9718,1,2,0:0:0:0:
222,231,9881,5,2,1:2:0:0:
222,231,10043,1,2,0:0:0:0:
76,258,10205,2,0,L|-7:251,1,73.8000011260987,2|0,1:2|0:0,0:0:0:0:
177,152,10529,2,0,L|260:145,1,73.8000011260987,2|0,1:2|0:0,0:0:0:0:
336,201,10854,1,2,1:2:0:0:
415,155,11016,1,2,0:0:0:0:
479,237,11178,6,0,P|473:319|476:363,1,110.700001689148,2|0,1:2|0:0,0:0:0:0:
443,352,11502,2,0,P|403:344|369:317,1,73.8000011260987,2|0,1:2|0:0,0:0:0:0:
368,198,11827,2,0,P|409:167|442:163,1,73.8000011260987,2|0,1:2|0:0,0:0:0:0:
232,232,12151,2,0,P|167:242|108:203,1,110.700001689148,2|0,1:2|0:0,0:0:0:0:
111,195,12475,6,0,B|119:131|118:38,1,147.600002252197,2|0,1:2|1:2,0:0:0:0:
263,8,12962,1,2,0:0:0:0:
290,181,13124,2,0,B|287:223|320:267,1,73.8000011260987,2|0,1:2|0:0,0:0:0:0:
345,120,13448,2,0,P|304:96|248:106,1,73.8000011260987,0|2,1:2|0:0,0:0:0:0:
250,113,13691,1,0,0:0:0:0:
250,113,13772,1,2,1:2:0:0:
178,167,13935,5,2,0:0:0:0:
90,119,14097,2,0,B|99:179|99:179|91:256,1,110.700001689148,2|0,1:2|0:0,0:0:0:0:
81,271,14421,2,0,P|122:285|173:274,1,73.8000011260987,2|2,1:2|0:0,0:0:0:0:
287,194,14745,2,0,P|224:210|201:233,1,73.8000011260987,2|2,1:2|0:0,0:0:0:0:
298,320,15070,1,2,1:2:0:0:
298,320,15232,2,0,P|349:333|381:324,1,73.8000011260987,2|0,0:0|1:2,0:0:0:0:
430,272,15556,1,2,0:0:0:0:
430,272,15718,1,2,1:2:0:0:
343,62,16043,6,0,B|398:52|398:52|464:80,1,110.700001689148,6|0,1:2|0:0,0:0:0:0:
468,104,16367,6,0,P|479:59|475:14,1,91.8000005603027,6|0,1:2|0:0,0:0:0:0:
288,199,16691,2,0,P|277:155|281:110,1,91.8000005603027,10|0,0:0|1:2,0:0:0:0:
355,324,17016,1,2,1:2:0:0:
355,324,17178,1,0,1:2:0:0:
197,216,17340,2,0,L|82:211,1,91.8000005603027,10|0,0:0|0:0,0:0:0:0:
26,79,17664,6,0,B|94:87|125:61|125:61|164:32|239:61,1,183.600001120605,2|8,1:2|0:0,0:0:0:0:
326,126,18151,1,2,1:2:0:0:
195,214,18313,2,0,P|127:224|79:211,1,91.8000005603027,2|0,1:2|1:2,0:0:0:0:
0,169,18637,1,8,0:0:0:0:
118,110,18799,1,2,0:0:0:0:
36,262,18962,5,2,1:2:0:0:
13,87,19124,1,2,1:2:0:0:
117,308,19286,1,10,0:0:0:0:
163,130,19448,1,2,1:2:0:0:
245,281,19610,2,0,P|313:293|363:273,1,91.8000005603027,2|0,1:2|1:2,0:0:0:0:
440,192,19935,1,10,0:0:0:0:
291,209,20097,1,2,0:0:0:0:
432,331,20259,5,2,1:2:0:0:
364,138,20421,1,2,1:2:0:0:
285,362,20583,2,0,P|223:367|180:341,1,91.8000005603027,10|0,0:0|1:2,0:0:0:0:
162,338,20827,1,0,1:2:0:0:
162,338,20908,2,0,P|145:261|193:188,1,137.700000840454,2|0,1:2|0:0,0:0:0:0:
200,184,21232,1,10,0:0:0:0:
245,281,21394,1,2,0:0:0:0:
77,227,21556,6,0,B|54:174|54:174|61:119|61:119|68:141|83:155,1,137.700000840454,2|0,1:2|0:0,0:0:0:0:
96,157,21881,2,0,B|127:118|127:118|130:52,1,91.8000005603027,10|0,0:0|1:0,0:0:0:0:
133,53,22124,1,0,1:2:0:0:
133,53,22205,1,2,1:2:0:0:
18,172,22367,1,0,1:2:0:0:
239,221,22529,2,0,B|253:181|241:139|241:139|263:67,1,137.700000840454,10|0,0:0|0:0,0:0:0:0:
271,54,22854,6,0,B|378:36|337:121|464:104,1,183.600001120605,2|8,1:2|0:0,0:0:0:0:
320,157,23340,1,2,1:2:0:0:
386,375,23502,2,0,B|385:308|385:308|402:258|402:258|402:194,1,183.600001120605,2|8,1:2|0:0,0:0:0:0:
499,369,23989,1,2,0:0:0:0:
341,296,24151,5,2,1:2:0:0:
491,280,24313,1,2,1:2:0:0:
391,364,24475,2,0,P|327:376|273:354,1,91.8000005603027,10|0,0:0|0:0,0:0:0:0:
223,269,24799,1,2,1:2:0:0:
380,377,24962,1,2,1:2:0:0:
356,194,25124,1,10,0:0:0:0:
356,194,25286,1,2,1:2:0:0:
507,267,25448,5,2,1:2:0:0:
341,305,25610,1,2,1:2:0:0:
448,167,25772,2,0,P|455:105|450:43,1,91.8000005603027,8|0,0:0|1:2,0:0:0:0:
280,255,26097,2,0,P|273:193|278:131,1,91.8000005603027,8|0,0:0|0:0,0:0:0:0:
134,53,26421,5,2,0:0:0:0:
134,53,26745,2,0,P|168:113|157:186,1,125.999996154785,6|0,1:2|0:0,0:0:0:0:
80,270,27394,2,0,P|126:259|165:272,1,62.9999980773926,10|0,0:0|0:0,0:0:0:0:
211,292,27718,2,0,P|246:312|266:353,1,62.9999980773926,2|0,0:0|1:2,0:0:0:0:
344,323,28043,2,0,P|354:272|417:200,1,125.999996154785,2|0,1:2|0:0,0:0:0:0:
351,9,28691,2,0,P|365:47|368:88,1,62.9999980773926,10|0,0:0|0:0,0:0:0:0:
425,133,29016,2,0,P|445:156|472:173,1,62.9999980773926,2|0,0:0|1:2,0:0:0:0:
340,151,29340,6,0,P|319:174|260:197,1,94.499997116089,2|0,1:2|0:0,0:0:0:0:
226,199,29664,2,0,P|240:143|239:113,1,62.9999980773926,2|0,1:2|1:2,0:0:0:0:
191,64,29989,2,0,P|146:36|113:38,1,62.9999980773926,10|0,0:0|1:2,0:0:0:0:
59,78,30313,1,2,0:0:0:0:
59,78,30637,6,0,B|80:146|80:146|69:222,1,125.999996154785,2|0,1:2|0:0,0:0:0:0:
201,339,31286,2,0,P|244:343|279:330,1,62.9999980773926,10|0,0:0|1:2,0:0:0:0:
333,288,31529,1,0,1:2:0:0:
333,288,31610,2,0,P|376:284|411:297,1,62.9999980773926,2|0,1:2|1:2,0:0:0:0:
255,246,31935,6,0,P|236:195|236:159,1,62.9999980773926,2|0,1:2|0:0,0:0:0:0:
162,152,32259,2,0,P|174:123|180:92,1,62.9999980773926,2|0,0:0|1:2,0:0:0:0:
247,33,32583,2,0,P|300:83|339:79,1,94.499997116089,10|0,0:0|0:0,0:0:0:0:
349,65,32908,2,0,P|390:54|436:64,1,62.9999980773926,2|0,0:0|1:2,0:0:0:0:
477,112,33232,6,0,P|469:157|472:188,1,62.9999980773926,2|0,1:2|0:0,0:0:0:0:
403,231,33556,2,0,P|410:261|410:293,1,62.9999980773926,2|0,0:0|0:0,0:0:0:0:
344,347,33881,2,0,P|298:356|265:344,1,62.9999980773926,10|0,1:2|0:0,0:0:0:0:
216,307,34205,2,0,P|186:297|154:301,1,62.9999980773926,2|0,0:0|1:2,0:0:0:0:
79,256,34529,6,0,P|119:228|134:200,1,62.9999980773926,2|0,1:2|0:0,0:0:0:0:
168,150,34854,2,0,P|176:101|167:71,1,62.9999980773926,2|0,1:2|1:2,0:0:0:0:
216,12,35178,2,0,P|276:67|338:51,1,125.999996154785,10|0,0:0|0:2,0:0:0:0:
105,272,35827,6,0,B|93:207|93:207|104:158,1,86.4000021093751,10|8,0:0|0:0,0:0:0:0:
81,118,36070,2,0,B|63:182|63:182|70:234,1,86.4000021093751,0|8,1:2|1:2,0:0:0:0:
105,272,36313,1,0,1:2:0:0:
182,134,36475,1,8,0:0:0:0:
256,271,36637,2,0,L|292:266,2,21.6000005273438,0|0|0,1:2|1:2|1:2,1:2:0:0:
299,266,36799,1,8,0:0:0:0:
390,124,36962,1,8,0:0:0:0:
256,192,37124,12,0,38016,0:0:0:0:
415,342,38097,6,0,P|444:348|458:348,1,35.0999997857666
490,350,38421,6,0,B|472:289|504:246|504:246|475:204|494:134,1,201.600002460938,6|8,1:2|0:0,0:0:0:0:
344,60,38908,1,2,1:2:0:0:
324,244,39070,2,0,P|248:259|198:223,1,100.800001230469,2|0,1:2|1:2,0:0:0:0:
84,104,39394,1,8,0:0:0:0:
270,182,39556,1,2,0:0:0:0:
28,373,39718,6,0,B|-8:242|81:309|33:150,1,201.600002460938,2|8,1:2|0:0,0:0:0:0:
9,61,40205,1,2,1:2:0:0:
120,229,40367,2,0,P|196:244|246:208,1,100.800001230469,2|0,1:2|1:2,0:0:0:0:
368,113,40691,1,8,0:0:0:0:
173,164,40854,1,2,0:2:0:0:
387,350,41016,6,0,P|399:297|389:221,1,100.800001230469,2|0,1:2|1:0,0:0:0:0:
362,90,41340,1,8,0:0:0:0:
166,144,41502,1,2,1:2:0:0:
483,266,41664,2,0,P|495:206|478:148,1,100.800001230469,2|0,1:2|1:2,0:0:0:0:
397,33,41989,1,8,0:0:0:0:
305,239,42151,1,2,0:0:0:0:
205,42,42313,6,0,P|139:5|88:11,1,100.800001230469,2|0,1:2|1:0,0:0:0:0:
309,268,42637,2,0,P|358:260|398:230,1,100.800001230469,8|0,0:0|0:0,0:0:0:0:
512,57,42962,1,0,1:2:0:0:
512,57,43043,1,0,1:2:0:0:
512,57,43124,1,0,1:2:0:0:
321,155,43286,1,8,0:0:0:0:
505,228,43448,1,2,0:0:0:0:
259,92,43610,6,0,B|141:76|209:177|58:150,1,201.600002460938,6|8,1:2|0:0,0:0:0:0:
98,9,44097,1,2,1:2:0:0:
246,179,44259,2,0,P|240:243|241:294,1,100.800001230469,2|0,1:2|1:2,0:0:0:0:
335,371,44583,1,8,0:0:0:0:
415,215,44745,1,2,0:0:0:0:
160,346,44908,6,0,P|92:356|15:231,1,201.600002460938,2|8,1:2|0:0,0:0:0:0:
153,181,45394,1,2,1:2:0:0:
335,371,45556,2,0,P|396:381|443:361,1,100.800001230469,2|0,1:2|1:2,0:0:0:0:
460,206,45881,1,8,0:0:0:0:
256,289,46043,1,2,0:0:0:0:
226,113,46205,6,0,P|221:48|225:5,1,100.800001230469,2|0,1:2|1:0,0:0:0:0:
412,109,46529,1,8,0:0:0:0:
236,209,46691,1,2,1:2:0:0:
335,42,46854,2,0,P|403:11|450:16,1,100.800001230469,2|0,1:2|1:2,0:0:0:0:
485,203,47178,1,8,0:0:0:0:
299,118,47340,1,2,0:0:0:0:
390,356,47502,5,10,1:2:0:0:
412,109,47664,1,10,1:2:0:0:
141,60,48151,5,10,1:2:0:0:
238,333,48313,1,10,1:2:0:0:
242,78,48475,1,8,0:0:0:0:
228,125,48556,1,8,0:0:0:0:
190,157,48637,1,10,0:0:0:0:
141,163,48718,1,8,0:0:0:0:
93,146,48799,6,0,B|216:115|154:222|298:171,1,201.600002460938,6|8,1:2|0:0,0:0:0:0:
484,229,49286,1,2,1:2:0:0:
350,348,49448,2,0,P|300:356|215:336,1,100.800001230469,2|0,1:2|1:2,0:0:0:0:
91,241,49772,1,8,0:0:0:0:
291,270,49935,1,2,0:0:0:0:
22,370,50097,6,0,B|-2:234|79:298|40:145,1,201.600002460938,2|8,1:2|0:0,0:0:0:0:
167,93,50583,1,2,1:2:0:0:
193,268,50745,2,0,P|269:277|315:256,1,100.800001230469,2|0,1:2|1:2,0:0:0:0:
440,155,51070,1,8,0:0:0:0:
245,193,51232,1,2,0:0:0:0:
473,357,51394,6,0,L|475:244,1,100.800001230469,2|0,1:2|1:0,0:0:0:0:
465,79,51718,1,8,0:0:0:0:
400,301,51881,1,2,1:2:0:0:
272,92,52043,2,0,P|218:65|162:72,1,100.800001230469,2|0,1:2|1:2,0:0:0:0:
6,182,52367,1,8,0:0:0:0:
205,144,52529,1,2,0:2:0:0:
5,10,52691,5,2,1:2:0:0:
120,248,52854,1,0,1:0:0:0:
142,11,53016,2,0,P|212:5|252:21,1,100.800001230469,12|0,0:0|0:2,0:0:0:0:
244,232,53340,5,2,1:2:0:0:
212,193,53421,1,0,1:0:0:0:
205,144,53502,1,8,0:0:0:0:
224,99,53583,1,8,0:0:0:0:
265,70,53664,1,8,0:0:0:0:
315,68,53745,1,8,0:0:0:0:
359,92,53826,1,8,0:0:0:0:
383,135,53907,1,8,0:0:0:0:
383,183,53989,6,0,B|431:197|431:197|504:177,1,94.499997116089,6|0,1:2|0:0,0:0:0:0:
341,40,54313,2,0,B|296:29|296:29|248:39,1,94.499997116089,8|0,0:0|0:0,0:0:0:0:
102,114,54637,6,0,L|102:222,1,94.499997116089,2|0,1:2|0:0,0:0:0:0:
212,363,54962,2,0,L|211:265,1,94.499997116089,8|0,0:0|0:0,0:0:0:0:
188,89,55286,6,0,P|158:40|94:27,1,94.499997116089,2|0,1:2|0:0,0:0:0:0:
27,243,55610,2,0,P|45:273|101:299,1,94.499997116089,8|0,0:0|0:0,0:0:0:0:
301,154,55935,6,0,B|252:150|252:150|185:182,1,94.499997116089,2|0,1:2|0:0,0:0:0:0:
280,333,56259,2,0,B|321:358|321:358|372:352,1,94.499997116089,8|0,0:0|0:0,0:0:0:0:
111,291,56583,6,0,B|106:345|106:345|139:407,1,94.499997116089,6|0,1:2|0:0,0:0:0:0:
438,261,56907,2,0,B|455:218|455:218|452:150,1,94.499997116089,8|0,0:0|0:0,0:0:0:0:
188,315,57232,6,0,B|225:337|225:337|280:333,1,94.499997116089,2|0,1:2|0:0,0:0:0:0:
472,99,57556,2,0,B|428:96|428:96|376:135,1,94.499997116089,8|0,0:0|0:0,0:0:0:0:
250,247,57881,6,0,L|138:207,1,94.499997116089,2|0,1:2|0:0,0:0:0:0:
352,48,58205,2,0,L|446:13,1,94.499997116089,8|0,0:0|0:0,0:0:0:0:
209,112,58529,6,0,L|175:17,1,94.499997116089,2|0,1:2|0:0,0:0:0:0:
428,160,58854,2,0,L|381:282,1,94.499997116089,8|0,0:0|0:0,0:0:0:0:
343,366,59178,5,14,0:0:0:0:
284,197,59340,1,0,0:0:0:0:
343,378,59502,5,10,0:0:0:0:
438,215,59664,1,0,0:0:0:0:
246,325,59827,5,10,0:0:0:0:
446,375,59989,1,0,0:0:0:0:
373,136,60151,5,10,0:0:0:0:
317,377,60313,1,0,0:0:0:0:
474,137,60475,5,10,0:0:0:0:
193,240,60637,1,0,0:0:0:0:
499,329,60799,5,10,0:0:0:0:
426,64,60962,1,0,0:0:0:0:
215,361,61124,5,10,0:0:0:0:
269,65,61286,1,0,0:0:0:0:
390,333,61448,5,10,0:0:0:0:
131,180,61610,1,0,0:0:0:0:
364,138,61772,5,10,0:0:0:0:
138,346,61935,1,0,0:0:0:0:
127,49,62097,5,10,0:0:0:0:
296,293,62259,1,0,0:0:0:0:
11,288,62421,5,10,0:0:0:0:
255,119,62583,1,0,0:0:0:0:
138,346,62745,5,10,0:0:0:0:
26,79,62908,1,2,0:0:0:0:
294,269,63070,5,10,1:2:0:0:
10,301,63232,1,10,1:2:0:0:
10,301,63718,5,10,1:2:0:0:
294,269,63880,1,10,1:2:0:0:
234,32,64367,5,6,0:0:0:0:
111,5,73448,5,10,1:2:0:0:
66,255,73610,1,10,1:2:0:0:
66,255,74097,5,10,1:2:0:0:
111,5,74259,1,10,1:2:0:0:
66,255,74583,1,2,0:0:0:0:
12,353,74745,6,0,P|109:356|169:250,1,219.599990952759,6|8,1:2|0:0,0:0:0:0:
27,199,75232,1,2,1:2:0:0:
222,364,75394,2,0,P|292:374|339:344,1,109.79999547638,2|0,1:2|1:2,0:0:0:0:
424,176,75718,1,8,0:0:0:0:
271,279,75881,1,2,0:0:0:0:
496,374,76043,6,0,B|482:327|505:273|505:273|529:221|495:118,1,219.599990952759,2|8,1:2|0:0,0:0:0:0:
392,10,76529,1,2,1:2:0:0:
293,176,76691,2,0,P|191:191|154:170,1,109.79999547638,2|0,1:2|1:2,0:0:0:0:
8,86,77016,1,8,0:0:0:0:
229,103,77178,1,2,0:0:0:0:
37,322,77340,6,0,P|17:262|31:194,1,109.79999547638,6|0,1:2|1:0,0:0:0:0:
124,35,77664,1,8,0:0:0:0:
204,262,77827,1,2,1:2:0:0:
123,14,77989,2,0,P|60:5|10:23,1,109.79999547638,2|0,1:2|1:2,0:0:0:0:
120,194,78313,1,8,0:0:0:0:
225,15,78475,1,2,0:2:0:0:
286,231,78637,5,2,1:2:0:0:
218,43,78799,1,0,1:2:0:0:
71,284,78962,2,0,P|136:294|190:269,1,109.79999547638,12|0,0:0|0:0,0:0:0:0:
256,130,79286,5,2,1:2:0:0:
221,88,79367,1,0,1:0:0:0:
171,66,79448,1,8,0:0:0:0:
117,67,79529,1,8,0:0:0:0:
68,92,79610,1,8,0:0:0:0:
35,135,79691,1,8,0:0:0:0:
25,188,79772,1,8,0:0:0:0:
37,241,79853,1,8,0:0:0:0:
71,284,79935,6,0,L|71:166,1,109.79999547638,6|0,1:2|0:0,0:0:0:0:
373,219,80259,2,0,L|372:333,1,94.499997116089,8|0,0:0|0:0,0:0:0:0:
162,104,80583,6,0,P|216:60|269:60,1,94.499997116089,2|0,1:2|0:0,0:0:0:0:
114,305,80908,2,0,P|69:291|32:241,1,94.499997116089,8|0,0:0|0:0,0:0:0:0:
302,255,81232,6,0,P|293:291|242:348,1,94.499997116089,2|0,1:2|0:0,0:0:0:0:
121,180,81557,2,0,P|86:147|70:88,1,94.499997116089,8|0,0:0|0:0,0:0:0:0:
299,68,81881,6,0,B|314:114|314:114|304:179,1,94.499997116089,2|0,1:2|0:0,0:0:0:0:
109,346,82205,2,0,B|99:303|99:303|116:251,1,94.499997116089,8|0,0:0|0:0,0:0:0:0:
147,100,82529,6,0,B|193:86|193:86|258:95,1,94.499997116089,6|0,1:2|0:0,0:0:0:0:
287,357,82853,2,0,B|240:368|240:368|188:349,1,94.499997116089,8|0,0:0|0:0,0:0:0:0:
20,289,83178,6,0,L|20:194,1,94.499997116089,2|0,1:2|0:0,0:0:0:0:
298,136,83502,2,0,L|301:234,1,94.499997116089,8|0,0:0|0:0,0:0:0:0:
13,114,83827,6,0,B|5:65|5:65|29:-7,1,94.499997116089,2|0,1:2|0:0,0:0:0:0:
301,231,84151,2,0,B|312:268|312:268|299:328,1,94.499997116089,8|0,0:0|0:0,0:0:0:0:
299,70,84475,6,0,P|341:52|416:64,1,94.499997116089,6|0,1:2|0:0,0:0:0:0:
105,353,84799,2,0,P|58:354|14:336,1,94.499997116089,12|0,0:0|0:0,0:0:0:0:
141,151,85124,5,14,0:0:0:0:
208,356,85286,1,0,0:0:0:0:
14,259,85448,5,10,0:0:0:0:
234,181,85610,1,0,0:0:0:0:
106,353,85772,5,10,0:0:0:0:
47,109,85935,1,0,0:0:0:0:
208,356,86097,5,10,0:0:0:0:
270,89,86259,1,0,0:0:0:0:
118,262,86421,5,10,0:0:0:0:
379,193,86583,1,0,0:0:0:0:
154,98,86745,5,10,0:0:0:0:
355,360,86908,1,0,0:0:0:0:
84,166,87070,5,10,0:0:0:0:
345,281,87232,1,0,0:0:0:0:
118,262,87394,1,10,0:0:0:0:
287,278,87718,6,0,L|345:281,1,58.4999973220826,2|0,0:0|0:0,0:0:0:0:
410,221,88043,2,0,L|468:217,1,58.4999973220826,2|0,0:0|0:0,0:0:0:0:
321,185,88367,2,0,L|263:182,1,58.4999973220826,2|0,0:0|0:0,0:0:0:0:
398,123,88691,1,2,0:0:0:0:
398,123,88854,1,2,0:0:0:0:
311,90,89016,2,0,L|173:73,1,116.999994644165,2|0,0:0|0:0,0:0:0:0:
