osu file format v14

[General]
AudioFilename: audio.mp3
AudioLeadIn: 0
PreviewTime: 64203
Countdown: 0
SampleSet: Soft
StackLeniency: 0.4
Mode: 0
LetterboxInBreaks: 0
WidescreenStoryboard: 0

[Editor]
DistanceSpacing: 1
BeatDivisor: 4
GridSize: 32
TimelineZoom: 1.7

[Metadata]
Title:Inferno (TV Size)
TitleUnicode:インフェルノ (TV Size)
Artist:Mrs. GREEN APPLE
ArtistUnicode:Mrs. GREEN APPLE
Creator:Himekawa
Version:Sirens
Source:炎炎ノ消防隊
Tags:fire force j-rock anime op fire brigade of flames enen no shouboutai opening japanese rock jrock tamaki kotatsu yuituri asaben kkipalt stratos
BeatmapID:2134791
BeatmapSetID:1020256

[Difficulty]
HPDrainRate:5
CircleSize:3.8
OverallDifficulty:9
ApproachRate:9.5
SliderMultiplier:2.25
SliderTickRate:1

[Events]
//Background and Video events
0,0,"FIREFORCE.jpg",0,0
//Break Periods
2,64565,72921
//Storyboard Layer 0 (Background)
//Storyboard Layer 1 (Fail)
//Storyboard Layer 2 (Pass)
//Storyboard Layer 3 (Foreground)
//Storyboard Layer 4 (Overlay)
//Storyboard Sound Samples

[TimingPoints]
798,324.324324324324,4,2,1,70,1,0
798,-80,4,2,1,70,0,1
1122,-100,4,2,1,70,0,1
4365,-80,4,2,1,80,0,1
4689,-66.6666666666667,4,2,1,85,0,1
5014,-66.6666666666667,4,2,1,65,0,1
5338,-100,4,2,1,90,0,1
5825,-100,4,2,1,60,0,0
5987,-133.333333333333,4,2,1,50,0,0
6311,-166.666666666667,4,2,1,50,0,0
10203,-142.857142857143,4,2,1,50,0,0
11176,-166.666666666667,4,2,1,50,0,0
15068,-142.857142857143,4,2,1,50,0,0
16365,-111.111111111111,4,2,1,60,0,0
16689,-133.333333333333,4,2,1,60,0,0
17014,-100,4,2,1,60,0,0
17338,-117.647058823529,4,2,1,60,0,0
17662,-133.333333333333,4,2,1,60,0,0
18311,-100,4,2,1,60,0,0
18960,-100,4,2,1,60,0,0
19284,-133.333333333333,4,2,1,60,0,0
19608,-117.647058823529,4,2,1,60,0,0
19933,-133.333333333333,4,2,1,60,0,0
20257,-100,4,2,1,60,0,0
20581,-105.263157894737,4,2,1,60,0,0
21554,-133.333333333333,4,2,1,65,0,0
22203,-100,4,2,1,65,0,0
22527,-117.647058823529,4,2,1,65,0,0
22852,-105.263157894737,4,2,1,65,0,0
23500,-100,4,2,1,65,0,0
24149,-100,4,2,1,65,0,0
24473,-133.333333333333,4,2,1,65,0,0
24797,-117.647058823529,4,2,1,65,0,0
25122,-133.333333333333,4,2,1,65,0,0
25446,-100,4,2,1,65,0,0
25770,-83.3333333333333,4,2,1,65,0,0
26095,-200,4,2,1,80,0,0
26743,-200,4,2,2,40,0,0
28041,-133.333333333333,4,2,2,40,0,0
28689,-333.333333333333,4,2,2,40,0,0
29338,-200,4,2,2,40,0,0
30635,-133.333333333333,4,2,2,40,0,0
31933,-166.666666666667,4,2,2,40,0,0
33230,-200,4,2,2,40,0,0
34527,-133.333333333333,4,2,2,40,0,0
35825,-200,4,2,2,50,0,0
37122,-100,4,2,2,55,0,0
37527,-80,4,2,2,60,0,0
37770,-66.6666666666667,4,2,2,70,0,0
38095,-400,4,2,1,80,0,0
38338,-400,4,2,1,5,0,0
38419,-80,4,2,1,80,0,1
38743,-86.9565217391304,4,2,1,80,0,1
39068,-80,4,2,1,80,0,1
39392,-86.9565217391304,4,2,1,80,0,1
39716,-76.9230769230769,4,2,1,80,0,1
40365,-86.9565217391304,4,2,1,80,0,1
40689,-100,4,2,1,80,0,1
41014,-86.9565217391304,4,2,1,80,0,1
41662,-80,4,2,1,80,0,1
41987,-86.9565217391304,4,2,1,80,0,1
42311,-74.0740740740741,4,2,1,80,0,1
42635,-80,4,2,1,80,0,1
42960,-74.0740740740741,4,2,1,80,0,1
43284,-80,4,2,1,80,0,1
43608,-68.9655172413793,4,2,1,80,0,1
43933,-86.9565217391304,4,2,1,80,0,1
44257,-80,4,2,1,80,0,1
44581,-86.9565217391304,4,2,1,80,0,1
44906,-76.9230769230769,4,2,1,80,0,1
45230,-86.9565217391304,4,2,1,80,0,1
45879,-100,4,2,1,80,0,1
46203,-80,4,2,1,80,0,1
47176,-74.0740740740741,4,2,1,80,0,1
48473,-133.333333333333,4,2,1,80,0,1
48797,-68.9655172413793,4,2,1,80,0,1
49122,-86.9565217391304,4,2,1,80,0,1
49446,-80,4,2,1,80,0,1
49770,-86.9565217391304,4,2,1,80,0,1
50095,-76.9230769230769,4,2,1,80,0,1
50743,-86.9565217391304,4,2,1,80,0,1
51068,-100,4,2,1,80,0,1
51392,-86.9565217391304,4,2,1,80,0,1
52041,-80,4,2,1,80,0,1
52365,-86.9565217391304,4,2,1,80,0,1
52689,-68.9655172413793,4,2,1,80,0,1
53338,-80,4,2,1,80,0,1
53419,-80,4,2,1,5,0,1
53500,-80,4,2,1,80,0,1
53987,-100,4,2,1,70,0,0
54149,-100,4,2,1,70,0,0
59176,-80,4,2,1,90,0,1
61770,-100,4,2,1,90,0,1
64365,-80,4,2,1,60,0,0
74581,-100,4,2,1,80,0,0
74743,-66.6666666666667,4,2,1,80,0,1
75068,-76.9230769230769,4,2,1,80,0,1
75392,-71.4285714285714,4,2,1,80,0,1
75716,-76.9230769230769,4,2,1,80,0,1
76041,-66.6666666666667,4,2,1,80,0,1
76365,-76.9230769230769,4,2,1,80,0,1
77338,-57.1428571428571,4,2,1,80,0,1
77662,-66.6666666666667,4,2,1,80,0,1
77987,-71.4285714285714,4,2,1,80,0,1
78311,-76.9230769230769,4,2,1,80,0,1
78635,-66.6666666666667,4,2,1,80,0,1
79284,-71.4285714285714,4,2,1,80,0,1
79365,-71.4285714285714,4,2,1,5,0,1
79446,-71.4285714285714,4,2,1,80,0,1
79933,-100,4,2,1,80,0,0
85122,-80,4,2,1,80,0,1
87716,-200,4,2,1,40,0,0
89014,-66.6666666666667,4,2,1,60,0,0
89338,-100,4,2,1,5,0,0

[Colours]
Combo1 : 131,252,240
Combo2 : 252,177,67
Combo3 : 240,79,79
Combo4 : 162,218,221
Combo5 : 167,167,216
Combo6 : 244,250,48

[HitObjects]
2,91,798,6,0,B|49:62|99:97|99:97|122:152|183:153,1,210.9375,6|0,1:2|0:0,0:0:0:0:
178,67,1122,2,0,P|204:18|256:0,1,112.5,10|0,0:0|0:0,0:0:0:0:
259,191,1446,5,2,1:2:0:0:
357,131,1608,1,2,1:2:0:0:
502,239,1770,2,0,L|486:367,1,112.5,10|0,0:0|0:0,0:0:0:0:
259,191,2095,70,0,L|279:358,1,168.75,2|0,1:2|0:0,0:0:0:0:
282,376,2419,2,0,L|154:360,1,112.5,8|0,0:0|0:0,0:0:0:0:
23,232,2743,1,2,1:2:0:0:
88,348,2906,2,0,L|81:292,1,56.25,2|0,1:2|0:0,0:0:0:0:
57,91,3068,1,10,0:0:0:0:
259,191,3230,5,0,1:0:0:0:
286,195,3311,1,0,1:0:0:0:
314,198,3392,2,0,B|452:181|452:181|476:201,1,168.75,14|0,1:2|0:0,0:0:0:0:
486,211,3716,70,0,L|479:266,1,56.25,10|0,0:0|0:0,0:0:0:0:
466,368,3879,1,0,1:0:0:0:
294,41,4041,6,0,L|301:96,1,56.25,10|0,0:0|0:0,0:0:0:0:
314,198,4203,1,0,1:0:0:0:
134,331,4365,70,0,B|174:293|170:218|123:181|123:181|88:204,1,210.9375,14|0,0:0|0:0,0:0:0:0:
7,226,4689,6,0,P|28:263|63:285,1,84.3750032186509,2|0,1:2|0:0,0:0:0:0:
122,347,4852,2,0,P|163:347|200:327,1,84.3750032186509,2|0,1:2|0:0,0:0:0:0:
486,211,5014,69,8,0:0:0:0:
480,169,5095,1,8,0:0:0:0:
475,127,5176,1,8,0:0:0:0:
470,85,5257,1,8,0:0:0:0:
464,43,5338,6,0,L|409:36,1,56.25,2|0,1:2|0:0,0:0:0:0:
326,23,5500,2,0,L|271:16,1,56.25,2|0,1:2|0:0,0:0:0:0:
28,145,5825,69,2,0:0:0:0:
114,93,5987,22,0,L|240:109,1,126.562504827976,14|0,0:1|0:0,0:0:0:0:
258,112,6311,2,0,P|277:139|285:171,1,67.4999979400635,10|0,0:1|0:0,0:0:0:0:
361,299,6635,2,0,P|358:250|384:207,1,101.249996910095,10|0,0:1|0:0,0:0:0:0:
402,200,6960,2,0,L|468:191,1,67.4999979400635,10|0,0:1|0:0,0:0:0:0:
306,364,7284,6,0,B|258:358|258:358|242:346|242:346|176:338,1,134.999995880127,10|8,0:1|0:1,0:0:0:0:
87,379,7770,1,2,0:0:0:0:
158,334,7933,2,0,P|168:303|165:269,1,67.4999979400635,10|2,0:1|0:0,0:0:0:0:
14,339,8257,1,10,0:1:0:0:
106,210,8419,1,0,0:0:0:0:
46,150,8581,69,10,0:1:0:0:
46,150,8743,1,2,0:0:0:0:
188,188,8906,2,0,L|254:179,1,67.4999979400635,10|0,0:1|0:0,0:0:0:0:
451,72,9230,6,0,L|350:85,1,101.249996910095,10|0,0:1|0:0,0:0:0:0:
347,100,9554,2,0,L|338:166,1,67.4999979400635,10|0,0:1|0:0,0:0:0:0:
401,340,9879,69,10,0:1:0:0:
323,250,10041,1,10,0:1:0:0:
220,384,10203,2,0,B|229:366|229:366|221:308,1,78.7499975967408,10|0,3:1|0:0,0:0:0:0:
208,209,10527,2,0,B|197:131,1,78.7499975967408,10|0,0:1|0:0,0:0:0:0:
36,64,10852,1,10,0:1:0:0:
97,144,11014,1,2,0:0:0:0:
180,32,11176,6,0,B|280:46,1,101.249996910095,10|0,0:1|0:0,0:0:0:0:
297,50,11500,2,0,B|308:130,1,67.4999979400635,10|0,0:1|0:0,0:0:0:0:
431,215,11825,2,0,B|417:200|417:200|406:121,1,101.249996910095,10|0,0:1|0:0,0:0:0:0:
405,104,12149,2,0,P|432:75|461:64,1,67.4999979400635,10|0,0:1|0:0,0:0:0:0:
294,256,12473,70,0,B|328:244|361:260|361:260|380:290|413:297,1,134.999995880127,10|10,0:1|0:1,0:0:0:0:
494,272,12960,1,0,0:0:0:0:
421,148,13122,2,0,B|431:215,1,67.4999979400635,10|2,0:1|0:0,0:0:0:0:
316,338,13446,1,10,0:1:0:0:
234,316,13608,1,2,0:3:0:0:
234,316,13689,1,2,0:3:0:0:
234,316,13770,6,0,B|200:320,1,33.7499989700318,10|0,0:1|0:0,0:0:0:0:
118,331,13933,2,0,B|70:337,1,33.7499989700318,0|0,0:0|0:0,0:0:0:0:
158,186,14095,2,0,B|150:253,1,67.4999979400635,10|0,0:1|0:0,0:0:0:0:
42,94,14419,69,10,0:1:0:0:
94,28,14581,1,2,0:0:0:0:
126,107,14743,2,0,B|192:97,1,67.4999979400635,10|2,0:1|0:0,0:0:0:0:
251,157,14987,1,0,0:0:0:0:
251,157,15068,2,0,P|272:123|275:84,1,78.7499975967408,10|2,0:1|0:0,0:0:0:0:
222,19,15392,1,8,0:1:0:0:
261,161,15554,6,0,B|299:155,1,39.3749987983704,2|0,0:0|0:0,0:0:0:0:
398,138,15716,1,10,3:1:0:0:
398,138,16041,69,10,0:1:0:0:
467,205,16203,1,2,0:0:0:0:
377,313,16365,22,0,B|336:308|308:337|308:337|280:367|239:362,1,151.874995365143,14|0,0:1|0:0,0:0:0:0:
225,361,16689,2,0,P|189:339|167:303,1,84.3750032186509,2|8,3:2|0:1,0:0:0:0:
237,182,16933,1,8,0:1:0:0:
237,182,17014,2,0,P|230:210|216:234,1,56.25,10|0,0:1|0:0,0:0:0:0:
133,227,17176,2,0,P|106:235|78:234,1,56.25,8|0,0:1|0:0,0:0:0:0:
117,14,17338,2,0,B|140:32|140:32|156:145,1,143.437502735853,2|0,3:2|0:0,0:0:0:0:
237,182,17662,6,0,L|320:170,1,84.3750032186509,10|8,0:1|0:1,0:0:0:0:
503,63,17987,1,2,3:2:0:0:
424,23,18149,1,10,0:1:0:0:
424,23,18230,1,8,0:1:0:0:
424,23,18311,70,0,B|414:92,1,56.25,10|0,0:1|0:0,0:0:0:0:
404,162,18473,2,0,B|394:231,1,56.25,8|0,0:1|0:0,0:0:0:0:
492,375,18635,1,2,3:2:0:0:
384,301,18797,1,2,0:0:0:0:
306,333,18960,6,0,P|279:341|251:340,1,56.25,10|0,0:1|0:0,0:0:0:0:
220,261,19122,2,0,P|199:242|186:217,1,56.25,10|0,0:1|0:0,0:0:0:0:
278,107,19284,2,0,B|266:190,1,84.3750032186509,2|0,3:2|0:0,0:0:0:0:
40,321,19608,70,0,B|0:352,1,47.8125009119511,10|0,0:1|0:0,0:0:0:0:
124,310,19770,2,0,B|169:328,1,47.8125009119511,10|0,0:1|0:0,0:0:0:0:
73,243,19933,2,0,B|60:159,1,84.3750032186509,2|8,3:2|0:1,0:0:0:0:
50,79,20176,1,8,0:1:0:0:
50,78,20257,6,0,P|76:71|104:73,1,56.25,10|0,0:1|0:0,0:0:0:0:
189,18,20419,2,0,P|209:37|220:62,1,56.25,10|0,0:1|0:0,0:0:0:0:
313,253,20581,70,0,B|287:216|301:159|333:138|333:138|363:149,1,160.312495719195,2|0,3:2|0:0,0:0:0:0:
437,111,20906,2,0,P|444:162|419:209,1,106.87499714613,10|8,0:1|0:1,0:0:0:0:
318,32,21230,1,2,3:2:0:0:
417,13,21392,1,2,0:0:0:0:
277,173,21554,6,0,B|232:180|232:180|217:191|217:191|156:201,1,126.562504827976,10|0,0:1|0:0,0:0:0:0:
140,202,21879,2,0,B|126:285,1,84.3750032186509,2|8,3:2|0:1,0:0:0:0:
47,375,22122,1,8,0:1:0:0:
47,375,22203,2,0,B|103:366,1,56.25,10|0,0:1|0:0,0:0:0:0:
185,347,22365,2,0,B|240:337,1,56.25,8|0,0:1|0:0,0:0:0:0:
378,377,22527,2,0,P|326:330|326:260,1,143.437502735853,2|0,3:2|0:0,0:0:0:0:
370,189,22852,70,0,P|395:143|388:91,1,106.87499714613,10|8,0:1|0:1,0:0:0:0:
178,33,23176,1,0,3:2:0:0:
260,1,23338,1,10,0:1:0:0:
260,1,23419,1,8,0:1:0:0:
260,1,23500,6,0,P|269:28|266:56,1,56.25,10|0,0:1|0:0,0:0:0:0:
313,126,23662,2,0,P|294:146|268:157,1,56.25,10|0,0:1|0:0,0:0:0:0:
28,111,23825,1,2,3:2:0:0:
103,72,23987,1,0,0:0:0:0:
99,157,24149,70,0,B|109:212,1,56.25,10|0,0:1|0:0,0:0:0:0:
126,295,24311,2,0,B|136:350,1,56.25,10|0,0:1|0:0,0:0:0:0:
264,269,24473,2,0,P|231:244|189:239,1,84.3750032186509,2|0,3:2|0:0,0:0:0:0:
311,338,24797,6,0,P|329:322|341:301,1,47.8125009119511,10|0,0:1|0:0,0:0:0:0:
425,294,24960,2,0,P|420:270|408:250,1,47.8125009119511,10|0,0:1|0:0,0:0:0:0:
473,197,25122,2,0,P|440:172|398:167,1,84.3750032186509,2|8,3:2|0:1,0:0:0:0:
322,134,25365,1,8,0:1:0:0:
322,134,25446,70,0,B|267:144,1,56.25,10|0,0:1|0:0,0:0:0:0:
185,162,25608,2,0,B|130:172,1,56.25,10|0,0:1|0:0,0:0:0:0:
144,309,25770,6,0,B|184:320|209:290|209:290|185:161,1,202.499993820191,2|0,3:2|0:0,0:0:0:0:
163,45,26095,2,0,B|158:17,1,28.125,6|0,1:2|0:0,0:0:0:0:
58,361,26743,54,0,P|43:302|70:241,1,112.5,6|2,1:2|0:0,0:0:0:0:
129,204,27230,1,0,1:2:0:0:
129,204,27311,1,0,1:0:0:0:
129,204,27392,2,0,B|116:135,1,56.25,10|0,0:1|0:0,0:0:0:0:
104,66,27716,1,2,0:0:0:0:
229,114,27879,1,0,1:0:0:0:
304,41,28041,70,0,B|211:24|211:24|184:42,2,126.562504827976,10|8|8,0:2|0:0|0:2,0:0:0:0:
423,60,28689,2,0,B|431:106,1,33.7499989700318,10|0,0:1|0:0,0:0:0:0:
447,176,29014,2,0,B|453:209,1,33.7499989700318,2|0,0:0|1:0,0:0:0:0:
475,349,29338,6,0,P|429:319|374:318,1,112.5,2|2,1:2|1:0,0:0:0:0:
309,367,29825,1,0,1:0:0:0:
309,367,29906,1,0,1:0:0:0:
309,367,29987,2,0,B|240:354,1,56.25,10|0,0:1|1:0,0:0:0:0:
190,302,30311,2,0,B|121:315,1,56.25,2|0,0:0|1:0,0:0:0:0:
0,197,30635,70,0,B|20:203|20:203|82:192,1,84.3750032186509,10|0,0:0|0:0,0:0:0:0:
163,172,30879,2,0,B|142:165|142:165|80:176,1,84.3750032186509,8|0,0:0|0:0,0:0:0:0:
80,176,31122,2,0,B|67:107,1,42.1875016093255,8|8,0:0|0:0,0:0:0:0:
50,14,31284,1,10,0:1:0:0:
195,64,31446,2,0,B|189:91,2,28.1250010728836,0|0|0,1:0|1:0|1:0,0:0:0:0:
200,45,31608,1,2,1:2:0:0:
293,8,31770,1,0,1:2:0:0:
467,122,31933,22,0,B|335:147,1,134.999995880127,6|2,1:2|0:0,0:0:0:0:
270,224,32419,1,0,1:0:0:0:
270,224,32500,1,0,1:0:0:0:
270,223,32581,2,0,P|303:225|333:240,1,67.4999979400635,10|0,0:1|0:0,0:0:0:0:
416,227,32906,2,0,P|431:256|433:290,1,67.4999979400635,2|0,0:0|1:0,0:0:0:0:
305,384,33230,6,0,P|283:348|282:307,1,84.375,2|0,1:2|0:0,0:0:0:0:
283,307,33554,1,2,0:0:0:0:
200,363,33716,1,0,0:0:0:0:
75,280,33879,1,10,0:1:0:0:
75,280,34203,1,2,0:0:0:0:
59,197,34365,1,0,1:2:0:0:
171,111,34527,70,0,P|172:174|136:224,1,126.562504827976,6|0,1:2|0:0,0:0:0:0:
137,224,34852,1,2,1:2:0:0:
43,114,35014,1,0,1:0:0:0:
198,29,35176,6,0,B|330:54,1,126.562504827976,10|0,0:1|0:0,0:0:0:0:
340,57,35500,1,2,0:0:0:0:
299,191,35662,1,0,1:2:0:0:
346,261,35825,53,2,1:0:0:0:
375,141,35987,1,10,0:0:0:0:
377,152,36068,1,0,1:2:0:0:
379,163,36149,1,2,0:0:0:0:
381,174,36230,1,8,0:0:0:0:
383,185,36311,1,0,1:2:0:0:
309,337,36473,70,0,L|275:333,1,28.125,8|0,0:1|0:0,0:0:0:0:
182,320,36635,2,0,L|168:318,2,14.0625,0|0|0,1:0|1:0|1:0,0:0:0:0:
154,316,36797,1,8,0:0:0:0:
5,296,36960,1,8,0:0:0:0:
71,371,37122,21,0,1:2:0:0:
36,170,37284,1,8,0:0:0:0:
35,156,37365,2,0,P|53:134|77:120,1,56.25,0|0,1:2|0:0,0:0:0:0:
104,39,37527,1,8,0:0:0:0:
113,28,37608,2,0,P|141:25|193:53,1,70.3125,0|0,1:2|0:0,0:0:0:0:
262,148,37770,6,0,L|249:231,1,84.3750032186509,12|0,0:2|0:0,0:0:0:0:
337,384,37933,1,0,1:0:0:0:
379,377,38014,1,0,1:0:0:0:
421,370,38095,54,0,L|429:316,1,42.1875,2|0,0:0|0:0,0:0:0:0:
497,99,38419,38,0,B|443:84|387:145|407:208|407:208|446:214,1,210.9375,4|0,1:2|0:0,0:0:0:0:
499,87,38743,2,0,P|436:97|397:146,1,129.375002467632,8|10,0:2|0:1,0:0:0:0:
323,181,38987,1,8,0:1:0:0:
323,181,39068,2,0,L|254:170,1,70.3125,2|0,1:0|0:0,0:0:0:0:
164,215,39230,2,0,L|95:204,1,70.3125,0|0,1:0|0:0,0:0:0:0:
181,7,39392,2,0,B|195:33|195:33|179:132,1,129.375002467632,8|10,0:2|0:1,0:0:0:0:
2,299,39635,1,10,0:1:0:0:
0,276,39716,6,0,B|53:254|97:299|97:299|111:359|173:371,1,219.37498995781,2|0,1:0|0:0,0:0:0:0:
239,316,40041,1,8,0:0:0:0:
462,307,40203,1,10,0:1:0:0:
462,307,40284,1,8,0:1:0:0:
462,307,40365,2,0,P|396:242|304:259,1,194.062503701449,2|0,1:0|0:0,0:0:0:0:
310,268,40689,2,0,B|330:139,1,112.5,8|0,0:2|0:1,0:0:0:0:
512,128,41014,69,2,1:0:0:0:
240,166,41176,1,8,0:1:0:0:
230,168,41257,1,8,0:1:0:0:
220,170,41338,2,0,B|92:189,1,129.375002467632,8|10,0:2|0:1,0:0:0:0:
34,250,41581,1,8,0:1:0:0:
34,250,41662,2,0,P|14:221|8:186,1,70.3125,2|0,1:0|0:0,0:0:0:0:
148,5,41825,2,0,P|168:34|174:69,1,70.3125,0|0,1:0|0:0,0:0:0:0:
92,189,41987,2,0,B|74:86|74:86|89:66,1,129.375002467632,8|0,0:0|0:0,0:0:0:0:
387,101,42311,6,0,B|462:112,1,75.9375002896786,2|0,1:0|0:0,0:0:0:0:
220,170,42473,2,0,B|295:181,1,75.9375002896786,2|0,1:0|0:0,0:0:0:0:
505,300,42635,2,0,B|418:312|418:312|406:308|406:308|296:324,1,210.9375,14|0,0:2|0:0,0:0:0:0:
295,311,42960,70,0,P|275:343|270:380,1,75.9375002896786,2|0,1:0|0:0,0:0:0:0:
111,185,43122,2,0,P|130:217|135:254,1,75.9375002896786,2|0,1:0|0:0,0:0:0:0:
42,382,43284,2,0,B|33:363|33:363|51:245,1,140.625,14|10,0:2|0:1,0:0:0:0:
292,52,43527,1,8,0:1:0:0:
279,50,43608,6,0,B|319:14|371:33|371:33|383:17|383:17|429:24|458:63|456:105,1,244.68750746727,6|0,1:0|0:0,0:0:0:0:
266,49,43933,2,0,P|319:15|382:26,1,129.375002467632,8|2,0:0|0:0,0:0:0:0:
481,186,44176,1,8,0:1:0:0:
486,200,44257,2,0,B|475:269,1,70.3125,10|0,1:1|0:0,0:0:0:0:
386,315,44419,2,0,B|396:384,1,70.3125,0|0,1:0|0:0,0:0:0:0:
267,138,44581,2,0,B|291:159|291:159|305:256,1,129.375002467632,8|10,0:0|0:1,0:0:0:0:
56,374,44825,1,8,0:1:0:0:
41,381,44906,70,0,B|49:318|49:318|105:276|105:276|118:191,1,219.37498995781,2|0,1:0|0:0,0:0:0:0:
134,108,45230,2,0,P|177:61|239:57,1,129.375002467632,8|10,0:0|0:1,0:0:0:0:
280,131,45473,1,8,0:1:0:0:
267,138,45554,2,0,B|238:329,1,194.062503701449,2|0,1:0|0:0,0:0:0:0:
238,330,45879,2,0,P|273:372|326:384,1,112.5,8|10,0:0|0:1,0:0:0:0:
495,316,46122,1,10,0:1:0:0:
510,306,46203,6,0,B|488:160,1,140.625,2|0,1:0|0:0,0:0:0:0:
465,0,46527,1,8,0:0:0:0:
386,201,46689,1,10,0:1:0:0:
386,201,46770,1,8,0:1:0:0:
386,201,46852,2,0,B|372:113,1,70.3125,2|0,1:0|0:0,0:0:0:0:
267,138,47014,2,0,B|194:85,1,70.3125,0|0,1:0|0:0,0:0:0:0:
0,276,47176,2,0,B|167:250|167:250|128:293,1,227.812500869036,12|0,0:0|0:0,0:0:0:0:
66,351,47500,53,2,1:0:0:0:
144,44,47662,1,2,1:0:0:0:
446,351,48149,69,2,1:0:0:0:
368,44,48311,1,2,1:0:0:0:
474,112,48473,69,0,3:0:0:0:
480,124,48554,2,0,B|429:116,1,42.1875016093255,0|0,3:0|0:0,0:0:0:0:
263,70,48716,1,0,3:0:0:0:
269,58,48797,54,0,B|167:72|167:72|153:69|153:69|26:89,1,244.68750746727,6|0,1:0|0:0,0:0:0:0:
274,46,49122,2,0,B|146:65,1,129.375002467632,8|10,0:0|0:1,0:0:0:0:
13,172,49365,1,8,0:1:0:0:
0,178,49446,2,0,P|-5:212|1:246,1,70.3125,2|0,1:0|0:0,0:0:0:0:
99,268,49608,2,0,P|125:291|158:301,1,70.3125,0|0,1:0|0:0,0:0:0:0:
275,166,49770,2,0,P|212:168|167:213,1,129.375002467632,8|10,0:0|0:1,0:0:0:0:
339,382,50014,1,10,0:1:0:0:
363,371,50095,70,0,B|395:347|395:347|418:170,1,219.37498995781,2|0,1:0|0:0,0:0:0:0:
427,85,50419,1,8,0:0:0:0:
225,5,50581,1,10,0:1:0:0:
225,5,50662,1,8,0:1:0:0:
225,5,50743,2,0,B|262:32|262:32|281:178,1,194.062503701449,2|0,1:0|0:0,0:0:0:0:
281,179,51068,2,0,P|232:204|177:195,1,112.5,8|10,0:0|0:1,0:0:0:0:
31,27,51392,5,2,1:0:0:0:
97,224,51554,1,8,0:1:0:0:
101,232,51635,1,8,0:1:0:0:
105,240,51716,2,0,P|112:302|74:353,1,129.375002467632,8|10,0:0|0:1,0:0:0:0:
166,384,51960,1,8,0:1:0:0:
166,384,52041,2,0,B|235:374,1,70.3125,2|0,1:0|0:0,0:0:0:0:
350,188,52203,2,0,B|281:179,1,70.3125,0|0,1:0|0:0,0:0:0:0:
376,343,52365,2,0,P|384:281|433:240,1,129.375002467632,8|10,0:0|0:1,0:0:0:0:
310,12,52689,69,2,1:0:0:0:
474,73,52852,1,8,0:1:0:0:
474,73,52933,1,8,0:1:0:0:
474,73,53014,2,0,B|414:48|365:98|365:98|350:165|280:179,1,244.68750746727,4|0,1:1|0:0,0:0:0:0:
231,255,53338,2,0,P|204:231|189:200,1,70.3125,2|0,1:2|0:0,0:0:0:0:
46,23,53500,5,8,0:1:0:0:
78,70,53581,1,8,0:1:0:0:
78,127,53662,1,8,0:0:0:0:
45,175,53743,1,8,0:0:0:0:
12,223,53824,1,8,0:0:0:0:
12,280,53905,1,8,0:0:0:0:
46,328,53987,54,0,L|157:313,1,112.5,14|0,1:2|0:0,0:0:0:0:
354,70,54311,2,0,L|466:56,1,112.5,8|0,0:0|0:0,0:0:0:0:
282,0,54635,1,10,1:0:0:0:
302,163,54797,2,0,L|310:219,1,56.25,8|0,0:1|0:0,0:0:0:0:
466,56,54960,2,0,L|354:70,1,112.5,8|0,0:0|0:0,0:0:0:0:
46,56,55284,70,0,L|157:70,1,112.5,10|0,1:0|0:0,0:0:0:0:
354,313,55608,2,0,L|465:328,1,112.5,8|0,0:0|0:0,0:0:0:0:
354,70,55933,5,10,1:0:0:0:
158,313,56095,1,0,0:0:0:0:
158,70,56257,69,10,0:0:0:0:
354,313,56419,1,2,0:0:0:0:
256,0,56581,5,14,1:0:0:0:
0,191,56906,2,0,P|55:192|98:227,1,112.5,8|8,0:0|0:1,0:0:0:0:
183,249,57149,1,8,0:0:0:0:
175,262,57230,2,0,L|161:374,1,112.5,10|0,1:0|0:0,0:0:0:0:
337,122,57554,2,0,L|351:10,1,112.5,8|0,0:0|0:0,0:0:0:0:
512,192,57879,69,10,1:0:0:0:
337,262,58041,1,0,0:0:0:0:
175,122,58203,1,10,0:0:0:0:
180,105,58527,5,10,1:0:0:0:
342,245,58689,1,2,0:0:0:0:
371,12,58852,1,10,0:0:0:0:
139,310,59176,6,0,L|-17:291,1,140.625,6|0,1:0|0:0,0:0:0:0:
139,74,59500,1,10,0:0:0:0:
139,310,59662,1,8,0:1:0:0:
0,90,59825,6,0,L|139:74,1,140.625,2|0,1:0|0:0,0:0:0:0:
373,310,60149,2,0,L|512:293,1,140.625,10|0,0:0|0:0,0:0:0:0:
375,55,60473,69,6,1:2:0:0:
137,329,60635,1,8,0:1:0:0:
137,55,60797,5,10,0:2:0:0:
375,329,60960,1,8,0:1:0:0:
256,0,61122,70,0,L|272:139,1,140.625,6|0,1:2|0:0,0:0:0:0:
256,384,61446,6,0,L|240:245,1,140.625,10|0,0:2|0:0,0:0:0:0:
494,110,61770,69,6,1:0:0:0:
256,0,61933,1,8,0:1:0:0:
373,310,62095,2,0,L|512:293,1,112.5,10|0,0:0|0:0,0:0:0:0:
375,55,62419,5,6,1:2:0:0:
256,272,62581,1,8,0:1:0:0:
0,90,62743,2,0,L|111:77,1,112.5,10|0,0:0|0:0,0:0:0:0:
412,132,63068,37,6,1:0:0:0:
100,252,63230,1,10,0:1:0:0:
80,262,63716,5,6,1:2:0:0:
478,354,63879,1,10,0:1:0:0:
458,364,64203,53,2,1:0:0:0:
433,282,64365,1,4,1:1:0:0:
419,384,73446,53,6,1:0:0:0:
254,41,73608,1,2,1:0:0:0:
243,22,74095,69,6,1:0:0:0:
107,353,74257,1,2,1:0:0:0:
232,3,74581,6,0,B|220:74,1,56.25,2|0,0:0|0:0,0:0:0:0:
15,249,74743,70,0,B|87:239|87:239|135:175|135:175|234:159,1,253.125009655953,6|0,1:0|0:0,0:0:0:0:
330,98,75068,2,0,B|303:269,1,146.249993305207,8|10,0:0|0:1,0:0:0:0:
294,333,75311,1,10,0:0:0:0:
291,354,75392,2,0,B|368:342,1,78.7499975967408,2|0,1:0|0:0,0:0:0:0:
155,183,75554,2,0,B|233:171,1,78.7499975967408,0|0,1:0|0:0,0:0:0:0:
434,191,75716,2,0,B|407:227|407:227|307:242,1,146.249993305207,8|10,0:0|0:1,0:0:0:0:
21,100,75960,1,10,0:1:0:0:
24,80,76041,6,0,B|82:48|137:96|137:96|159:164|232:171,1,253.125009655953,6|0,1:0|0:0,0:0:0:0:
342,4,76365,2,0,P|272:20|230:78,1,146.249993305207,8|10,0:0|0:1,0:0:0:0:
474,321,76608,1,8,0:0:0:0:
492,317,76689,2,0,B|457:100,1,219.37498995781,2|0,1:0|0:0,0:0:0:0:
442,97,77014,2,0,B|369:85,1,73.1249966526033,0|0,1:0|0:0,0:0:0:0:
215,302,77176,2,0,B|142:314,1,73.1249966526033,2|0,1:2|0:1,0:0:0:0:
258,31,77338,70,0,B|247:94|247:94|226:123|226:123|253:160|253:160|232:189|232:189|215:301,1,295.312502816319,6|0,1:0|0:0,0:0:0:0:
105,384,77662,2,0,B|74:198,1,168.750006437302,8|10,0:0|0:1,0:0:0:0:
48,49,77906,1,8,0:0:0:0:
35,64,77987,2,0,P|70:80|109:79,1,78.7499975967408,2|0,1:0|0:0,0:0:0:0:
261,19,78149,2,0,P|296:2|335:3,1,78.7499975967408,0|0,1:0|0:0,0:0:0:0:
506,111,78311,2,0,B|481:255,1,146.249993305207,14|10,0:0|0:1,0:0:0:0:
174,364,78635,5,2,1:0:0:0:
212,116,78797,1,8,0:1:0:0:
212,116,78879,1,8,0:1:0:0:
212,116,78960,2,0,B|194:219|194:219|198:234|198:234|174:365,1,253.125009655953,12|0,0:0|0:0,0:0:0:0:
194,384,79284,2,0,B|209:306,1,78.7499975967408,6|0,1:2|0:1,0:0:0:0:
23,78,79446,69,8,0:1:0:0:
89,35,79527,1,8,0:1:0:0:
167,37,79608,1,10,0:0:0:0:
229,85,79689,1,8,0:0:0:0:
283,141,79770,1,8,0:0:0:0:
360,154,79851,1,8,0:0:0:0:
426,111,79933,70,0,L|410:0,1,112.5,14|0,1:0|0:0,0:0:0:0:
101,384,80257,2,0,L|86:273,1,112.5,12|0,0:0|0:0,0:0:0:0:
180,343,80581,1,10,1:0:0:0:
15,373,80743,2,0,L|8:318,1,56.25,8|0,0:1|0:0,0:0:0:0:
86,273,80906,2,0,L|101:384,1,112.5,8|0,0:0|0:0,0:0:0:0:
86,111,81230,70,0,L|101:0,1,112.5,10|0,1:0|0:0,0:0:0:0:
410,384,81554,2,0,L|426:273,1,112.5,8|0,0:0|0:0,0:0:0:0:
86,111,81879,5,10,1:0:0:0:
426,273,82041,1,2,0:0:0:0:
86,273,82203,69,10,0:0:0:0:
426,111,82365,1,2,0:0:0:0:
0,192,82527,5,14,1:0:0:0:
257,0,82852,2,0,P|258:55|293:98,1,112.5,8|8,0:0|0:1,0:0:0:0:
355,150,83095,1,8,0:0:0:0:
367,138,83176,2,0,L|478:122,1,112.5,10|0,1:0|0:0,0:0:0:0:
145,246,83500,2,0,L|34:262,1,112.5,8|0,0:0|0:0,0:0:0:0:
256,384,83825,69,10,1:0:0:0:
367,246,83987,1,2,0:0:0:0:
145,138,84149,2,0,L|57:125,1,56.25,14|0,0:0|0:0,0:0:0:0:
93,119,84473,6,0,L|149:127,1,56.25,14|0,1:0|0:0,0:0:0:0:
351,247,84635,1,2,0:0:0:0:
38,288,84797,1,10,0:0:0:0:
247,7,85122,6,0,P|221:29|205:72,1,70.3125,6|0,1:0|0:0,0:0:0:0:
255,141,85284,1,8,0:1:0:0:
438,5,85446,1,10,0:0:0:0:
469,253,85608,1,8,0:1:0:0:
471,270,85689,1,8,0:1:0:0:
474,288,85770,6,0,L|483:357,1,70.3125,6|0,1:0|0:0,0:0:0:0:
459,168,85933,1,8,0:1:0:0:
247,377,86095,2,0,P|221:355|205:312,1,70.3125,10|0,0:0|0:0,0:0:0:0:
255,243,86257,1,8,0:1:0:0:
69,79,86419,38,0,L|0:88,1,70.3125,6|0,1:0|0:0,0:0:0:0:
153,70,86581,1,10,0:1:0:0:
206,322,86743,6,0,L|137:313,1,70.3125,14|0,0:0|0:0,0:0:0:0:
53,304,86906,1,10,0:1:0:0:
408,123,87068,6,0,L|339:132,1,70.3125,6|0,1:0|0:0,0:0:0:0:
255,141,87231,1,10,0:1:0:0:
483,357,87392,6,0,L|414:348,1,70.3125,14|0,0:0|0:0,0:0:0:0:
330,339,87555,1,10,0:1:0:0:
255,141,87716,21,2,0:0:0:0:
303,54,88041,1,2,0:0:0:0:
390,101,88365,1,2,0:0:0:0:
342,188,88689,2,0,L|350:244,1,56.25,2|0,0:0|0:0,0:0:0:0:
262,371,89014,54,0,B|235:370|223:337|223:337|213:307|230:261|266:246|266:246|268:302|296:292|312:326|300:364|277:375|277:375|263:377|250:385,1,337.5,2|0,0:0|0:0,0:0:0:0:
