osu file format v14

[General]
AudioFilename: audio.mp3
AudioLeadIn: 0
PreviewTime: 38078
Countdown: 1
SampleSet: Soft
StackLeniency: 0.7
Mode: 0
LetterboxInBreaks: 0
WidescreenStoryboard: 1

[Editor]
Bookmarks: 16348,79916
DistanceSpacing: 1.2
BeatDivisor: 2
GridSize: 32
TimelineZoom: 1

[Metadata]
Title:Inferno (TV Size)
TitleUnicode:インフェルノ (TV Size)
Artist:Mrs. GREEN APPLE
ArtistUnicode:Mrs. GREEN APPLE
Creator:[-Evil-]
Version:Normal
Source:炎炎ノ消防隊
Tags:bonbonosu fire force boy anime japanese op opening 1 fighter red
BeatmapID:2157886
BeatmapSetID:1031933

[Difficulty]
HPDrainRate:2.9
CircleSize:3.2
OverallDifficulty:3.9
ApproachRate:5
SliderMultiplier:0.8
SliderTickRate:1

[Events]
//Background and Video events
0,0,"bgfireforce.jpg",0,0
Video,0,"video.mp4"
//Break Periods
2,64548,72229
//Storyboard Layer 0 (Background)
//Storyboard Layer 1 (Fail)
//Storyboard Layer 2 (Pass)
//Storyboard Layer 3 (Foreground)
//Storyboard Layer 4 (Overlay)
//Storyboard Sound Samples

[TimingPoints]
781,324.324324324324,4,2,1,60,1,0
5970,-100,4,2,1,50,0,0
26726,-100,4,2,1,45,0,0
38402,-100,4,2,1,65,0,1
64348,-100,4,2,1,50,0,0
74726,-100,4,2,1,65,0,1
87699,-100,4,2,1,55,0,0

[Colours]
Combo1 : 151,0,0
Combo2 : 255,128,0
Combo3 : 75,75,75

[HitObjects]
92,58,781,6,0,L|95:146,1,80,4|8,0:0|0:0,0:0:0:0:
168,198,1429,2,0,L|174:271,1,40
176,285,1753,1,8,0:0:0:0:
111,356,2078,2,0,P|160:381|195:372,1,80,0|8,0:0|0:0,0:0:0:0:
257,316,2726,2,0,P|312:293|346:297,1,80,0|8,0:0|0:0,0:0:0:0:
412,344,3375,6,0,L|446:232,1,80,4|8,0:0|0:0,0:0:0:0:
486,187,4024,2,0,L|470:69,1,80,0|8,0:0|0:0,0:0:0:0:
395,54,4672,22,0,L|389:115,1,40,8|8,0:0|0:0,0:0:0:0:
295,201,5321,2,0,L|289:130,1,40,8|8,0:0|0:0,0:0:0:0:
185,59,5970,6,0,P|160:144|159:163,1,80,6|2,0:0|0:0,0:0:0:0:
242,186,6618,2,0,P|237:231|210:286,1,80,2|2,0:0|0:0,0:0:0:0:
184,350,7267,2,0,P|276:331|323:346,1,120,2|2,0:0|0:0,0:0:0:0:
345,351,7916,1,2,0:0:0:0:
437,325,8240,1,0,0:0:0:0:
443,229,8564,6,0,P|408:128|408:123,1,80,2|2,0:0|0:0,0:0:0:0:
322,81,9213,2,0,P|312:153|291:182,1,80,2|2,0:0|0:0,0:0:0:0:
279,195,9699,1,2,0:0:0:0:
250,233,9862,2,0,P|238:281|235:304,2,40,2|2|2,0:0|0:0|0:0,0:0:0:0:
184,163,10510,1,2,0:0:0:0:
262,107,10835,1,2,0:0:0:0:
220,20,11159,6,0,P|172:14|107:35,1,80,2|2,0:0|0:0,0:0:0:0:
65,78,11808,1,2,0:0:0:0:
46,172,12132,1,2,0:0:0:0:
111,242,12456,2,0,B|126:330|126:330|172:362,1,120,2|2,0:0|0:0,0:0:0:0:
196,365,13105,1,2,0:0:0:0:
257,289,13429,1,0,0:0:0:0:
200,211,13753,6,0,P|259:149|279:142,1,80,2|2,0:0|0:0,0:0:0:0:
315,79,14402,2,0,P|347:125|398:154,1,80,2|2,0:0|0:0,0:0:0:0:
455,172,15051,2,0,L|466:243,1,40,2|2,0:0|0:0,0:0:0:0:
396,282,15537,2,0,L|382:235,1,40,2|2,0:0|0:0,0:0:0:0:
300,289,16024,1,0,0:0:0:0:
235,355,16348,6,0,P|176:362|128:340,1,80,6|10,0:0|0:0,0:0:0:0:
81,297,16997,2,0,P|138:261|143:260,1,40,2|0,0:0|0:0,0:0:0:0:
149,242,17321,1,10,0:0:0:0:
243,248,17645,2,0,P|277:153|274:144,2,80,2|8|2,0:0|0:0|0:0,0:0:0:0:
195,164,18618,1,8,0:0:0:0:
104,132,18943,22,0,P|122:88|170:52,1,80,2|10,0:0|0:0,0:0:0:0:
227,36,19591,2,0,L|259:3,2,40,2|0|10,0:0|0:0|0:0,0:0:0:0:
290,108,20240,2,0,P|335:144|372:155,2,80,2|8|2,0:0|0:0|0:0,0:0:0:0:
194,118,21213,1,10,0:0:0:0:
244,199,21537,6,0,L|233:285,1,80,2|10,0:0|0:0,0:0:0:0:
302,345,22186,2,0,L|316:274,1,40,2|0,0:0|0:0,0:0:0:0:
317,258,22510,1,10,0:0:0:0:
374,176,22835,2,0,P|450:189|480:203,2,80,2|8|2,0:0|0:0|0:0,0:0:0:0:
329,90,23808,1,8,0:0:0:0:
252,147,24132,6,0,P|164:176|149:174,1,80,2|10,0:0|0:0,0:0:0:0:
84,193,24780,2,0,L|69:254,2,40,2|2|10,0:0|0:0|0:0,0:0:0:0:
40,107,25429,2,0,P|107:91|114:92,1,40,2|2,0:0|0:0,0:0:0:0:
203,75,26078,1,8,0:0:0:0:
363,180,26726,6,0,L|374:270,2,80,2|2|2,0:0|0:0|0:0,0:0:0:0:
401,91,27699,1,2,0:0:0:0:
401,91,28024,2,0,P|329:51|244:55,1,160,2|2,0:0|0:0,0:0:0:0:
160,77,28997,1,2,0:0:0:0:
83,19,29321,6,0,L|60:120,1,80,2|2,0:0|0:0,0:0:0:0:
128,169,29970,2,0,L|143:277,1,80,2|2,0:0|0:0,0:0:0:0:
75,320,30618,2,0,P|115:344|227:291,1,160,2|2,0:0|0:0,0:0:0:0:
255,223,31591,1,2,0:0:0:0:
337,272,31916,6,0,P|366:226|366:171,1,80,2|2,0:0|0:0,0:0:0:0:
304,131,32564,2,0,P|322:55|343:36,1,80,2|2,0:0|0:0,0:0:0:0:
232,20,33213,2,0,L|141:40,1,80,2|2,0:0|0:0,0:0:0:0:
118,126,33862,2,0,L|220:109,1,80,2|2,0:0|0:0,0:0:0:0:
237,199,34510,2,0,L|231:309,2,80,2|2|2,0:0|0:0|0:0,0:0:0:0:
71,296,35808,6,0,B|49:142|49:142|112:76,1,240,2|0,0:0|0:0,0:0:0:0:
194,40,37105,2,0,P|245:33|285:42,2,80
183,135,38078,1,2,0:0:0:0:
172,230,38402,6,0,L|279:244,1,80,6|8,0:0|0:0,0:0:0:0:
300,323,39051,2,0,L|374:309,1,40,2|0,0:0|0:0,0:0:0:0:
385,304,39375,1,8,0:0:0:0:
466,355,39699,2,0,P|493:293|484:253,1,80,2|8,0:0|0:0,0:0:0:0:
421,216,40348,1,2,0:0:0:0:
391,125,40672,1,8,0:0:0:0:
454,52,40997,22,0,P|382:20|348:19,1,80,2|8,0:0|0:0,0:0:0:0:
306,81,41645,2,0,P|265:90|233:84,1,40,2|0,0:0|0:0,0:0:0:0:
219,86,41970,1,8,0:0:0:0:
132,44,42294,2,0,P|61:13|37:11,2,80,2|8|0,0:0|0:0|0:0,0:0:0:0:
144,139,43267,1,8,0:0:0:0:
73,203,43591,6,2,L|74:306,1,80,2|8,0:0|0:0,0:0:0:0:
41,374,44240,2,0,P|83:371|106:362,1,40,2|0,0:0|0:0,0:0:0:0:
126,357,44564,1,8,0:0:0:0:
188,284,44889,2,0,P|248:284|292:298,1,80,2|8,0:0|0:0,0:0:0:0:
320,368,45537,1,2,0:0:0:0:
392,304,45862,1,8,0:0:0:0:
335,226,46186,6,0,L|330:155,2,40,2|0|8,0:0|0:0|0:0,0:0:0:0:
253,174,46835,2,0,L|252:107,2,40,2|0|8,0:0|0:0|0:0,0:0:0:0:
229,267,47483,22,0,P|293:277|302:276,1,40,8|8,0:0|0:0,0:0:0:0:
144,351,48132,2,0,P|104:339|73:337,1,40,8|8,0:0|0:0,0:0:0:0:
97,195,48780,6,0,P|49:197|-2:165,1,80,6|8,0:0|0:0,0:0:0:0:
72,103,49429,2,0,P|110:92|130:90,1,40,2|0,0:0|0:0,0:0:0:0:
155,76,49753,1,8,0:0:0:0:
239,30,50078,2,0,L|234:139,1,80,2|8,0:0|0:0,0:0:0:0:
296,183,50726,1,2,0:0:0:0:
350,104,51051,1,8,0:0:0:0:
444,123,51375,6,0,L|454:197,2,40,2|0|8,0:0|0:0|0:0,0:0:0:0:
376,191,52024,2,0,L|382:256,2,40,2|0|8,0:0|0:0|0:0,0:0:0:0:
459,238,52672,2,0,L|457:329,2,80,2|8|2,0:0|0:0|0:0,0:0:0:0:
376,191,53645,1,8,0:0:0:0:
302,253,53970,6,0,P|248:277|189:278,1,80,6|8,0:0|0:0,0:0:0:0:
139,241,54618,2,0,P|36:240|29:242,1,80,2|8,0:0|0:0,0:0:0:0:
47,139,55267,2,0,P|23:99|27:39,1,80,2|8,0:0|0:0,0:0:0:0:
116,69,55916,1,2,0:0:0:0:
189,7,56240,1,8,0:0:0:0:
244,85,56564,6,0,P|300:43|340:41,1,80,6|8,0:0|0:0,0:0:0:0:
375,109,57213,2,0,P|445:138|476:132,1,80,2|8,0:0|0:0,0:0:0:0:
469,227,57862,2,0,P|495:279|491:320,2,80,2|8|2,0:0|0:0|0:0,0:0:0:0:
374,206,58835,1,8,0:0:0:0:
296,262,59159,6,0,B|301:305|301:305|288:346,1,80,6|10,0:0|0:0,0:0:0:0:
202,299,59808,1,6,0:0:0:0:
173,207,60132,1,10,0:0:0:0:
260,168,60456,2,0,B|272:124|272:124|260:64,1,80,2|10,0:0|0:0,0:0:0:0:
177,51,61105,1,2,0:0:0:0:
94,100,61429,1,10,0:0:0:0:
116,193,61753,22,0,P|48:216|23:213,2,80,2|10|2,0:0|0:0|0:0,0:0:0:0:
211,208,62726,1,10,0:0:0:0:
276,137,63051,6,0,L|328:128,1,40,10|8,0:0|0:0,0:0:0:0:
398,247,63699,2,0,L|462:229,1,40,8|8,0:0|0:0,0:0:0:0:
476,97,64348,1,4,0:0:0:0:
135,62,73429,6,0,L|123:126,1,40,8|8,0:0|0:0,0:0:0:0:
234,197,74078,2,0,L|241:267,1,40,8|8,0:0|0:0,0:0:0:0:
316,116,74726,6,0,P|395:84|417:84,1,80,6|8,0:0|0:0,0:0:0:0:
464,25,75375,2,0,P|482:71|480:93,1,40,2|0,0:0|0:0,0:0:0:0:
481,108,75699,1,8,0:0:0:0:
412,176,76024,2,0,P|408:245|420:268,1,80,2|8,0:0|0:0,0:0:0:0:
478,322,76672,2,0,L|494:370,2,40,2|0|8,0:0|0:0|0:0,0:0:0:0:
435,344,77159,1,2,0:0:0:0:
435,344,77321,6,0,P|350:320|343:307,1,80,6|8,0:0|0:0,0:0:0:0:
301,256,77970,2,0,P|244:249|224:251,1,40,2|0,0:0|0:0,0:0:0:0:
213,244,78294,1,8,0:0:0:0:
137,303,78618,2,0,P|100:267|96:255,1,40,2|0,0:0|0:0,0:0:0:0:
66,250,78943,2,0,P|55:174|58:143,1,80,12|2,0:0|0:0,0:0:0:0:
102,84,79591,1,8,0:0:0:0:
180,138,79916,6,0,P|240:143|285:130,1,80,2|8,0:0|0:0,0:0:0:0:
298,52,80564,2,0,P|367:37|388:38,1,80,2|8,0:0|0:0,0:0:0:0:
471,30,81213,2,0,L|491:140,1,80,2|8,0:0|0:0,0:0:0:0:
483,204,81862,1,2,0:0:0:0:
388,187,82186,1,8,0:0:0:0:
406,281,82510,22,0,P|378:314|307:323,1,80,2|8,0:0|0:0,0:0:0:0:
260,370,83159,2,0,P|247:287|259:268,1,80,2|8,0:0|0:0,0:0:0:0:
282,207,83808,2,0,P|299:147|287:105,2,80,2|8|2,0:0|0:0|0:0,0:0:0:0:
187,220,84780,1,8,0:0:0:0:
109,276,85105,6,0,L|88:170,1,80,6|10,0:0|0:0,0:0:0:0:
17,140,85753,1,6,0:0:0:0:
106,104,86078,1,10,0:0:0:0:
103,8,86402,2,0,P|143:33|194:26,1,80,6|10,0:0|0:0,0:0:0:0:
234,108,87051,1,6,0:0:0:0:
299,38,87375,1,10,0:0:0:0:
357,113,87699,6,0,L|365:223,2,80,2|2|2,0:0|0:0|0:0,0:0:0:0:
434,55,88672,2,0,L|446:151,1,80,2|2,0:0|0:0,0:0:0:0:
