osu file format v14

[General]
AudioFilename: audio.mp3
AudioLeadIn: 0
PreviewTime: 38078
Countdown: 1
SampleSet: Soft
StackLeniency: 0.7
Mode: 0
LetterboxInBreaks: 0
WidescreenStoryboard: 1

[Editor]
Bookmarks: 16348,48780,53970,59159,85105
DistanceSpacing: 2.5
BeatDivisor: 2
GridSize: 32
TimelineZoom: 1

[Metadata]
Title:Inferno (TV Size)
TitleUnicode:インフェルノ (TV Size)
Artist:Mrs. GREEN APPLE
ArtistUnicode:Mrs. GREEN APPLE
Creator:[-Evil-]
Version:Hard
Source:炎炎ノ消防隊
Tags:bonbonosu fire force boy anime japanese op opening 1 fighter red
BeatmapID:2157884
BeatmapSetID:1031933

[Difficulty]
HPDrainRate:5
CircleSize:3.5
OverallDifficulty:6.6
ApproachRate:8
SliderMultiplier:1.2
SliderTickRate:1

[Events]
//Background and Video events
0,0,"bgfireforce.jpg",0,0
Video,0,"video.mp4"
//Break Periods
2,64548,72679
//Storyboard Layer 0 (Background)
//Storyboard Layer 1 (Fail)
//Storyboard Layer 2 (Pass)
//Storyboard Layer 3 (Foreground)
//Storyboard Layer 4 (Overlay)
//Storyboard Sound Samples

[TimingPoints]
781,324.324324324324,4,2,1,60,1,0
5970,-125,4,2,1,50,0,0
16348,-100,4,2,1,55,0,0
25997,-100,4,2,1,5,0,0
26078,-100,4,2,1,55,0,0
26726,-133.333333333333,4,2,1,45,0,0
36780,-133.333333333333,4,2,0,45,0,0
37105,-100,4,2,1,45,0,0
38078,-133.333333333333,4,2,0,45,0,0
38402,-83.3333333333333,4,2,1,65,0,1
64348,-100,4,2,1,50,0,0
74726,-83.3333333333333,4,2,1,65,0,1
87699,-100,4,2,1,50,0,0

[Colours]
Combo1 : 151,0,0
Combo2 : 255,128,0
Combo3 : 75,75,75

[HitObjects]
132,62,781,6,0,P|113:154|118:210,1,120,4|8,0:0|0:0,0:0:0:0:
112,179,1429,2,0,P|183:195|210:190,1,60
259,191,1753,1,8,0:0:0:0:
378,326,2078,6,0,P|415:264|417:238,1,60
446,194,2402,1,8,0:0:0:0:
354,116,2726,2,0,P|331:60|331:29,2,60,0|0|8,0:0|0:0|0:0,0:0:0:0:
330,234,3213,1,0,0:0:0:0:
330,234,3375,6,0,P|234:246|181:225,1,120,4|8,0:0|0:0,0:0:0:0:
52,159,4024,2,0,P|117:132|208:145,1,120,0|8,0:0|0:0,0:0:0:0:
123,306,4672,21,0,0:0:0:0:
123,306,4835,1,0,0:0:0:0:
209,330,4997,2,0,L|256:351,3,30,8|8|8|8,0:0|0:0|0:0|0:0,0:0:0:0:
280,332,5321,2,0,L|301:225,1,60
176,116,5808,5,2,0:0:0:0:
176,116,5970,38,0,P|250:143|292:127,1,96,6|2,0:0|0:0,0:0:0:0:
371,44,6618,2,0,P|404:137|397:167,1,96,2|2,0:0|0:0,0:0:0:0:
447,268,7267,2,0,P|355:214|306:219,1,144,2|2,0:0|0:0,0:0:0:0:
271,268,7916,2,0,P|244:295|218:315,2,48
247,199,8402,1,2,0:0:0:0:
247,199,8564,6,0,L|233:114,1,48,2|2,0:0|0:0,0:0:0:0:
169,131,8889,2,0,L|160:66,1,48,2|2,0:0|0:0,0:0:0:0:
211,30,9213,2,0,P|311:63|333:55,1,96,2|2,0:0|0:0,0:0:0:0:
361,35,9699,1,2,0:0:0:0:
361,35,9862,2,0,P|406:83|408:89,1,48,2|2,0:0|0:0,0:0:0:0:
347,117,10186,2,0,P|341:187|350:218,1,96,2|2,0:0|0:0,0:0:0:0:
245,344,10835,6,0,P|215:339|195:332,1,48,2|2,0:0|0:0,0:0:0:0:
132,304,11159,2,0,P|172:225|170:186,1,96,2|2,0:0|0:0,0:0:0:0:
116,86,11808,2,0,P|218:105|241:96,1,96,2|2,0:0|0:0,0:0:0:0:
330,34,12456,2,0,P|349:96|330:189,1,144,2|2,0:0|0:0,0:0:0:0:
319,243,13105,2,0,P|309:317|311:330,2,48
266,193,13591,1,2,0:0:0:0:
266,193,13753,6,0,L|254:115,1,48,2|2,0:0|0:0,0:0:0:0:
190,120,14078,2,0,P|182:42|182:42,1,48,2|0,0:0|0:0,0:0:0:0:
134,170,14402,2,0,L|140:248,1,48,2|2,0:0|0:0,0:0:0:0:
99,278,14726,2,0,L|102:354,1,48,2|2,0:0|0:0,0:0:0:0:
166,367,15051,5,2,0:0:0:0:
166,367,15213,1,2,0:0:0:0:
380,259,15537,1,2,0:0:0:0:
380,259,15699,1,2,0:0:0:0:
219,80,16024,1,0,0:0:0:0:
272,310,16348,6,0,P|393:326|408:314,1,120,6|10,0:0|0:0,0:0:0:0:
453,276,16835,1,0,0:0:0:0:
428,189,16997,2,2,P|426:108|432:86,1,60,2|0,0:0|0:0,0:0:0:0:
342,89,17321,2,0,P|345:16|337:-1,1,60,10|0,0:0|0:0,0:0:0:0:
252,101,17645,6,0,P|244:181|260:245,1,120,2|8,0:0|0:0,0:0:0:0:
313,285,18132,1,2,0:0:0:0:
236,332,18294,2,0,P|170:344|141:329,2,60,2|0|8,0:0|0:0|0:0,0:0:0:0:
312,285,18780,1,2,0:0:0:0:
381,342,18943,6,0,P|402:262|398:247,1,60,2|2,0:0|0:0,0:0:0:0:
470,227,19267,2,0,P|437:151|424:141,1,60,10|2,0:0|0:0,0:0:0:0:
442,81,19591,2,0,P|369:41|319:44,1,120,2|10,0:0|0:0,0:0:0:0:
244,55,20078,1,2,0:0:0:0:
296,127,20240,6,0,P|304:230|301:241,1,60,2|2,0:0|0:0,0:0:0:0:
235,238,20564,2,0,P|228:317|231:337,1,60,10|2,0:0|0:0,0:0:0:0:
145,208,20889,2,0,P|166:125|148:52,1,120,2|10,0:0|0:0,0:0:0:0:
79,57,21375,1,2,0:0:0:0:
150,2,21537,6,0,L|235:12,1,60,2|2,0:0|0:0,0:0:0:0:
273,72,21862,2,0,L|374:61,1,60,10|2,0:0|0:0,0:0:0:0:
413,27,22186,2,0,P|443:99|420:175,1,120,2|10,0:0|0:0,0:0:0:0:
455,318,22835,2,0,P|387:254|284:254,1,180,2|2,0:0|0:0,0:0:0:0:
221,283,23483,2,0,P|171:318|149:317,2,60,2|0|8,0:0|0:0|0:0,0:0:0:0:
228,192,23970,1,2,0:0:0:0:
228,192,24132,22,0,P|221:98|225:80,1,60,2|2,0:0|0:0,0:0:0:0:
303,105,24456,2,0,P|303:38|299:16,1,60,10|2,0:0|0:0,0:0:0:0:
390,128,24780,2,0,P|387:229|390:243,1,60,2|2,0:0|0:0,0:0:0:0:
459,236,25105,2,0,P|453:297|428:327,1,60,10|2,0:0|0:0,0:0:0:0:
412,369,25429,5,2,0:0:0:0:
412,369,25591,2,0,P|316:314|259:318,1,150,2|0,0:0|0:0,0:0:0:0:
234,320,26078,1,8,0:0:0:0:
234,320,26402,5,2,0:0:0:0:
234,320,26726,2,0,P|215:216|219:202,1,90.0000034332277,2|2,0:0|0:0,0:0:0:0:
329,167,27375,2,0,P|339:74|330:43,1,90.0000034332277,2|2,0:0|0:0,0:0:0:0:
211,34,28024,2,0,P|148:96|155:193,1,180.000006866455,2|2,0:0|0:0,0:0:0:0:
164,317,28997,1,2,0:0:0:0:
272,236,29321,22,0,P|359:193|385:199,1,90.0000034332277,2|2,0:0|0:0,0:0:0:0:
410,313,29970,2,0,P|477:357|513:357,1,90.0000034332277,2|2,0:0|0:0,0:0:0:0:
481,223,30618,2,0,P|425:86|409:72,1,135.000005149841,2|0,0:0|0:0,0:0:0:0:
379,62,31267,2,0,P|330:113|287:120,1,90.0000034332277,2|2,0:0|0:0,0:0:0:0:
198,189,31916,6,0,P|192:263|174:294,2,90.0000034332277,2|2|2,0:0|0:0|0:0,0:0:0:0:
143,65,32889,1,2,0:0:0:0:
277,79,33213,2,0,P|359:99|401:82,2,90.0000034332277,2|2|2,0:0|0:0|0:0,0:0:0:0:
143,65,34186,1,2,0:0:0:0:
44,156,34510,2,0,L|30:263,1,90.0000034332277,2|2,0:0|0:0,0:0:0:0:
125,342,35159,1,2,0:0:0:0:
227,92,35808,6,0,P|301:66|385:131,1,180.000006866455,2|0,0:0|0:0,0:0:0:0:
431,243,36780,1,8,2:2:0:0:
431,243,36943,1,8,2:2:0:0:
409,330,37105,6,0,P|321:331|306:318,1,60
303,267,37429,2,0,P|235:253|206:266,1,60
167,294,37753,2,0,P|126:218|131:198,1,60
129,158,38078,1,2,2:2:0:0:
309,39,38402,6,0,B|328:82|328:82|323:198,1,143.999995605469,6|8,0:0|0:0,0:0:0:0:
401,256,38889,1,2,0:0:0:0:
401,256,39051,2,0,P|337:290|293:281,1,71.9999978027344,2|0,0:0|0:0,0:0:0:0:
235,263,39375,2,0,P|145:268|120:292,1,71.9999978027344,8|2,0:0|0:0,0:0:0:0:
77,321,39699,6,0,P|51:262|66:196,1,71.9999978027344,2|0,0:0|0:0,0:0:0:0:
42,147,40024,1,8,0:0:0:0:
132,97,40186,1,2,0:0:0:0:
132,97,40348,2,0,P|179:74|257:85,1,71.9999978027344,2|0,0:0|0:0,0:0:0:0:
268,153,40672,2,0,P|340:127|363:101,1,71.9999978027344,8|2,0:0|0:0,0:0:0:0:
417,60,40997,6,0,P|434:130|420:180,1,71.9999978027344,2|0,0:0|0:0,0:0:0:0:
452,235,41321,1,8,0:0:0:0:
354,279,41483,1,2,0:0:0:0:
354,279,41645,2,0,L|345:379,1,71.9999978027344,2|0,0:0|0:0,0:0:0:0:
308,174,41970,2,0,L|303:73,1,71.9999978027344,8|2,0:0|0:0,0:0:0:0:
247,264,42294,6,0,P|148:282|125:270,1,71.9999978027344,2|0,0:0|0:0,0:0:0:0:
74,271,42618,1,8,0:0:0:0:
57,171,42780,1,0,0:0:0:0:
57,171,42943,2,0,P|55:86|67:55,2,71.9999978027344,0|0|8,0:0|0:0|0:0,0:0:0:0:
164,164,43429,1,2,0:0:0:0:
165,34,43591,6,0,B|209:57|209:57|332:34,1,143.999995605469,2|8,0:0|0:0,0:0:0:0:
404,24,44078,1,2,0:0:0:0:
404,24,44240,2,0,P|412:100|390:153,1,71.9999978027344,2|0,0:0|0:0,0:0:0:0:
323,155,44564,2,0,P|318:237|328:268,1,71.9999978027344,8|2,0:0|0:0,0:0:0:0:
398,297,44889,6,0,P|332:333|283:318,1,71.9999978027344,2|0,0:0|0:0,0:0:0:0:
230,345,45213,1,8,0:0:0:0:
160,262,45375,1,2,0:0:0:0:
160,262,45537,2,0,P|74:277|55:293,1,71.9999978027344,2|0,0:0|0:0,0:0:0:0:
268,239,45862,2,0,P|276:163|252:112,1,71.9999978027344,8|2,0:0|0:0,0:0:0:0:
313,67,46186,6,0,P|236:35|198:47,1,71.9999978027344,2|0,0:0|0:0,0:0:0:0:
151,76,46510,1,8,0:0:0:0:
58,20,46672,1,2,0:0:0:0:
57,20,46835,2,0,P|52:66|24:130,1,71.9999978027344,2|0,0:0|0:0,0:0:0:0:
19,187,47159,2,0,P|8:275|21:301,1,71.9999978027344,8|2,0:0|0:0,0:0:0:0:
100,303,47483,21,10,0:0:0:0:
204,330,47645,1,8,0:0:0:0:
268,122,48132,21,8,0:0:0:0:
373,145,48294,1,8,0:0:0:0:
373,145,48456,2,0,L|435:164,2,35.9999989013672,8|8|8,0:0|0:0|0:0,0:0:0:0:
512,128,48780,22,0,B|516:181|516:181|488:289,1,143.999995605469,6|8,0:0|0:0,0:0:0:0:
438,365,49267,1,2,0:0:0:0:
438,365,49429,2,0,P|361:304|332:302,1,71.9999978027344,2|0,0:0|0:3,0:3:0:0:
314,235,49753,2,0,P|255:303|228:307,1,71.9999978027344,8|2,0:0|0:0,0:0:0:0:
202,373,50078,22,0,P|125:340|85:342,1,71.9999978027344,2|0,0:0|0:0,0:0:0:0:
32,317,50402,1,8,0:0:0:0:
93,238,50564,1,2,0:0:0:0:
93,238,50726,2,0,P|122:122|119:111,1,71.9999978027344,2|0,0:0|0:0,0:0:0:0:
202,99,51051,2,0,P|222:181|247:202,1,71.9999978027344,8|2,0:0|0:0,0:0:0:0:
91,66,51375,6,0,P|124:13|195:2,1,71.9999978027344,2|0,0:0|0:0,0:0:0:0:
238,13,51699,1,8,0:0:0:0:
323,79,51862,1,2,0:0:0:0:
323,79,52024,2,0,P|417:108|453:101,1,71.9999978027344,2|0,0:0|0:0,0:0:0:0:
464,30,52348,2,0,P|477:75|473:156,1,71.9999978027344,8|2,0:0|0:0,0:0:0:0:
456,203,52672,22,0,P|455:304|462:316,2,71.9999978027344,2|0|12,0:0|0:0|0:0,0:0:0:0:
349,184,53159,1,0,0:0:0:0:
264,250,53321,2,0,L|257:311,2,35.9999989013672,10|8|8,0:0|0:0|0:0,0:0:0:0:
208,157,53645,2,0,L|205:94,2,35.9999989013672,8|8|8,0:0|0:0|0:0,0:0:0:0:
157,253,53970,6,0,P|43:296|7:270,1,143.999995605469,6|8,0:0|0:0,0:0:0:0:
208,157,54618,2,0,P|282:110|357:128,1,143.999995605469,2|8,0:0|0:0,0:0:0:0:
409,183,55267,2,0,B|435:116|435:116|444:10,1,143.999995605469,2|8,0:0|0:0,0:0:0:0:
311,217,55916,2,0,B|286:290|286:290|283:364,1,143.999995605469,2|8,0:0|0:0,0:0:0:0:
188,250,56564,22,0,P|75:224|34:230,1,143.999995605469,6|8,0:0|0:0,0:0:0:0:
136,112,57213,2,0,P|260:132|309:112,1,143.999995605469,2|8,0:0|0:0,0:0:0:0:
381,37,57862,2,0,B|402:89|402:89|398:131|398:131|421:197,1,143.999995605469,2|8,0:0|0:0,0:0:0:0:
310,263,58510,2,0,B|245:289|257:328|179:326,1,143.999995605469,2|8,0:0|0:0,0:0:0:0:
72,238,59159,22,0,P|63:124|71:105,1,71.9999978027344,6|0,0:0|0:0,0:0:0:0:
143,106,59483,2,0,P|144:31|131:11,1,71.9999978027344,10|0,0:0|0:0,0:0:0:0:
249,70,59808,2,0,P|252:175|266:204,1,71.9999978027344,6|0,0:0|0:0,0:0:0:0:
341,185,60132,2,0,P|328:291|319:305,1,71.9999978027344,10|0,0:0|0:0,0:0:0:0:
270,337,60456,6,0,P|349:363|382:349,1,71.9999978027344,2|0,0:0|0:0,0:0:0:0:
430,315,60780,2,0,P|503:293|525:302,1,71.9999978027344,10|0,0:0|0:0,0:0:0:0:
341,256,61105,2,0,P|237:231|224:235,1,71.9999978027344,2|0,0:0|0:0,0:0:0:0:
189,163,61429,2,0,P|265:132|301:138,1,71.9999978027344,10|0,0:0|0:0,0:0:0:0:
178,272,61753,6,0,P|170:353|173:368,1,71.9999978027344,2|0,0:0|0:0,0:0:0:0:
78,282,62078,2,0,P|92:179|87:160,1,71.9999978027344,10|0,0:0|0:0,0:0:0:0:
21,133,62402,2,0,P|20:58|34:40,1,71.9999978027344,2|0,0:0|0:0,0:0:0:0:
125,103,62726,2,0,P|218:143|246:136,1,71.9999978027344,10|0,0:0|0:0,0:0:0:0:
289,112,63051,5,10,0:0:0:0:
383,145,63213,1,8,0:0:0:0:
247,310,63699,5,8,0:0:0:0:
146,268,63862,1,8,0:0:0:0:
122,89,64348,21,4,0:0:0:0:
113,320,73429,53,8,0:0:0:0:
93,232,73591,1,8,0:0:0:0:
300,61,74078,5,8,0:0:0:0:
338,142,74240,1,8,0:0:0:0:
460,381,74726,6,0,L|486:209,1,143.999995605469,6|8,0:0|0:0,0:0:0:0:
467,130,75213,1,2,0:0:0:0:
467,130,75375,2,0,P|398:167|370:164,1,71.9999978027344,2|0,0:0|0:0,0:0:0:0:
372,268,75699,2,0,P|309:239|264:243,1,71.9999978027344,8|2,0:0|0:0,0:0:0:0:
219,316,76024,6,0,P|210:251|237:193,1,71.9999978027344,2|0,0:0|0:0,0:0:0:0:
227,138,76348,1,8,0:0:0:0:
322,86,76510,1,2,0:0:0:0:
322,86,76672,2,0,P|252:36|226:34,1,71.9999978027344,2|0,0:0|0:0,0:0:0:0:
161,64,76997,2,0,P|94:105|72:104,1,71.9999978027344,8|2,0:0|0:0,0:0:0:0:
40,16,77321,22,0,P|10:117|12:135,1,71.9999978027344,6|0,0:0|0:0,0:0:0:0:
15,189,77645,1,8,0:0:0:0:
53,292,77808,1,2,0:0:0:0:
53,292,77970,2,0,P|127:235|154:228,1,71.9999978027344,2|0,0:0|0:0,0:0:0:0:
175,327,78294,2,0,P|232:370|279:369,1,71.9999978027344,8|2,0:0|0:0,0:0:0:0:
331,332,78618,6,0,P|360:247|368:238,1,71.9999978027344,2|0,0:0|0:0,0:0:0:0:
419,180,78943,1,12,0:0:0:0:
239,60,79267,2,0,L|254:-3,2,35.9999989013672,10|8|8,0:0|0:0|0:0,0:0:0:0:
191,156,79591,2,0,L|170:222,2,35.9999989013672,8|8|8,0:0|0:0|0:0,0:0:0:0:
129,66,79916,6,0,P|77:145|95:221,1,143.999995605469,6|8,0:0|0:0,0:0:0:0:
296,183,80564,2,0,P|488:216|495:209,1,143.999995605469,2|8,0:0|0:0,0:0:0:0:
221,358,81213,2,0,B|149:334|174:291|79:286,1,143.999995605469,2|8,0:0|0:0,0:0:0:0:
190,95,81862,2,0,P|213:245|203:268,1,143.999995605469,2|8,0:0|0:0,0:0:0:0:
390,360,82510,6,0,B|379:301|379:301|419:197,1,143.999995605469,6|8,0:0|0:0,0:0:0:0:
339,21,83159,2,0,B|345:80|345:80|312:157,1,143.999995605469,2|8,0:0|0:0,0:0:0:0:
171,322,83808,2,0,P|246:275|355:281,1,143.999995605469,2|8,0:0|0:0,0:0:0:0:
94,203,84456,2,0,P|89:55|98:40,1,143.999995605469,2|8,0:0|0:0,0:0:0:0:
285,145,85105,22,0,P|352:180|399:175,1,71.9999978027344,6|0,0:0|0:0,0:0:0:0:
436,238,85429,2,0,P|408:260|374:272,1,71.9999978027344,10|0,0:0|0:0,0:0:0:0:
270,244,85753,2,0,P|180:254|163:264,1,71.9999978027344,6|0,0:0|0:0,0:0:0:0:
132,332,86078,2,0,P|100:222|104:210,1,71.9999978027344,10|0,0:0|0:0,0:0:0:0:
138,170,86402,6,0,P|145:71|133:52,1,71.9999978027344,6|0,0:0|0:0,0:0:0:0:
241,37,86726,2,0,P|266:140|281:159,1,71.9999978027344,10|0,0:0|0:0,0:0:0:0:
144,8,87051,2,0,P|65:5|46:14,1,71.9999978027344,6|0,0:0|0:0,0:0:0:0:
42,105,87375,2,0,P|34:146|56:209,1,71.9999978027344,10|0,0:0|0:0,0:0:0:0:
83,253,87699,22,0,L|72:382,2,120,2|2|2,0:0|0:0|0:0,0:0:0:0:
138,181,88672,2,0,P|219:177|223:179,1,60,2|0,0:0|0:0,0:0:0:0:
286,173,88997,1,2,0:0:0:0:
