osu file format v14

[General]
AudioFilename: audio.mp3
AudioLeadIn: 0
PreviewTime: 122830
Countdown: 0
SampleSet: Soft
StackLeniency: 0.4
Mode: 0
LetterboxInBreaks: 0
WidescreenStoryboard: 0

[Editor]
Bookmarks: 14175,22121,38662,52445,111797,142938,148121,158175,188337,206499,211040
DistanceSpacing: 1
BeatDivisor: 4
GridSize: 16
TimelineZoom: 3.599999

[Metadata]
Title:Inferno
TitleUnicode:インフェルノ
Artist:Mrs. GREEN APPLE
ArtistUnicode:Mrs. GREEN APPLE
Creator:Grissaryath
Version:Ratomu.
Source:炎炎ノ消防隊
Tags:enen no shouboutai anime full size japanese rock alternative fire force shinra kusakabe shinmon benimaru arthur boyle
BeatmapID:2230352
BeatmapSetID:1065123

[Difficulty]
HPDrainRate:5
CircleSize:3.8
OverallDifficulty:9.3
ApproachRate:9.3
SliderMultiplier:2
SliderTickRate:1

[Events]
//Background and Video events
0,0,"872823.png",0,0
//Break Periods
2,163884,172212
//Storyboard Layer 0 (Background)
//Storyboard Layer 1 (Fail)
//Storyboard Layer 2 (Pass)
//Storyboard Layer 3 (Foreground)
//Storyboard Layer 4 (Overlay)
//Storyboard Sound Samples

[TimingPoints]
550,324.324324324324,4,2,0,65,1,0
550,-125,4,2,0,40,0,0
1847,-100,4,2,0,60,0,0
22441,-125,4,2,0,40,0,0
32658,-111.111111111111,4,2,0,50,0,0
43360,-125,4,2,0,40,0,0
55036,-100,4,2,0,60,0,1
64441,-100,4,2,0,60,0,0
65414,-100,4,2,0,60,0,1
70604,-100,4,2,0,60,0,0
75793,-100,4,2,0,60,0,1
79685,-100,4,2,0,40,0,0
80982,-125,4,2,0,40,0,0
91360,-111.111111111111,4,2,0,40,0,0
101090,-111.111111111111,4,2,0,30,0,0
101171,-111.111111111111,4,2,0,10,0,0
101252,-111.111111111111,4,2,0,15,0,0
101333,-111.111111111111,4,2,0,20,0,0
101414,-111.111111111111,4,2,0,25,0,0
101495,-111.111111111111,4,2,0,30,0,0
101577,-111.111111111111,4,2,0,35,0,0
101658,-111.111111111111,4,2,0,40,0,0
101739,-125,4,2,0,40,0,0
121198,-500,4,2,0,40,0,0
122495,-100,4,2,0,60,0,1
131901,-100,4,2,0,60,0,0
132874,-100,4,2,0,60,0,1
138063,-100,4,2,0,60,0,0
143252,-100,4,2,0,60,0,1
147468,-100,4,2,0,60,0,0
148117,-111.111111111111,4,2,0,60,0,0
163685,-125,4,2,0,60,0,0
174063,-99.9999999999999,4,2,0,60,0,1
179252,-99.9999999999999,4,2,0,60,0,0
184441,-99.9999999999999,4,2,0,60,0,1
186874,-99.9999999999999,4,2,0,60,0,0
187036,-99.9999999999999,4,2,0,100,0,1
188333,-99.9999999999999,4,2,0,60,0,0
210955,-99.9999999999999,4,2,0,5,0,0

[HitObjects]
359,125,550,6,0,L|278:121,1,80
126,232,874,2,0,L|207:228,1,80
367,111,1198,6,0,L|286:107,1,80
116,249,1522,2,0,L|197:245,1,80
377,98,1847,6,0,L|213:89,1,150
99,151,2171,2,0,P|85:198|99:245,1,100
368,182,2495,1,0,0:0:0:0:
149,83,2658,1,0,0:0:0:0:
361,281,2820,2,0,L|368:181,1,100
180,233,3144,6,0,B|173:321|173:321|177:288|202:264,1,150
240,178,3468,2,0,P|215:161|148:157,1,100
57,329,3793,1,0,0:0:0:0:
26,111,3955,1,0,0:0:0:0:
59,349,4117,2,0,B|111:361|111:361|155:346,1,100
240,178,4441,5,0,0:0:0:0:
0,231,4604,1,0,0:0:0:0:
227,274,4766,2,0,P|243:226|235:162,1,100
87,27,5090,5,0,0:0:0:0:
114,251,5252,1,0,0:0:0:0:
292,108,5414,2,0,L|195:69,1,100
313,297,5739,6,0,P|346:257|353:208,1,100
96,269,6063,2,0,L|188:306,1,100
222,85,6387,5,0,0:0:0:0:
96,269,6549,1,0,0:0:0:0:
231,69,6712,5,0,0:0:0:0:
84,285,6874,1,0,0:0:0:0:
290,154,7036,6,0,B|194:218|194:218|214:209|236:214,1,150
347,238,7360,2,0,B|389:267|389:267|402:319,1,100
227,372,7685,1,0,0:0:0:0:
290,154,7847,1,0,0:0:0:0:
326,366,8009,2,0,L|224:372,1,100
84,272,8333,6,0,L|240:265,1,150
312,352,8658,2,0,L|210:358,1,100
316,129,8982,1,0,0:0:0:0:
400,343,9144,1,0,0:0:0:0:
216,134,9306,2,0,L|315:128,1,100
312,352,9631,5,0,0:0:0:0:
216,134,9793,1,0,0:0:0:0:
456,165,9955,2,0,L|395:243,1,100
201,121,10279,5,0,0:0:0:0:
471,146,10441,1,0,0:0:0:0:
301,367,10604,2,0,L|261:271,1,100
185,105,10928,5,0,0:0:0:0:
440,300,11090,1,0,0:0:0:0:
138,327,11252,2,0,L|159:223,1,100
378,245,11577,5,0,0:0:0:0:
131,353,11739,1,0,0:0:0:0:
201,121,11901,1,0,0:0:0:0:
201,121,11982,1,0,0:0:0:0:
201,121,12063,1,0,0:0:0:0:
201,121,12144,1,0,0:0:0:0:
201,121,12225,6,0,L|360:151,1,150
465,246,12549,2,0,P|466:300|437:339,1,100
184,213,12874,1,0,0:0:0:0:
431,169,13036,1,0,0:0:0:0:
163,310,13198,2,0,L|184:208,1,100
392,274,13522,5,0,0:0:0:0:
153,344,13685,1,0,0:0:0:0:
294,122,13847,2,0,B|336:153|336:153|358:198,1,100
153,344,14171,5,0,0:0:0:0:
269,205,14333,1,0,0:0:0:0:
269,205,14495,1,0,0:0:0:0:
329,370,14658,5,0,0:0:0:0:
152,231,14820,1,0,0:0:0:0:
152,231,14982,1,0,0:0:0:0:
387,180,15144,5,0,0:0:0:0:
227,298,15306,1,0,0:0:0:0:
304,99,15468,1,0,0:0:0:0:
329,370,15631,1,0,0:0:0:0:
80,274,15793,5,0,0:0:0:0:
387,180,15955,1,0,0:0:0:0:
249,340,16117,2,0,L|151:304,1,100
81,136,16441,2,0,L|228:191,1,150
343,240,16766,5,0,0:0:0:0:
197,46,16928,1,0,0:0:0:0:
8,195,17090,2,0,L|101:229,1,100
283,373,17414,6,0,P|324:346|332:235,1,150
241,283,17739,1,0,0:0:0:0:
277,105,17901,1,0,0:0:0:0:
277,105,17982,1,0,0:0:0:0:
277,105,18063,2,0,L|370:139,1,100
241,283,18387,1,0,0:0:0:0:
186,68,18549,1,0,0:0:0:0:
370,267,18712,5,0,0:0:0:0:
125,148,18874,1,0,0:0:0:0:
370,139,19036,2,0,B|419:158|419:158|441:210,1,100
247,301,19360,1,0,0:0:0:0:
180,49,19522,1,0,0:0:0:0:
123,265,19685,2,0,L|99:367,1,100
384,256,20009,5,0,0:0:0:0:
124,128,20171,1,0,0:0:0:0:
406,266,20333,5,0,0:0:0:0:
106,118,20495,1,0,0:0:0:0:
406,118,20658,5,0,0:0:0:0:
106,266,20820,1,0,0:0:0:0:
428,108,20982,5,0,0:0:0:0:
88,276,21144,1,0,0:0:0:0:
349,357,21306,5,0,0:0:0:0:
163,27,21468,1,0,0:0:0:0:
88,276,21631,1,0,0:0:0:0:
89,276,21712,1,0,0:0:0:0:
89,276,21793,2,0,L|135:254,1,50
428,108,21955,5,0,0:0:0:0:
349,357,22117,1,0,0:0:0:0:
210,216,22441,5,0,0:0:0:0:
210,216,22604,2,0,P|252:209|281:181,1,80
379,73,22928,2,0,L|370:159,1,80
489,287,23252,2,0,L|480:207,1,80
367,61,23577,2,0,L|358:147,1,80
335,273,23901,2,0,B|301:297|257:277|257:277|216:256|182:275,1,160
73,347,24387,1,0,0:0:0:0:
73,347,24549,2,0,P|59:306|66:267,1,80
128,177,24874,1,0,0:0:0:0:
288,143,25036,5,0,0:0:0:0:
288,143,25198,2,0,L|208:159,1,80
320,233,25522,2,0,L|398:248,1,80
369,133,25847,2,0,P|351:91|318:68,1,80
200,77,26171,1,0,0:0:0:0:
200,77,26333,1,0,0:0:0:0:
288,143,26495,1,0,0:0:0:0:
261,16,26658,1,0,0:0:0:0:
139,135,26820,1,0,0:0:0:0:
321,276,27144,5,0,0:0:0:0:
321,276,27306,1,0,0:0:0:0:
427,154,27468,2,0,L|369:226,1,80
381,82,27793,2,0,P|433:68|466:75,1,80
512,184,28117,2,0,L|454:256,1,80
381,327,28441,2,0,P|346:351|303:354,1,80
258,245,28766,2,0,P|223:221|180:218,1,80
86,298,29090,2,0,B|72:309|68:332|68:332|46:204,1,160
84,97,29577,5,0,0:0:0:0:
84,97,29739,2,0,P|121:82|165:84,1,80
253,157,30063,2,0,P|290:172|334:170,1,80
409,88,30387,5,0,0:0:0:0:
409,88,30549,1,0,0:0:0:0:
485,170,30712,2,0,P|493:210|477:258,1,80
376,289,31036,1,0,0:0:0:0:
376,289,31198,1,0,0:0:0:0:
329,171,31360,1,0,0:0:0:0:
415,205,31522,1,0,0:0:0:0:
283,254,31685,2,0,P|243:247|212:218,1,80
176,104,32009,1,0,0:0:0:0:
339,91,32171,1,0,0:0:0:0:
339,91,32333,2,0,L|328:172,1,80
403,241,32658,5,0,0:0:0:0:
403,241,32820,1,0,0:0:0:0:
283,254,32982,2,0,B|247:224|195:250|195:250|150:272|109:239,1,179.999994506836
212,73,33468,1,0,0:0:0:0:
212,73,33549,1,0,0:0:0:0:
212,73,33631,2,0,P|210:123|191:160,1,89.9999972534181
324,79,33955,2,0,P|368:60|419:67,1,89.9999972534181
512,197,34279,2,0,P|467:199|426:181,1,89.9999972534181
489,96,34604,5,0,0:0:0:0:
335,171,34766,1,0,0:0:0:0:
335,171,34847,1,0,0:0:0:0:
335,171,34928,2,0,L|344:260,1,89.9999972534181
359,371,35252,1,0,0:0:0:0:
239,273,35414,5,0,0:0:0:0:
239,273,35577,2,0,P|196:247|155:247,1,89.9999972534181
56,332,35901,1,0,0:0:0:0:
13,213,36063,1,0,0:0:0:0:
13,213,36144,1,0,0:0:0:0:
13,213,36225,1,0,0:0:0:0:
62,351,36387,1,0,0:0:0:0:
157,246,36549,1,0,0:0:0:0:
67,367,36712,5,0,0:0:0:0:
98,170,36874,1,0,0:0:0:0:
223,322,37036,1,0,0:0:0:0:
214,126,37198,2,0,P|147:127|96:173,1,134.999995880127
109,137,37522,2,0,P|147:114|215:115,1,89.9999972534181
267,242,37847,6,0,P|222:237|184:214,1,89.9999972534181
301,116,38171,1,0,0:0:0:0:
301,116,38333,1,0,0:0:0:0:
374,250,38495,1,0,0:0:0:0:
247,329,38658,1,0,0:0:0:0:
247,329,38739,1,0,0:0:0:0:
247,329,38820,6,0,L|269:229,1,89.9999972534181
155,333,39144,2,0,P|115:349|63:336,1,89.9999972534181
4,231,39468,2,0,L|-1:141,1,89.9999972534181
102,20,39793,1,0,0:0:0:0:
138,199,39955,1,0,0:0:0:0:
138,199,40036,1,0,0:0:0:0:
138,199,40117,2,0,P|180:224|233:231,1,89.9999972534181
262,97,40441,2,0,P|304:72|357:65,1,89.9999972534181
470,171,40766,5,0,0:0:0:0:
470,171,40928,1,0,0:0:0:0:
378,213,41090,1,0,0:0:0:0:
439,89,41252,1,0,0:0:0:0:
439,89,41333,1,0,0:0:0:0:
439,89,41414,1,0,0:0:0:0:
507,252,41577,1,0,0:0:0:0:
321,329,41739,1,0,0:0:0:0:
470,171,41901,1,0,0:0:0:0:
415,292,42063,5,0,0:0:0:0:
349,130,42225,1,0,0:0:0:0:
507,252,42387,1,0,0:0:0:0:
279,256,42549,1,0,0:0:0:0:
413,0,42712,1,0,0:0:0:0:
383,212,43036,5,0,0:0:0:0:
349,130,43360,2,0,B|290:91|230:122|230:122|172:152|119:114,1,240
179,50,44009,1,0,0:0:0:0:
285,205,44333,1,0,0:0:0:0:
285,205,44495,1,0,0:0:0:0:
200,267,44658,2,0,P|163:287|52:245,1,160
141,77,45306,5,0,0:0:0:0:
137,203,45631,1,0,0:0:0:0:
137,203,45793,1,0,0:0:0:0:
220,128,45955,2,0,B|258:108|299:129|299:129|343:149|377:125,1,160
437,65,46441,1,0,0:0:0:0:
481,149,46604,2,0,L|468:231,1,80
450,325,46928,1,0,0:0:0:0:
450,325,47090,1,0,0:0:0:0:
366,257,47252,2,0,B|332:233|289:253|289:253|247:274|213:255,1,160
123,194,47739,6,0,L|128:234,1,40
138,315,47901,1,0,0:0:0:0:
37,254,48063,2,0,L|41:282,3,26.6666666666667
26,163,48387,1,0,0:0:0:0:
70,72,48549,6,0,P|115:54|155:57,1,80
193,134,48874,2,0,P|238:152|278:149,1,80
357,92,49198,2,0,L|371:10,1,80
457,74,49522,2,0,L|470:152,1,80
492,265,49847,2,0,B|498:306|498:306|484:342,1,80
401,285,50171,2,0,P|364:264|321:260,1,80
297,346,50495,2,0,P|260:367|217:371,1,80
124,342,50820,2,0,L|113:257,1,80
97,161,51144,1,0,0:0:0:0:
228,42,51468,6,0,L|217:121,1,80
204,216,51793,1,0,0:0:0:0:
204,216,51955,1,0,0:0:0:0:
314,171,52117,2,0,L|303:250,1,80
414,211,52441,6,0,L|424:131,1,80
426,94,52685,2,0,B|397:66|397:66|355:56,1,80
332,71,52928,2,0,L|247:74,1,80
177,133,53252,6,0,L|174:156,4,20
192,45,53577,1,0,0:0:0:0:
158,236,53739,1,0,0:0:0:0:
271,165,53901,2,0,P|289:157|311:157,2,40
252,247,54144,2,0,L|246:286,1,40
397,151,54387,1,0,0:0:0:0:
380,273,54549,2,0,L|385:233,1,40
409,53,54712,1,0,0:0:0:0:
512,205,54874,5,0,0:0:0:0:
291,101,55036,2,0,B|243:75|189:97|189:97|136:117|93:90,1,200
240,218,55522,1,0,0:0:0:0:
240,218,55604,1,0,0:0:0:0:
240,218,55685,2,0,P|249:269|233:317,1,100
34,139,56009,1,0,0:0:0:0:
100,371,56171,1,0,0:0:0:0:
202,128,56333,6,0,P|251:126|330:248,1,200
126,291,56820,1,0,0:0:0:0:
126,291,56901,1,0,0:0:0:0:
126,291,56982,1,0,0:0:0:0:
114,46,57144,1,0,0:0:0:0:
235,218,57306,1,0,0:0:0:0:
119,166,57468,1,0,0:0:0:0:
378,30,57631,6,0,B|400:19|412:-8|412:-8|405:145,1,200
380,360,58117,1,0,0:0:0:0:
380,360,58198,1,0,0:0:0:0:
380,360,58279,2,0,B|431:351|431:351|464:303,1,100
290,120,58604,1,0,0:0:0:0:
281,365,58766,1,0,0:0:0:0:
375,211,58928,5,0,0:0:0:0:
195,373,59090,1,0,0:0:0:0:
190,128,59252,2,0,L|292:119,1,100
195,373,59577,5,0,0:0:0:0:
102,139,59739,1,0,0:0:0:0:
375,211,59901,2,0,L|273:202,1,100
71,46,60225,6,0,L|270:28,1,200
102,139,60712,1,0,0:0:0:0:
102,139,60793,1,0,0:0:0:0:
102,139,60874,2,0,L|0:130,1,100
212,153,61198,1,0,0:0:0:0:
65,350,61360,1,0,0:0:0:0:
271,251,61522,6,0,B|316:232|368:260|368:260|419:288|463:267,1,200
304,131,62009,1,0,0:0:0:0:
304,131,62090,1,0,0:0:0:0:
304,131,62171,2,0,P|248:131|210:154,1,100
308,332,62495,1,0,0:0:0:0:
417,72,62658,1,0,0:0:0:0:
195,172,62820,6,0,B|168:181|138:164|138:164|246:266,1,200
161,84,63306,1,0,0:0:0:0:
161,84,63387,1,0,0:0:0:0:
161,84,63468,2,0,P|109:87|69:115,1,100
264,286,63793,1,0,0:0:0:0:
251,54,63955,1,0,0:0:0:0:
70,113,64117,5,0,0:0:0:0:
342,27,64279,1,0,0:0:0:0:
52,212,64766,5,0,0:0:0:0:
366,19,64928,1,0,0:0:0:0:
184,8,65090,5,0,0:0:0:0:
172,35,65171,1,0,0:0:0:0:
170,65,65252,1,0,0:0:0:0:
180,93,65333,1,0,0:0:0:0:
197,116,65414,6,0,B|225:161|202:212|202:212|178:262|202:311,1,200
85,176,65901,1,0,0:0:0:0:
85,176,65982,1,0,0:0:0:0:
85,176,66063,2,0,P|39:181|-2:217,1,100
212,326,66387,1,0,0:0:0:0:
170,65,66549,1,0,0:0:0:0:
276,260,66712,6,0,B|294:289|339:295|368:268|368:268|375:165,1,200
170,65,67198,1,0,0:0:0:0:
170,65,67279,1,0,0:0:0:0:
170,65,67360,2,0,L|175:166,1,100
188,368,67685,1,0,0:0:0:0:
277,143,67847,1,0,0:0:0:0:
82,301,68009,6,0,L|69:94,1,200
277,143,68495,1,0,0:0:0:0:
279,334,68658,2,0,P|233:358|180:346,1,100
277,143,68982,1,0,0:0:0:0:
69,101,69144,1,0,0:0:0:0:
69,101,69225,1,0,0:0:0:0:
69,101,69306,6,0,L|74:202,1,100
187,350,69631,2,0,L|191:250,1,100
214,29,69955,2,0,B|241:26|241:26|266:39,1,50
274,121,70117,2,0,B|295:138|295:138|329:141,1,50
424,70,70279,1,0,0:0:0:0:
424,70,70360,1,0,0:0:0:0:
424,70,70441,1,0,0:0:0:0:
424,70,70522,1,0,0:0:0:0:
424,70,70604,6,0,L|409:222,1,150
403,260,70928,2,0,P|355:275|304:256,1,100
181,146,71252,2,0,P|228:131|275:147,1,100
120,232,71577,2,0,B|109:250|104:273|104:273|82:216,1,100
187,280,71901,6,0,P|162:331|30:311,2,200
136,86,72712,1,0,0:0:0:0:
136,86,72874,2,0,P|179:53|230:57,1,100
366,176,73198,6,0,P|317:176|280:145,1,100
459,98,73522,2,0,B|472:87|479:66|479:66|473:129,1,100
448,322,73847,2,0,L|438:223,1,100
347,354,74171,2,0,P|295:366|256:345,1,100
116,247,74495,6,0,P|160:225|208:238,1,100
17,364,74820,2,0,L|7:261,1,100
126,147,75144,2,0,L|116:246,1,100
2,26,75468,2,0,L|11:125,1,100
253,136,75793,5,0,0:0:0:0:
32,343,75955,1,0,0:0:0:0:
292,345,76117,5,0,0:0:0:0:
138,58,76279,1,0,0:0:0:0:
163,345,76441,5,0,0:0:0:0:
390,120,76604,1,0,0:0:0:0:
88,201,76766,5,0,0:0:0:0:
414,349,76928,1,0,0:0:0:0:
259,85,77090,5,0,0:0:0:0:
127,271,77252,1,0,0:0:0:0:
402,234,77414,5,0,0:0:0:0:
131,51,77577,1,0,0:0:0:0:
273,312,77739,5,0,0:0:0:0:
381,19,77901,1,0,0:0:0:0:
130,163,78063,5,0,0:0:0:0:
414,349,78225,1,0,0:0:0:0:
259,85,78387,5,0,0:0:0:0:
125,370,78549,1,0,0:0:0:0:
346,215,78712,5,0,0:0:0:0:
10,237,78874,1,0,0:0:0:0:
264,357,79036,5,0,0:0:0:0:
131,51,79198,1,0,0:0:0:0:
70,304,79360,5,0,0:0:0:0:
386,111,79522,1,0,0:0:0:0:
131,51,79685,5,0,0:0:0:0:
168,331,79847,1,0,0:0:0:0:
171,352,80333,5,0,0:0:0:0:
127,32,80495,1,0,0:0:0:0:
243,269,80982,6,0,B|280:248|321:265|321:265|367:284|402:264,1,160
282,343,81631,2,0,P|220:349|170:314,1,120
163,289,81955,2,0,P|134:254|98:246,1,80
40,313,82279,2,0,B|28:329|25:351|25:351|7:228,1,160
39,141,82766,1,0,0:0:0:0:
129,166,82928,2,0,P|177:160|201:134,1,80
303,15,83414,5,0,0:0:0:0:
303,15,83577,2,0,L|298:97,1,80
288,252,84063,5,0,0:0:0:0:
288,252,84225,2,0,B|325:273|366:257|366:257|408:240|447:257,1,160
408,341,84712,1,0,0:0:0:0:
408,341,84874,2,0,B|366:356|366:356|313:351,1,80
258,320,85198,2,0,B|135:300|135:300|101:321,1,160
48,372,85685,1,0,0:0:0:0:
0,302,85847,6,0,P|-1:255|24:224,1,80
100,196,86171,2,0,L|257:222,1,160
345,241,86658,1,0,0:0:0:0:
345,241,86820,2,0,B|365:225|380:198|380:198|361:304,1,160
275,307,87306,1,0,0:0:0:0:
275,307,87468,2,0,P|201:325|126:280,1,160
100,196,87955,6,0,L|108:152,1,40
142,84,88117,2,0,P|183:71|227:80,1,80
278,194,88604,5,0,0:0:0:0:
278,194,88766,2,0,P|319:207|363:198,1,80
455,135,89090,2,0,L|448:218,1,80
440,314,89414,1,0,0:0:0:0:
440,314,89577,1,0,0:0:0:0:
343,308,89739,6,0,L|347:353,3,40
339,266,90063,2,0,P|305:243|263:244,1,80
231,263,90306,1,0,0:0:0:0:
98,186,90549,5,0,0:0:0:0:
98,186,90712,2,0,L|101:210,4,20
80,80,91036,1,0,0:0:0:0:
80,80,91198,1,0,0:0:0:0:
193,151,91360,6,0,B|233:174|279:159|279:159|328:143|369:166,1,179.999994506836
241,78,91847,1,0,0:0:0:0:
241,78,91928,1,0,0:0:0:0:
241,78,92009,2,0,P|191:66|154:74,1,89.9999972534181
127,209,92333,2,0,P|77:221|40:213,1,89.9999972534181
154,73,92658,1,0,0:0:0:0:
154,73,92820,1,0,0:0:0:0:
204,164,92982,6,0,P|216:209|205:258,1,89.9999972534181
184,289,93225,1,0,0:0:0:0:
184,289,93306,1,0,0:0:0:0:
37,221,93468,1,0,0:0:0:0:
37,221,93631,2,0,L|133:208,1,89.9999972534181
93,289,93955,5,0,0:0:0:0:
0,302,94117,1,0,0:0:0:0:
37,221,94279,1,0,0:0:0:0:
151,364,94441,5,0,0:0:0:0:
151,364,94522,1,0,0:0:0:0:
151,364,94604,1,0,0:0:0:0:
0,302,94766,1,0,0:0:0:0:
187,277,94928,1,0,0:0:0:0:
73,141,95090,1,0,0:0:0:0:
0,302,95252,6,0,L|97:289,1,89.9999972534181
269,207,95577,2,0,L|172:194,1,89.9999972534181
142,189,95820,1,0,0:0:0:0:
142,189,95901,1,0,0:0:0:0:
236,349,96063,1,0,0:0:0:0:
89,290,96225,5,0,0:0:0:0:
303,296,96387,1,0,0:0:0:0:
303,296,96468,1,0,0:0:0:0:
303,296,96549,2,0,B|350:302|350:302|383:332,1,89.9999972534181
236,349,96874,1,0,0:0:0:0:
269,207,97036,5,0,0:0:0:0:
269,207,97117,1,0,0:0:0:0:
269,207,97198,2,0,L|359:219,1,89.9999972534181
236,349,97522,1,0,0:0:0:0:
158,182,97685,1,0,0:0:0:0:
368,135,97847,2,0,P|377:176|355:221,1,89.9999972534181
200,266,98171,1,0,0:0:0:0:
112,100,98333,5,0,0:0:0:0:
112,100,98414,1,0,0:0:0:0:
112,100,98495,2,0,L|213:110,1,89.9999972534181
351,133,98820,1,0,0:0:0:0:
202,248,98982,1,0,0:0:0:0:
201,108,99144,5,0,0:0:0:0:
274,192,99306,1,0,0:0:0:0:
153,177,99468,1,0,0:0:0:0:
248,40,99631,1,0,0:0:0:0:
248,40,99712,1,0,0:0:0:0:
248,40,99793,1,0,0:0:0:0:
386,215,99955,1,0,0:0:0:0:
202,248,100117,5,0,0:0:0:0:
351,133,100279,1,0,0:0:0:0:
254,325,100441,1,0,0:0:0:0:
153,177,100604,1,0,0:0:0:0:
321,273,100766,1,0,0:0:0:0:
122,303,100928,1,0,0:0:0:0:
181,54,101090,2,0,L|190:8,7,44.999998626709
174,95,101739,6,0,B|214:149|283:124|283:124|347:99|395:134,1,240
468,204,102387,1,0,0:0:0:0:
320,284,102712,2,0,B|335:243|335:243|334:203,1,80
239,239,103036,2,0,P|198:260|107:193,1,160
213,62,103685,6,0,B|184:183|184:183|185:159|176:140,1,160
122,60,104171,1,0,0:0:0:0:
122,60,104333,2,0,B|114:47|115:31|115:31|103:79,1,80
52,158,104658,2,0,B|62:199|62:199|93:221,1,80
184,183,104982,2,0,P|223:178|265:196,1,80
251,287,105306,2,0,P|290:292|332:274,1,80
428,202,105631,2,0,L|423:281,1,80
512,226,105955,2,0,L|507:147,1,80
504,103,106198,5,0,0:0:0:0:
504,103,106279,1,0,0:0:0:0:
404,86,106441,2,0,L|406:112,3,26.6666666666667
394,0,106766,1,0,0:0:0:0:
311,52,106928,6,0,P|269:57|238:79,1,80
245,169,107252,2,0,P|203:164|172:142,1,80
304,42,107577,6,0,P|262:47|231:69,1,80
241,182,107901,2,0,P|199:177|168:155,1,80
86,105,108225,6,0,B|73:95|69:80|69:80|64:133,1,80
16,190,108549,2,0,P|58:207|100:199,1,80
98,100,108874,6,0,B|85:90|81:75|81:75|76:128,1,80
14,203,109198,2,0,P|56:220|98:212,1,80
214,164,109522,6,0,L|208:246,1,80
303,306,109847,2,0,L|297:226,1,80
203,162,110171,6,0,L|197:244,1,80
317,303,110496,2,0,L|311:223,1,80
301,118,110820,2,0,P|315:78|418:81,1,160
457,153,111306,1,0,0:0:0:0:
457,153,111468,1,0,0:0:0:0:
456,345,111793,6,0,P|473:311|473:262,1,80
349,200,112117,2,0,P|350:239|367:275,1,80
252,219,112441,2,0,P|215:205|170:214,1,80
108,289,112766,1,0,0:0:0:0:
108,289,112928,1,0,0:0:0:0:
16,209,113090,2,0,L|13:129,1,80
107,35,113414,2,0,L|104:115,1,80
178,208,113739,2,0,P|216:226|262:212,1,80
273,113,114063,6,0,P|311:95|357:109,1,80
411,182,114387,2,0,B|423:189|428:208|428:208|440:153,1,80
496,238,114712,2,0,P|463:274|430:282,1,80
411,182,115036,2,0,P|378:146|345:138,1,80
280,216,115360,2,0,L|285:302,1,80
190,244,115685,2,0,L|195:330,1,80
100,272,116009,2,0,L|105:358,1,80
14,305,116333,1,0,0:0:0:0:
14,305,116495,1,0,0:0:0:0:
34,197,116658,6,0,L|124:170,1,80
69,96,116982,2,0,L|159:69,1,80
273,37,117306,2,0,P|306:67|312:108,1,80
273,163,117631,2,0,P|306:133|312:92,1,80
352,36,117955,2,0,P|319:66|313:107,1,80
352,162,118280,2,0,P|319:132|313:91,1,80
465,153,118604,6,0,L|451:236,1,80
465,310,118928,2,0,L|451:227,1,80
390,275,119252,2,0,P|415:243|454:230,1,80
390,185,119577,2,0,P|415:217|454:230,1,80
301,246,119901,6,0,L|219:253,1,80
142,238,120225,2,0,L|221:231,1,80
305,204,120549,2,0,L|223:211,1,80
142,196,120874,2,0,L|221:189,1,80
309,66,121198,6,0,L|230:73,1,80
295,341,122333,5,0,0:0:0:0:
115,238,122495,2,0,B|92:186|117:140|117:140|145:91|120:42,1,200
223,206,122982,1,0,0:0:0:0:
223,206,123063,1,0,0:0:0:0:
223,206,123144,2,0,P|227:261|210:303,1,100
0,221,123468,1,0,0:0:0:0:
219,106,123631,1,0,0:0:0:0:
176,326,123793,6,0,B|34:317|34:317|71:319|98:302,1,200
284,274,124279,1,0,0:0:0:0:
284,274,124360,1,0,0:0:0:0:
284,274,124441,2,0,P|296:326|286:372,1,100
90,309,124766,1,0,0:0:0:0:
250,189,124928,1,0,0:0:0:0:
68,322,125090,6,0,L|74:122,1,200
162,253,125577,1,0,0:0:0:0:
162,253,125658,1,0,0:0:0:0:
162,253,125739,1,0,0:0:0:0:
74,91,125901,1,0,0:0:0:0:
250,189,126063,1,0,0:0:0:0:
68,322,126225,1,0,0:0:0:0:
161,141,126387,5,0,0:0:0:0:
356,247,126549,1,0,0:0:0:0:
150,369,126712,2,0,L|155:265,1,100
325,130,127036,5,0,0:0:0:0:
388,368,127198,1,0,0:0:0:0:
156,239,127360,2,0,B|200:212|200:212|262:223,1,100
471,265,127685,6,0,B|522:274|522:274|494:125,1,200
434,342,128171,1,0,0:0:0:0:
434,342,128252,1,0,0:0:0:0:
434,342,128333,2,0,B|520:359|520:359|501:368,1,100
494,128,128658,1,0,0:0:0:0:
316,318,128820,1,0,0:0:0:0:
306,93,128982,6,0,B|350:68|399:107|399:107|447:146|496:127,1,200
310,205,129468,1,0,0:0:0:0:
310,205,129549,1,0,0:0:0:0:
310,205,129631,2,0,P|257:199|214:167,1,100
395,196,129955,1,0,0:0:0:0:
267,371,130117,1,0,0:0:0:0:
132,123,130279,6,0,L|144:325,1,200
310,205,130766,1,0,0:0:0:0:
310,205,130847,1,0,0:0:0:0:
310,205,130928,2,0,L|315:104,1,100
252,344,131252,1,0,0:0:0:0:
405,161,131414,1,0,0:0:0:0:
223,76,131577,5,0,0:0:0:0:
252,344,131739,1,0,0:0:0:0:
254,365,132225,5,0,0:0:0:0:
221,55,132387,1,0,0:0:0:0:
88,223,132549,5,0,0:0:0:0:
114,236,132630,1,0,0:0:0:0:
143,240,132711,1,0,0:0:0:0:
173,234,132792,1,0,0:0:0:0:
198,219,132874,6,0,B|237:189|295:215|295:215|352:240|391:210,1,200
252,311,133360,1,0,0:0:0:0:
252,311,133441,1,0,0:0:0:0:
252,311,133522,2,0,P|208:337|158:331,1,100
312,94,133847,1,0,0:0:0:0:
344,332,134009,1,0,0:0:0:0:
212,115,134171,6,0,B|194:86|149:80|120:107|120:107|113:210,1,200
344,332,134658,1,0,0:0:0:0:
344,332,134739,1,0,0:0:0:0:
344,332,134820,2,0,L|336:226,1,100
446,94,135144,2,0,L|438:193,1,100
324,360,135468,6,0,L|308:142,1,200
429,271,135955,1,0,0:0:0:0:
234,354,136117,2,0,L|226:248,1,100
201,59,136441,1,0,0:0:0:0:
446,94,136604,1,0,0:0:0:0:
446,94,136685,1,0,0:0:0:0:
446,94,136766,2,0,L|438:193,1,100
324,360,137090,2,0,L|316:254,1,100
294,92,137414,6,0,P|271:80|243:80,1,50
243,166,137577,2,0,P|220:178|192:178,1,50
104,81,137739,1,0,0:0:0:0:
104,81,137820,1,0,0:0:0:0:
104,81,137901,1,0,0:0:0:0:
104,81,137982,1,0,0:0:0:0:
104,81,138063,6,0,B|81:133|106:179|106:179|134:228|109:277,2,200
201,22,138874,1,0,0:0:0:0:
201,21,139036,2,0,P|250:16|294:37,1,100
390,131,139360,2,0,P|346:152|297:147,1,100
492,68,139685,2,0,L|483:175,1,100
463,307,140009,6,0,P|419:340|292:289,1,200
297,147,140495,1,0,0:0:0:0:
297,147,140658,2,0,P|245:128|197:144,1,100
73,267,140982,2,0,P|122:278|168:261,1,100
0,93,141306,6,0,L|9:193,1,100
151,3,141631,2,0,L|142:102,1,100
17,292,141955,2,0,L|8:192,1,100
129,13,142279,2,0,L|120:112,1,100
147,257,142604,2,0,P|187:227|243:226,1,100
409,307,142928,2,0,P|369:337|313:338,1,100
400,77,143252,5,0,0:0:0:0:
321,341,143414,1,0,0:0:0:0:
186,77,143577,5,0,0:0:0:0:
432,174,143739,1,0,0:0:0:0:
210,332,143901,5,0,0:0:0:0:
183,57,144063,1,0,0:0:0:0:
378,259,144225,5,0,0:0:0:0:
99,324,144387,1,0,0:0:0:0:
290,64,144549,5,0,0:0:0:0:
210,332,144712,1,0,0:0:0:0:
77,46,144874,5,0,0:0:0:0:
334,160,145036,1,0,0:0:0:0:
99,324,145198,5,0,0:0:0:0:
183,57,145360,1,0,0:0:0:0:
378,259,145522,5,0,0:0:0:0:
88,186,145685,1,0,0:0:0:0:
400,77,145847,5,0,0:0:0:0:
210,332,146009,1,0,0:0:0:0:
289,66,146171,5,0,0:0:0:0:
321,341,146333,1,0,0:0:0:0:
88,186,146495,5,0,0:0:0:0:
391,169,146658,1,0,0:0:0:0:
210,332,146820,5,0,0:0:0:0:
77,46,146982,1,0,0:0:0:0:
413,168,147144,5,0,0:0:0:0:
71,187,147306,1,0,0:0:0:0:
395,342,147793,5,0,0:0:0:0:
395,342,147874,1,0,0:0:0:0:
395,342,147955,1,0,0:0:0:0:
395,342,148036,1,0,0:0:0:0:
395,342,148117,6,0,L|404:247,1,89.9999972534181
275,141,148441,2,0,L|287:275,1,134.999995880127
288,315,148766,2,0,P|247:347|200:339,1,89.9999972534181
178,319,149009,1,0,0:0:0:0:
178,319,149090,1,0,0:0:0:0:
100,164,149252,5,0,0:0:0:0:
100,164,149414,2,0,P|142:168|180:198,1,89.9999972534181
113,242,149739,1,0,0:0:0:0:
18,87,149901,1,0,0:0:0:0:
18,87,149982,1,0,0:0:0:0:
18,87,150063,2,0,L|126:83,1,89.9999972534181
145,84,150306,1,0,0:0:0:0:
145,84,150387,1,0,0:0:0:0:
285,134,150549,5,0,0:0:0:0:
285,134,150712,2,0,P|299:180|287:228,1,89.9999972534181
268,251,150955,1,0,0:0:0:0:
268,251,151036,1,0,0:0:0:0:
113,242,151198,5,0,0:0:0:0:
113,242,151360,1,0,0:0:0:0:
6,110,151522,2,0,L|114:106,1,89.9999972534181
240,38,151847,1,0,0:0:0:0:
240,38,152009,2,0,L|132:34,1,89.9999972534181
159,168,152333,1,0,0:0:0:0:
323,114,152495,5,0,0:0:0:0:
323,114,152577,1,0,0:0:0:0:
323,114,152658,1,0,0:0:0:0:
285,267,152820,1,0,0:0:0:0:
159,168,152982,2,0,L|209:151,3,44.999998626709
128,192,153306,6,0,B|125:241|125:241|154:273,1,89.9999972534181
263,343,153631,2,0,P|313:341|352:308,1,89.9999972534181
363,280,153874,1,0,0:0:0:0:
363,280,153955,1,0,0:0:0:0:
325,140,154117,1,0,0:0:0:0:
325,140,154279,1,0,0:0:0:0:
201,153,154441,6,0,L|209:245,1,89.9999972534181
106,349,154766,1,0,0:0:0:0:
106,349,154928,2,0,L|113:259,1,89.9999972534181
117,218,155171,1,0,0:0:0:0:
117,218,155252,1,0,0:0:0:0:
213,278,155414,1,0,0:0:0:0:
106,349,155577,1,0,0:0:0:0:
125,114,155739,5,0,0:0:0:0:
125,114,155820,1,0,0:0:0:0:
125,114,155901,2,0,L|217:125,1,89.9999972534181
382,173,156225,2,0,L|290:184,1,89.9999972534181
117,218,156549,2,0,L|209:229,1,89.9999972534181
295,300,156874,1,0,0:0:0:0:
382,173,157036,1,0,0:0:0:0:
216,110,157198,2,0,L|356:93,1,134.999995880127
391,89,157522,6,0,P|436:107|464:141,1,89.9999972534181
295,300,157847,2,0,L|285:252,1,44.999998626709
469,262,158009,2,0,L|479:214,1,44.999998626709
387,358,158171,1,0,0:0:0:0:
197,245,158495,6,0,P|226:195|297:169,1,134.999995880127
335,178,158820,1,0,0:0:0:0:
476,135,159144,6,0,P|447:85|376:59,1,134.999995880127
338,68,159468,1,0,0:0:0:0:
207,72,159793,6,0,B|171:42|119:68|119:68|74:90|33:57,2,179.999994506836
263,149,160604,1,0,0:0:0:0:
263,149,160766,2,0,P|248:194|212:216,2,89.9999972534181
304,66,161252,5,0,0:0:0:0:
304,66,161414,2,0,P|319:21|355:-1,2,89.9999972534181
343,148,161901,5,0,0:0:0:0:
343,148,162063,2,0,P|388:165|434:154,1,89.9999972534181
480,246,162387,6,0,B|469:294|469:294|429:307,1,89.9999972534181
401,294,162631,2,0,L|306:285,1,89.9999972534181
269,283,162874,1,0,0:0:0:0:
232,291,162955,1,0,0:0:0:0:
204,315,163036,1,0,0:0:0:0:
191,340,163117,1,0,0:0:0:0:
155,338,163198,1,0,0:0:0:0:
119,336,163279,1,0,0:0:0:0:
82,331,163360,6,0,B|62:331|47:349|47:349|60:211,1,179.999994506836
117,59,172766,5,0,0:0:0:0:
146,329,172928,1,0,0:0:0:0:
150,354,173414,5,0,0:0:0:0:
114,38,173577,1,0,0:0:0:0:
153,372,173901,5,0,0:0:0:0:
338,264,174063,2,0,B|361:212|336:166|336:166|308:117|333:68,1,200
227,244,174549,1,0,0:0:0:0:
227,244,174631,1,0,0:0:0:0:
227,244,174712,2,0,L|238:347,1,100
422,250,175036,1,0,0:0:0:0:
212,158,175198,1,0,0:0:0:0:
446,267,175360,6,0,L|467:60,1,200
227,31,175847,1,0,0:0:0:0:
227,31,175929,1,0,0:0:0:0:
227,31,176010,2,0,L|238:134,1,100
261,309,176333,1,0,0:0:0:0:
104,97,176495,1,0,0:0:0:0:
83,318,176658,6,0,B|101:347|146:353|175:326|175:326|186:229,1,200
253,38,177144,1,0,0:0:0:0:
253,38,177226,1,0,0:0:0:0:
253,38,177307,2,0,L|264:141,1,100
346,323,177631,2,0,L|356:223,1,100
409,28,177955,2,0,P|460:17|506:37,1,100
487,250,178279,2,0,L|476:150,1,100
414,298,178604,6,0,P|390:305|363:300,1,50
354,198,178766,2,0,P|330:191|303:196,1,50
213,315,178928,1,0,0:0:0:0:
213,315,179009,1,0,0:0:0:0:
213,315,179090,1,0,0:0:0:0:
213,315,179171,1,0,0:0:0:0:
213,315,179252,6,0,L|203:158,1,150
192,130,179577,2,0,P|156:108|99:111,1,100
26,218,179901,2,0,B|32:369|32:369|37:343|59:327,2,200
22,80,180712,1,0,0:0:0:0:
22,80,180874,2,0,P|65:47|113:42,1,100
196,187,181198,6,0,P|147:179|108:148,1,100
287,52,181522,2,0,L|292:151,1,100
408,276,181847,2,0,L|414:177,1,100
266,37,182171,2,0,L|272:137,1,100
429,298,182495,2,0,L|435:199,1,100
264,335,182820,6,0,P|307:357|357:352,1,100
318,160,183144,6,0,P|276:138|223:143,1,100
113,271,183468,2,0,P|163:276|207:254,1,100
24,91,183793,2,0,L|33:191,1,100
127,100,184117,2,0,L|135:0,1,100
89,336,184441,5,0,0:0:0:0:
217,52,184604,1,0,0:0:0:0:
226,330,184766,5,0,0:0:0:0:
19,59,184928,1,0,0:0:0:0:
349,141,185090,5,0,0:0:0:0:
33,191,185252,1,0,0:0:0:0:
375,326,185414,5,0,0:0:0:0:
189,167,185576,1,0,0:0:0:0:
500,113,185739,5,0,0:0:0:0:
226,330,185901,1,0,0:0:0:0:
160,20,186063,5,0,0:0:0:0:
441,228,186225,1,0,0:0:0:0:
110,178,186387,5,0,0:0:0:0:
500,113,186549,1,0,0:0:0:0:
226,330,186712,1,0,0:0:0:0:
221,158,187036,6,0,P|203:108|255:163,2,200
391,128,188009,2,0,L|403:11,1,100
487,196,188333,6,0,B|466:239|466:239|360:227,1,150
269,304,188658,2,0,L|373:315,1,100
391,128,188982,1,0,0:0:0:0:
269,304,189144,1,0,0:0:0:0:
216,94,189306,2,0,P|262:74|327:86,1,100
162,221,189631,5,0,0:0:0:0:
119,24,189793,1,0,0:0:0:0:
275,156,189955,2,0,L|270:259,1,100
138,123,190279,5,0,0:0:0:0:
359,40,190441,1,0,0:0:0:0:
349,198,190604,2,0,L|344:301,1,100
162,221,190928,5,0,0:0:0:0:
354,119,191090,1,0,0:0:0:0:
339,332,191252,2,0,P|293:343|236:327,1,100
206,302,191495,1,0,0:0:0:0:
206,302,191577,1,0,0:0:0:0:
355,87,191739,5,0,0:0:0:0:
161,195,191901,2,0,L|156:95,1,100
281,202,192225,5,0,0:0:0:0:
151,365,192387,1,0,0:0:0:0:
76,248,192549,2,0,L|71:148,1,100
213,280,192874,5,0,0:0:0:0:
243,48,193036,1,0,0:0:0:0:
210,299,193198,5,0,0:0:0:0:
245,29,193360,1,0,0:0:0:0:
287,227,193522,6,0,P|318:270|414:251,1,150
463,175,193847,2,0,L|458:75,1,100
333,0,194171,2,0,L|328:100,1,100
189,211,194495,2,0,B|139:219|139:219|90:195,1,100
189,74,194820,6,0,B|230:106|230:106|341:99,1,150
420,95,195144,1,0,0:0:0:0:
189,211,195306,1,0,0:0:0:0:
189,211,195387,1,0,0:0:0:0:
189,211,195468,1,0,0:0:0:0:
255,21,195631,1,0,0:0:0:0:
391,188,195793,2,0,L|288:196,1,100
145,305,196117,5,0,0:0:0:0:
221,118,196279,1,0,0:0:0:0:
366,282,196441,2,0,L|263:290,1,100
219,97,196766,5,0,0:0:0:0:
389,279,196928,1,0,0:0:0:0:
126,309,197090,2,0,L|169:211,1,100
186,179,197333,1,0,0:0:0:0:
186,179,197414,1,0,0:0:0:0:
252,294,197577,5,0,0:0:0:0:
418,77,197739,2,0,L|216:97,1,200
183,102,198144,1,0,0:0:0:0:
153,104,198225,1,0,0:0:0:0:
123,107,198306,1,0,0:0:0:0:
93,110,198387,1,0,0:0:0:0:
62,115,198468,1,0,0:0:0:0:
111,119,198549,1,0,0:0:0:0:
161,124,198630,1,0,0:0:0:0:
203,130,198712,6,0,L|302:138,1,100
455,210,199036,2,0,L|355:218,1,100
190,237,199360,1,0,0:0:0:0:
190,237,199522,1,0,0:0:0:0:
351,313,199685,6,0,B|367:263|367:263|354:214,1,100
193,141,200009,2,0,B|177:191|177:191|189:236,1,100
228,341,200333,1,0,0:0:0:0:
228,341,200495,1,0,0:0:0:0:
292,138,200658,6,0,L|189:141,1,100
359,210,200982,2,0,L|462:213,1,100
282,122,201306,2,0,L|179:125,1,100
368,231,201631,2,0,L|471:234,1,100
259,208,201955,6,0,P|252:264|273:300,1,100
371,124,202279,2,0,P|378:68|357:32,1,100
241,215,202604,2,0,P|234:271|255:307,1,100
390,118,202928,2,0,P|397:62|376:26,1,100
214,0,203252,6,0,L|112:6,1,100
11,117,203577,2,0,L|113:123,1,100
241,215,203901,2,0,L|139:221,1,100
0,333,204225,6,0,L|153:326,1,150
251,347,204549,2,0,L|350:341,1,100
480,264,204874,2,0,P|497:217|475:165,1,100
367,126,205198,1,0,0:0:0:0:
367,126,205360,1,0,0:0:0:0:
234,231,205522,2,0,L|333:225,1,100
375,224,205766,5,0,0:0:0:0:
375,224,205847,1,0,0:0:0:0:
240,120,206009,1,0,0:0:0:0:
175,316,206171,2,0,L|274:310,1,100
457,293,206495,5,0,0:0:0:0:
457,293,206658,1,0,0:0:0:0:
331,140,206982,6,0,L|430:134,2,100
231,151,207468,1,0,0:0:0:0:
231,151,207631,1,0,0:0:0:0:
123,276,207955,5,0,0:0:0:0:
123,276,208117,2,0,L|222:270,1,100
314,355,208441,2,0,L|214:349,1,100
330,156,208928,5,0,0:0:0:0:
330,156,209090,2,0,L|230:150,2,100
416,167,209577,1,0,0:0:0:0:
149,144,209901,5,0,0:0:0:0:
234,279,210063,1,0,0:0:0:0:
241,150,210225,1,0,0:0:0:0:
155,324,210387,1,0,0:0:0:0:
316,235,210549,1,0,0:0:0:0:
56,139,210874,6,0,L|80:188,1,50
