osu file format v14

[General]
AudioFilename: audio.mp3
AudioLeadIn: 0
PreviewTime: 193736
Countdown: 0
SampleSet: Soft
StackLeniency: 0.4
Mode: 0
LetterboxInBreaks: 0
EpilepsyWarning: 1
WidescreenStoryboard: 1

[Editor]
Bookmarks: 39182,68273,77970,97364,116758,145849,155546,174940,194334,204031,213728,233122,252516,261910
DistanceSpacing: 0.4
BeatDivisor: 8
GridSize: 32
TimelineZoom: 2.2

[Metadata]
Title:Folktale
TitleUnicode:Folktale
Artist:Mrs. GREEN APPLE
ArtistUnicode:Mrs. GREEN APPLE
Creator:Haruto
Version:Affection
Source:
Tags:僕のこと boku no koto attitude album ep haruto_aizawa tommy phelps linneal japanese pop jpop ミセスグリーンアップル motoki omori 大森元貴 hiroto wakai 若井滉斗 ayaka yamanaka 山中綾華 ryoka fujisawa 藤澤涼架 kiyokatsu kiyokazu takano 髙野清宗 softbank tvcm
BeatmapID:2368978
BeatmapSetID:1134425

[Difficulty]
HPDrainRate:6
CircleSize:4
OverallDifficulty:7
ApproachRate:8.5
SliderMultiplier:1.6
SliderTickRate:1

[Events]
//Background and Video events
0,0,"79807263_p00.jpg",0,0
//Break Periods
2,194542,203364
//Storyboard Layer 0 (Background)
//Storyboard Layer 1 (Fail)
//Storyboard Layer 2 (Pass)
//Storyboard Layer 3 (Foreground)
//Storyboard Layer 4 (Overlay)
//Storyboard Sound Samples

[TimingPoints]
403,606.060606060606,4,2,1,60,1,0
403,-66.6666666666667,4,2,1,60,0,0
857,-66.6666666666667,4,2,2,60,0,0
1009,-76.9230769230769,4,2,1,60,0,0
1160,-76.9230769230769,4,2,2,60,0,0
1312,-76.9230769230769,4,2,1,60,0,0
1463,-76.9230769230769,4,2,2,60,0,0
1615,-66.6666666666667,4,2,1,60,0,0
2069,-66.6666666666667,4,2,2,60,0,0
2221,-76.9230769230769,4,2,1,60,0,0
2827,-66.6666666666667,4,2,1,60,0,0
3281,-76.9230769230769,4,2,2,60,0,0
3432,-76.9230769230769,4,2,1,60,0,0
3584,-76.9230769230769,4,2,2,60,0,0
3736,-76.9230769230769,4,2,1,60,0,0
3887,-76.9230769230769,4,2,2,60,0,0
4039,-76.9230769230769,4,2,1,60,0,0
4645,-66.6666666666667,4,2,1,60,0,0
4948,-66.6666666666667,4,2,2,60,0,0
5099,-66.6666666666667,4,2,1,60,0,0
5251,-66.6666666666667,4,2,1,60,0,0
5857,-76.9230769230769,4,2,1,60,0,0
6009,-76.9230769230769,4,2,2,60,0,0
6160,-76.9230769230769,4,2,1,60,0,0
6312,-76.9230769230769,4,2,2,60,0,0
6463,-66.6666666666667,4,2,1,60,0,0
7372,-76.9230769230769,4,2,1,60,0,0
7675,-66.6666666666667,4,2,1,60,0,0
8130,-66.6666666666667,4,2,2,60,0,0
8281,-76.9230769230769,4,2,1,60,0,0
8433,-76.9230769230769,4,2,2,60,0,0
8584,-62.5,4,2,1,60,0,0
8812,-62.5,4,2,2,60,0,0
8887,-76.9230769230769,4,2,1,60,0,0
9796,-76.9230769230769,4,2,2,60,0,0
9948,-76.9230769230769,4,2,1,60,0,0
10099,-66.6666666666667,4,2,1,60,0,0
10554,-66.6666666666667,4,2,2,60,0,0
10706,-76.9230769230769,4,2,1,60,0,0
11766,-76.9230769230769,4,2,2,60,0,0
11918,-66.6666666666667,4,2,1,60,0,0
12524,-76.9230769230769,4,2,1,60,0,0
12978,-76.9230769230769,4,2,2,60,0,0
13130,-66.6666666666667,4,2,1,60,0,0
13281,-66.6666666666667,4,2,2,60,0,0
13433,-66.6666666666667,4,2,1,60,0,0
14039,-76.9230769230769,4,2,1,60,0,0
14645,-76.9230769230769,4,2,2,60,0,0
14948,-66.6666666666667,4,2,1,60,0,0
15402,-66.6666666666667,4,2,2,60,0,0
15554,-76.9230769230769,4,2,1,60,0,0
16615,-76.9230769230769,4,2,2,60,0,0
16766,-66.6666666666667,4,2,1,60,0,0
17372,-66.6666666666667,4,2,1,60,0,0
17978,-76.9230769230769,4,2,1,60,0,0
18130,-76.9230769230769,4,2,2,60,0,0
18281,-76.9230769230769,4,2,1,60,0,0
18433,-76.9230769230769,4,2,2,60,0,0
18584,-76.9230769230769,4,2,1,60,0,0
19190,-66.6666666666667,4,2,1,60,0,0
19796,-62.5,4,3,3,80,0,0
19948,-62.5,4,2,1,60,0,0
20251,-62.5,4,2,2,60,0,0
20403,-62.5,4,2,1,60,0,0
20630,-62.5,4,2,2,60,0,0
20706,-62.5,4,2,1,60,0,0
20857,-62.5,4,2,2,60,0,0
21009,-76.9230769230769,4,2,1,60,0,0
21463,-76.9230769230769,4,2,2,60,0,0
21615,-66.6666666666667,4,2,1,60,0,0
22221,-62.5,4,2,4,80,0,0
22372,-62.5,4,2,1,60,0,0
22827,-76.9230769230769,4,2,1,60,0,0
24645,-66.6666666666667,4,2,5,60,0,0
24796,-66.6666666666667,4,2,1,60,0,0
25251,-76.9230769230769,4,2,1,60,0,0
25857,-66.6666666666667,4,2,1,60,0,0
26463,-76.9230769230769,4,2,1,60,0,0
27069,-66.6666666666667,4,2,6,80,0,0
27221,-66.6666666666667,4,2,1,60,0,0
27675,-76.9230769230769,4,2,1,60,0,0
28281,-66.6666666666667,4,2,1,60,0,0
29190,-58.8235294117647,4,2,1,60,0,0
29493,-66.6666666666667,4,2,3,80,0,0
29645,-66.6666666666667,4,2,1,60,0,0
30099,-66.6666666666667,4,2,1,60,0,0
31918,-66.6666666666667,4,2,4,80,0,0
32069,-66.6666666666667,4,2,1,60,0,0
32524,-76.9230769230769,4,2,1,60,0,0
34342,-76.9230769230769,4,2,5,80,0,0
34493,-66.6666666666667,4,2,1,60,0,0
35554,-76.9230769230769,4,2,1,60,0,0
36766,-66.6666666666667,4,2,6,80,0,0
36918,-66.6666666666667,4,2,1,60,0,0
39115,-66.6666666666667,4,2,1,20,0,0
39190,-100,4,2,1,50,0,0
41615,-83.3333333333333,4,2,1,50,0,0
42827,-100,4,2,1,50,0,0
48433,-66.6666666666667,4,2,1,50,0,0
48887,-100,4,2,1,50,0,0
49493,-66.6666666666667,4,2,1,50,0,0
50099,-76.9230769230769,4,2,1,50,0,0
50706,-100,4,2,1,50,0,0
51312,-76.9230769230769,4,2,1,50,0,0
51766,-66.6666666666667,4,2,1,50,0,0
52221,-58.8235294117647,4,2,1,50,0,0
52675,-52.6315789473684,4,2,1,50,0,0
53130,-100,4,2,1,50,0,0
53660,-100,4,2,1,20,0,0
53736,-100,4,2,1,50,0,0
54342,-76.9230769230769,4,2,1,50,0,0
56615,-66.6666666666667,4,2,1,50,0,0
57069,-62.5,4,2,1,50,0,0
57524,-55.5555555555556,4,2,1,50,0,0
57978,-66.6666666666667,4,2,1,50,0,0
58584,-100,4,2,1,50,0,0
59493,-76.9230769230769,4,2,1,50,0,0
60327,-76.9230769230769,4,2,1,50,0,0
60402,-100,4,2,1,50,0,0
61009,-76.9230769230769,4,2,1,50,0,0
61615,-66.6666666666667,4,2,1,50,0,0
65251,-76.9230769230769,4,2,1,50,0,0
65857,-66.6666666666667,4,2,1,50,0,0
66312,-76.9230769230769,4,2,1,50,0,0
66766,-66.6666666666667,4,2,1,50,0,0
68281,-100,4,2,1,40,0,0
73736,-142.857142857143,4,2,1,40,0,0
75099,-100,4,2,1,40,0,0
77372,-100,4,2,1,20,0,0
77978,-66.6666666666667,4,2,6,70,0,0
78054,-66.6666666666667,4,2,1,70,0,0
81615,-58.8235294117647,4,2,1,70,0,0
87675,-55.5555555555556,4,2,1,70,0,0
88130,-66.6666666666667,4,2,1,70,0,0
92524,-52.6315789473684,4,2,1,70,0,0
93736,-76.9230769230769,4,2,1,70,0,0
94342,-66.6666666666667,4,2,1,70,0,0
96160,-66.6666666666667,4,2,0,70,0,0
96312,-66.6666666666667,4,2,1,70,0,0
97372,-66.6666666666667,4,2,3,60,0,0
97524,-66.6666666666667,4,2,1,60,0,0
99796,-66.6666666666667,4,2,4,60,0,0
99872,-66.6666666666667,4,2,1,60,0,0
102221,-58.8235294117647,4,2,5,60,0,0
102372,-58.8235294117647,4,2,1,60,0,0
102827,-66.6666666666667,4,2,1,60,0,0
104645,-66.6666666666667,4,2,6,60,0,0
104721,-66.6666666666667,4,2,1,60,0,0
107069,-66.6666666666667,4,2,3,60,0,0
107145,-66.6666666666667,4,2,1,60,0,0
109493,-66.6666666666667,4,2,4,60,0,0
109569,-66.6666666666667,4,2,1,60,0,0
111918,-66.6666666666667,4,2,5,60,0,0
112069,-66.6666666666667,4,2,1,60,0,0
114342,-66.6666666666667,4,2,6,60,0,0
114493,-66.6666666666667,4,2,1,60,0,0
116766,-76.9230769230769,4,2,1,50,0,0
121009,-66.6666666666667,4,2,1,50,0,0
121615,-76.9230769230769,4,2,1,50,0,0
124039,-66.6666666666667,4,2,1,50,0,0
126463,-76.9230769230769,4,2,1,50,0,0
128887,-66.6666666666667,4,2,1,50,0,0
131312,-76.9230769230769,4,2,1,50,0,0
133736,-66.6666666666667,4,2,1,50,0,0
135554,-58.8235294117647,4,2,1,50,0,0
136160,-76.9230769230769,4,2,1,50,0,0
137978,-66.6666666666667,4,2,1,50,0,0
138584,-62.5,4,2,1,50,0,0
141009,-76.9230769230769,4,2,1,50,0,0
142069,-66.6666666666667,4,2,1,50,0,0
142524,-62.5,4,2,1,50,0,0
145857,-100,4,2,1,40,0,0
155251,-100,4,2,1,20,0,0
155554,-58.8235294117647,4,2,6,70,0,0
155630,-58.8235294117647,4,2,1,70,0,0
170706,-52.6315789473684,4,2,1,70,0,0
171312,-47.6190476190476,4,2,1,70,0,0
171918,-52.6315789473684,4,2,1,70,0,0
172221,-58.8235294117647,4,2,1,70,0,0
172524,-66.6666666666667,4,2,1,70,0,0
174948,-66.6666666666667,4,3,3,80,0,0
175099,-66.6666666666667,4,2,1,60,0,0
177372,-66.6666666666667,4,2,4,80,0,0
177524,-66.6666666666667,4,2,1,60,0,0
179796,-66.6666666666667,4,3,5,80,0,0
179948,-66.6666666666667,4,2,1,60,0,0
182221,-66.6666666666667,4,2,6,80,0,0
182372,-66.6666666666667,4,2,1,60,0,0
184645,-66.6666666666667,4,3,3,80,0,0
184796,-66.6666666666667,4,2,1,60,0,0
187069,-66.6666666666667,4,2,4,80,0,0
187221,-66.6666666666667,4,2,1,60,0,0
189493,-66.6666666666667,4,3,5,80,0,0
189645,-66.6666666666667,4,2,1,60,0,0
191918,-66.6666666666667,4,2,6,80,0,0
192069,-66.6666666666667,4,2,1,60,0,0
192524,-55.5555555555556,4,2,1,60,0,0
192751,-55.5555555555556,4,2,1,20,0,0
192827,-66.6666666666667,4,2,1,60,0,0
204039,-76.9230769230769,4,2,1,60,0,0
208887,-100,4,2,1,60,0,0
209493,-76.9230769230769,4,2,1,60,0,0
212524,-55.5555555555556,4,2,1,60,0,0
212978,-100,4,2,1,60,0,0
213660,-100,4,2,1,20,0,0
213736,-55.5555555555556,4,2,6,80,0,1
213812,-55.5555555555556,4,2,1,70,0,1
227069,-50,4,2,1,70,0,1
227372,-55.5555555555556,4,2,1,70,0,1
228281,-62.5,4,2,1,70,0,1
228887,-50,4,2,1,70,0,1
229493,-66.6666666666667,4,2,1,70,0,1
230706,-100,4,2,1,70,0,1
233130,-66.6666666666667,4,2,3,80,0,0
233281,-66.6666666666667,4,2,1,70,0,0
235554,-66.6666666666667,4,2,4,80,0,0
235706,-66.6666666666667,4,2,1,60,0,0
237978,-66.6666666666667,4,2,5,80,0,0
238130,-66.6666666666667,4,2,1,60,0,0
238584,-66.6666666666667,4,2,1,60,0,0
240402,-66.6666666666667,4,2,6,80,0,0
240554,-66.6666666666667,4,2,1,60,0,0
241009,-58.8235294117647,4,2,1,60,0,0
241766,-66.6666666666667,4,2,1,60,0,0
242827,-66.6666666666667,4,2,3,80,0,0
242978,-66.6666666666667,4,2,1,60,0,0
245251,-66.6666666666667,4,2,4,80,0,0
245402,-66.6666666666667,4,2,1,60,0,0
247675,-66.6666666666667,4,3,5,80,0,0
247827,-66.6666666666667,4,2,1,60,0,0
250099,-66.6666666666667,4,2,6,80,0,0
250251,-66.6666666666667,4,2,1,60,0,0
251918,-83.3333333333333,4,2,1,60,0,0
252524,-100,4,2,1,45,0,0
257524,-142.857142857143,4,2,1,45,0,0
258281,-100,4,2,1,45,0,0
262069,-100,4,2,1,10,0,0
267069,-100,4,2,1,5,0,0

[Colours]
Combo1 : 168,238,238
Combo2 : 91,172,210
Combo3 : 205,205,205
Combo4 : 159,159,159

[HitObjects]
460,102,403,22,0,B|397:91|403:129|344:121,1,120.000004577637,6|0,2:3|0:0,0:0:0:0:
152,85,857,1,4,2:3:0:0:
281,66,1009,38,0,L|224:58,1,51.999997619629,8|0,0:0|0:0,0:0:0:0:
267,146,1312,2,0,L|210:138,1,51.999997619629,6|0,2:3|0:0,0:0:0:0:
243,265,1615,2,0,P|305:248|325:182,1,120.000004577637,0|6,0:0|2:3,0:0:0:0:
151,34,2069,5,0,0:0:0:0:
151,34,2221,2,0,P|146:59|152:84,1,51.999997619629,8|0,0:0|0:0,0:0:0:0:
388,3,2524,2,0,P|362:-1|337:3,1,51.999997619629,4|2,2:3|0:0,0:0:0:0:
137,165,2827,38,0,B|127:222|127:222|130:225|130:225|121:282,1,120.000004577637,6|0,2:3|0:0,0:0:0:0:
107,361,3281,1,4,2:3:0:0:
35,255,3433,38,0,L|43:312,1,51.999997619629,8|0,0:0|0:0,0:0:0:0:
201,278,3736,2,0,L|208:226,1,51.999997619629,6|0,2:3|0:0,0:0:0:0:
71,116,4039,5,0,0:0:0:0:
56,114,4190,1,0,0:0:0:0:
41,112,4342,1,6,2:3:0:0:
26,110,4493,1,0,0:0:0:0:
215,138,4645,38,0,L|281:147,2,60.0000022888184,8|0|4,0:0|0:0|2:3,0:0:0:0:
459,348,5099,1,2,0:0:0:0:
307,349,5251,6,0,P|343:301|412:299,1,120.000004577637,6|0,2:3|0:0,0:0:0:0:
459,348,5706,1,4,2:3:0:0:
446,227,5857,38,0,P|471:255|478:289,1,51.999997619629,10|0,0:0|0:0,0:0:0:0:
319,220,6160,2,0,P|354:203|388:207,1,51.999997619629,6|0,2:3|0:0,0:0:0:0:
426,148,6463,6,0,L|409:29,2,120.000004577637,0|6|8,0:0|2:3|0:0,0:0:0:0:
235,237,7221,1,0,0:0:0:0:
235,237,7372,2,0,L|243:177,1,51.999997619629,4|0,2:3|0:0,0:0:0:0:
190,119,7675,38,0,B|127:108|133:146|74:138,1,120.000004577637,6|2,2:3|0:0,0:0:0:0:
262,21,8130,1,4,2:3:0:0:
262,21,8281,2,0,L|255:72,1,51.999997619629,8|0,0:0|0:0,0:0:0:0:
307,134,8584,2,0,P|348:139|389:88,1,96,6|0,2:3|0:0,0:0:0:0:
401,112,8887,22,0,L|407:163,1,51.999997619629
353,221,9190,2,0,L|359:272,1,51.999997619629,6|0,2:3|0:0,0:0:0:0:
511,357,9493,2,0,P|478:321|415:324,1,103.999995239258,10|4,0:0|2:3,0:0:0:0:
355,352,9948,1,2,0:0:0:0:
163,288,10099,21,6,2:3:0:0:
163,288,10251,2,0,B|221:278|221:278|225:280|225:280|281:271,1,120.000004577637,2|4,0:0|2:3,0:0:0:0:
227,149,10706,2,0,P|178:162|153:206,2,103.999995239258,8|4|0,0:0|2:3|0:0,0:0:0:0:
122,364,11615,2,0,P|102:346|91:323,1,51.999997619629,4|0,2:3|0:0,0:0:0:0:
271,81,11918,22,0,P|290:98|305:130,1,60.0000022888184,8|0,0:0|0:0,0:0:0:0:
383,116,12221,2,0,P|384:141|372:174,1,60.0000022888184,4|0,2:3|0:0,0:0:0:0:
153,206,12524,22,0,P|178:162|227:149,1,103.999995239258,4|0,2:3|0:0,0:0:0:0:
285,205,12978,1,4,2:3:0:0:
199,14,13130,2,0,L|191:73,1,60.0000022888184,8|0,0:0|0:0,0:0:0:0:
269,323,13433,22,0,L|287:186,1,120.000004577637,4|0,2:3|0:0,0:0:0:0:
367,308,13887,1,0,0:0:0:0:
367,308,14039,22,0,L|357:239,1,51.999997619629,4|0,2:3|0:0,0:0:0:0:
447,290,14342,2,0,L|456:221,1,51.999997619629,8|0,0:0|0:0,0:0:0:0:
465,162,14645,1,4,2:3:0:0:
269,323,14948,21,6,2:3:0:0:
269,323,15099,2,0,B|206:312|212:350|153:342,1,120.000004577637,2|4,0:0|2:3,0:0:0:0:
223,170,15554,2,0,P|267:194|280:243,2,103.999995239258,8|4|0,0:0|2:3|0:0,0:0:0:0:
83,298,16463,2,0,L|92:229,1,51.999997619629,4|0,2:3|0:0,0:0:0:0:
187,65,16766,21,8,0:0:0:0:
206,74,16918,1,0,0:0:0:0:
197,93,17069,1,4,2:3:0:0:
178,84,17221,1,0,0:0:0:0:
285,56,17372,22,0,P|334:68|364:131,1,120.000004577637,4|0,2:3|0:0,0:0:0:0:
304,176,17827,1,4,2:3:0:0:
378,259,17978,38,0,P|383:220|369:188,1,51.999997619629,8|0,0:0|0:0,0:0:0:0:
225,150,18281,2,0,P|219:188|233:220,1,51.999997619629,4|0,2:3|0:0,0:0:0:0:
422,355,18584,5,0,0:0:0:0:
413,336,18736,1,0,0:0:0:0:
432,327,18888,1,4,2:3:0:0:
441,346,19039,1,0,0:0:0:0:
335,330,19190,38,0,L|256:319,1,60.0000022888184,8|0,0:0|0:0,0:0:0:0:
199,310,19493,1,4,2:3:0:0:
34,118,19796,37,14,2:3:0:0:
34,118,19948,2,0,B|95:109|95:109|101:110|101:110|162:101,1,128,2|4,0:0|2:3,0:0:0:0:
431,64,20403,2,0,P|404:22|338:25,1,96,8|0,0:0|0:0,0:0:0:0:
350,0,20706,2,0,P|311:14|294:47,1,64,4|0,2:3|0:0,0:0:0:0:
346,203,21009,38,0,P|395:189|422:147,1,103.999995239258,0|4,0:0|2:3,0:0:0:0:
221,3,21463,1,0,0:0:0:0:
221,3,21615,2,0,P|213:43|231:73,1,60.0000022888184,10|0,0:0|0:0,0:0:0:0:
350,0,21918,2,0,P|311:15|295:46,1,60.0000022888184,4|2,2:3|0:0,0:0:0:0:
283,114,22221,6,0,L|263:255,1,128,10|0,0:3|0:0,0:0:0:0:
251,321,22675,1,4,0:3:0:0:
382,301,22827,38,0,L|311:291,1,51.999997619629,8|0,0:0|0:0,0:0:0:0:
135,265,23130,2,0,L|205:274,1,51.999997619629,4|0,0:3|0:0,0:0:0:0:
387,74,23433,5,0,0:0:0:0:
363,91,23584,1,0,0:0:0:0:
381,114,23735,1,0,0:0:0:0:
404,97,23887,1,0,0:0:0:0:
292,47,24039,2,0,P|278:73|277:100,1,51.999997619629,8|0,0:0|0:0,0:0:0:0:
473,146,24342,2,0,P|487:120|488:93,1,51.999997619629,4|2,0:3|0:3,0:0:0:0:
265,240,24645,37,10,0:3:0:0:
265,240,24796,2,0,B|208:248|208:248|202:247|202:247|143:256,1,120.000004577637,2|4,0:3|0:3,0:0:0:0:
26,196,25251,2,0,L|96:205,1,51.999997619629,8|0,0:0|0:0,0:0:0:0:
14,278,25554,2,0,L|84:287,1,51.999997619629,4|0,0:3|0:0,0:0:0:0:
309,316,25857,6,0,P|334:295|342:212,1,120.000004577637,0|4,0:0|0:3,0:0:0:0:
195,20,26463,2,0,P|173:51|170:87,1,51.999997619629,8|0,0:0|0:0,0:0:0:0:
244,102,26766,2,0,P|266:71|269:35,1,51.999997619629
173,147,27069,38,0,B|181:204|181:204|180:210|180:210|189:269,1,120.000004577637,8|0,0:3|0:0,0:0:0:0:
199,345,27524,1,0,0:0:0:0:
98,192,27675,6,0,L|107:262,1,51.999997619629,8|0,0:0|0:0,0:0:0:0:
270,259,27978,2,0,L|263:207,1,51.999997619629
436,49,28281,37,0,0:0:0:0:
412,61,28433,1,0,0:0:0:0:
424,85,28584,1,0,0:0:0:0:
448,72,28736,1,0,0:0:0:0:
339,18,28887,2,0,P|325:53|332:90,1,60.0000022888184,8|0,0:0|0:0,0:0:0:0:
491,219,29190,2,0,P|471:192|441:178,1,68.0000012969971
351,165,29493,5,8,0:3:0:0:
351,165,29645,2,0,P|320:206|317:291,1,120.000004577637,2|4,0:0|0:3,0:0:0:0:
237,360,30099,2,0,P|232:300|198:252,2,120.000004577637,8|0|0,0:0|0:0|0:0,0:0:0:0:
237,360,30857,1,2,0:0:0:0:
47,230,31009,6,0,L|107:239,1,60.0000022888184,4|0,0:3|0:0,0:0:0:0:
293,138,31312,2,0,P|292:111|214:72,1,120.000004577637,8|4,0:0|0:3,0:0:0:0:
209,150,31766,1,2,0:0:0:0:
263,291,31918,38,0,B|320:283|320:283|326:284|326:284|384:276,1,120.000004577637,8|0,0:3|0:0,0:0:0:0:
461,263,32372,1,4,0:3:0:0:
435,154,32524,6,0,P|413:188|414:214,1,51.999997619629,8|0,0:0|0:0,0:0:0:0:
434,340,32827,2,0,P|443:365|461:383,1,51.999997619629,4|0,0:3|0:0,0:0:0:0:
163,287,33130,37,0,0:0:0:0:
147,307,33282,1,0,0:0:0:0:
169,323,33433,1,4,0:3:0:0:
184,302,33585,1,0,0:0:0:0:
66,322,33736,6,0,L|7:331,2,51.999997619629,8|0|4,0:0|0:0|0:3,0:0:0:0:
263,291,34190,1,2,0:0:0:0:
247,212,34342,37,8,0:3:0:0:
247,212,34493,2,0,B|238:156|238:156|239:150|239:150|231:93,1,120.000004577637,2|4,0:0|0:3,0:0:0:0:
217,15,34948,2,0,P|184:25|163:49,1,60.0000022888184,8|0,0:0|0:0,0:0:0:0:
318,88,35251,2,0,P|310:54|288:31,1,60.0000022888184
151,124,35554,6,0,L|45:138,2,103.999995239258,0|4|10,0:0|0:3|0:0,0:0:0:0:
401,83,36312,1,0,0:0:0:0:
401,83,36463,2,0,P|397:112|385:137,1,51.999997619629,4|2,0:3|0:0,0:0:0:0:
298,288,36766,38,0,B|306:232|306:232|305:226|305:226|313:169,1,120.000004577637,8|2,0:3|0:0,0:0:0:0:
396,274,37221,1,4,0:3:0:0:
396,274,37372,6,0,L|387:214,1,60.0000022888184,8|0,0:0|0:0,0:0:0:0:
219,331,37675,2,0,L|210:271,1,60.0000022888184,4|0,0:3|0:0,0:0:0:0:
184,26,37978,37,0,0:0:0:0:
207,44,38130,1,0,0:0:0:0:
189,67,38281,1,4,0:3:0:0:
166,49,38433,1,0,0:0:0:0:
282,8,38584,6,0,P|290:37|287:71,1,60.0000022888184,8|0,0:0|0:0,0:0:0:0:
95,98,38887,2,0,P|81:64|87:15,1,60.0000022888184,4|0,0:3|0:0,0:0:0:0:
204,150,39190,38,0,B|214:225|214:225|213:232|213:232|223:308,1,160,2|8,0:0|0:0,0:0:0:0:
308,357,40099,1,4,0:3:0:0:
308,357,40251,1,0,0:0:0:0:
308,357,40402,2,0,L|320:271,1,80,0|4,0:0|0:3,0:0:0:0:
423,118,41009,6,0,L|477:126,1,40,8|0,3:2|3:0,0:0:0:0:
437,134,41312,2,0,L|491:142,1,40,4|0,3:3|3:0,0:0:0:0:
441,220,41615,6,0,B|365:232|376:183|302:194,2,143.999995605469,4|4|4,0:3|0:3|0:3,0:0:0:0:
273,75,42827,2,0,L|265:129,1,40,0|0,3:0|3:0,0:0:0:0:
260,88,43130,2,0,L|252:142,1,40,4|0,3:3|0:0,0:0:0:0:
235,251,43433,2,0,P|194:242|181:166,1,120,2|0,0:0|0:0,0:0:0:0:
312,0,44039,22,0,P|350:28|352:73,1,80,4|0,0:3|0:0,0:0:0:0:
438,77,44493,1,0,0:0:0:0:
438,77,44645,2,0,P|445:124|414:157,1,80,8|4,0:0|0:3,0:0:0:0:
472,220,45099,5,0,0:0:0:0:
472,220,45251,2,0,P|443:258|398:260,1,80,0|4,0:0|0:3,0:0:0:0:
394,344,45706,1,0,0:0:0:0:
394,344,45857,2,0,P|374:343|355:336,1,40,8|0,0:3|0:3,0:3:0:0:
287,378,46160,2,0,P|273:363|265:345,1,40,4|0,3:3|0:3,0:3:0:0:
355,58,46463,5,4,0:3:0:0:
187,326,46766,2,0,P|187:306|194:287,1,40,0|0,0:3|0:3,0:3:0:0:
427,149,47069,21,4,0:3:0:0:
153,218,47372,2,0,P|167:204|185:196,1,40,0|0,0:3|0:3,0:3:0:0:
205,118,47675,5,4,0:3:0:0:
243,125,47826,1,0,0:0:0:0:
312,84,47978,2,0,P|325:98|333:116,1,40,0|0,0:3|0:3,0:3:0:0:
187,326,48281,5,4,0:3:0:0:
187,326,48433,2,0,B|129:317|129:317|124:318|124:318|66:311,1,120.000004577637
273,214,48887,2,0,L|281:268,1,40,2|0,0:0|0:0,0:0:0:0:
287,226,49190,2,0,L|292:265,1,40
306,384,49493,2,0,P|360:364|365:307,1,120.000004577637,8|4,0:0|0:3,0:0:0:0:
205,162,49948,21,0,0:0:0:0:
205,162,50099,2,0,B|211:114|211:114|210:111|210:111|217:58,1,103.999995239258,0|4,0:0|0:3,0:0:0:0:
216,58,50554,1,0,0:0:0:0:
122,219,50706,2,0,B|117:182|117:182|118:180|118:180|112:139,1,80,8|4,0:0|0:3,0:0:0:0:
300,23,51312,6,0,P|325:27|346:42,2,51.999997619629,4|0|0,0:3|0:0|0:0,0:0:0:0:
216,58,51766,2,0,P|201:79|195:117,2,60.0000022888184,4|0|0,0:3|0:0|0:0,0:0:0:0:
432,53,52221,6,0,P|446:74|448:118,2,68.0000012969971,4|0|0,0:3|0:0|0:0,0:0:0:0:
141,179,52675,2,0,P|145:204|182:250,1,75.9999979705811,8|0,0:0|0:0,0:0:0:0:
236,193,52978,1,0,0:0:0:0:
295,346,53130,22,0,B|283:272|330:283|319:212,1,140,8|0,0:0|0:0,0:0:0:0:
313,202,53736,2,0,L|274:207,1,40,4|0,0:3|0:0,0:0:0:0:
307,216,54039,2,0,L|268:221,1,40
388,327,54342,6,0,P|404:292|403:215,1,103.999995239258,8|4,0:0|0:3,0:0:0:0:
196,150,54796,1,0,0:0:0:0:
196,150,54948,2,0,P|180:185|181:262,1,103.999995239258,0|4,0:0|0:3,0:0:0:0:
393,136,55402,1,0,0:0:0:0:
393,136,55554,2,0,P|358:120|281:121,1,103.999995239258,8|4,0:0|0:3,0:0:0:0:
120,324,56160,22,0,L|112:378,2,51.999997619629,4|0|0,0:3|0:0|0:0,0:0:0:0:
36,307,56615,2,0,L|26:373,2,60.0000022888184,4|0|0,0:3|0:0|0:0,0:0:0:0:
177,249,57069,6,0,L|167:182,2,64,4|0|0,0:3|0:0|0:0,0:0:0:0:
260,231,57524,2,0,L|248:151,1,71.9999978027344,8|4,0:0|0:3,0:0:0:0:
260,231,57827,1,0,0:0:0:0:
165,55,57978,6,0,P|127:61|103:137,1,120.000004577637,8|4,0:0|0:3,0:0:0:0:
331,284,58584,22,0,B|410:266|399:331|482:319,1,160,2|8,0:0|0:0,0:0:0:0:
415,92,59493,2,0,L|407:143,1,51.999997619629,2|0,0:0|0:0,0:0:0:0:
334,196,59796,1,0,0:0:0:0:
334,196,59948,2,0,B|271:186|271:186|266:187|266:187|203:177,1,129.999994049073,4|0,0:3|0:0,0:0:0:0:
195,192,60402,2,0,L|110:179,1,80,10|4,0:0|0:3,0:0:0:0:
272,23,61009,6,0,P|291:59|291:91,1,51.999997619629,4|0,0:3|0:0,0:0:0:0:
211,101,61312,2,0,P|192:65|192:33,1,51.999997619629
413,12,61615,6,0,P|408:70|368:113,2,120.000004577637,8|4|0,0:0|0:3|0:0,0:0:0:0:
288,156,62372,2,0,L|300:240,1,60.0000022888184,8|4,0:0|0:3,0:0:0:0:
296,215,62675,1,0,0:3:0:0:
373,319,62827,2,0,B|381:262|381:262|380:258|380:258|389:201,1,120.000004577637,10|0,0:0|0:0,0:0:0:0:
389,200,63281,1,4,0:3:0:0:
238,282,63433,22,0,P|179:277|136:237,1,120.000004577637,6|0,0:3|0:0,0:0:0:0:
115,161,63887,1,4,0:3:0:0:
72,290,64039,6,0,P|53:249|53:208,1,60.0000022888184,8|0,0:0|0:0,0:0:0:0:
248,11,64342,1,6,0:3:0:0:
248,11,64493,1,0,0:0:0:0:
171,40,64645,1,0,0:0:0:0:
198,115,64796,6,0,P|210:56|248:11,1,120.000004577637,4|0,0:3|0:0,0:0:0:0:
310,63,65251,2,0,P|302:87|301:113,1,51.999997619629,8|0,0:0|0:0,0:0:0:0:
381,125,65554,2,0,P|388:100|389:74,1,51.999997619629,4|0,0:3|0:0,0:0:0:0:
290,195,65857,22,0,L|299:258,2,60.0000022888184,4|0|0,0:3|0:0|0:0,0:0:0:0:
375,212,66312,1,4,0:3:0:0:
375,212,66463,2,0,L|384:275,1,51.999997619629,8|0,0:0|0:0,0:0:0:0:
257,325,66766,6,0,P|212:327|165:273,1,120.000004577637,4|0,0:3|0:0,0:0:0:0:
292,53,67372,2,0,L|301:116,1,60.0000022888184,4|0,0:3|0:0,0:0:0:0:
219,144,67675,2,0,L|210:84,1,60.0000022888184,8|0,0:0|0:0,0:0:0:0:
140,43,67978,1,0,0:0:0:0:
140,43,68130,1,4,0:3:0:0:
289,199,68281,6,0,B|368:181|357:246|440:234,1,160,4|2,0:2|0:0,0:0:0:0:
439,234,69190,1,2,0:1:0:0:
257,326,69493,38,0,P|231:302|226:258,1,80,2|2,0:0|0:1,0:0:0:0:
405,101,70099,2,0,P|419:126|421:152,2,40,2|0|2,0:0|0:0|0:0,0:0:0:0:
323,78,70554,5,2,0:1:0:0:
323,78,70706,2,0,L|238:65,1,80,0|2,0:0|0:1,0:0:0:0:
113,213,71312,2,0,L|163:205,3,40,2|0|0|2,0:0|0:0|0:0|0:1,0:0:0:0:
225,259,71918,6,0,P|245:293|236:339,1,80,2|4,0:0|0:3,0:0:0:0:
165,376,72372,2,0,P|125:372|93:339,1,80,2|0,0:1|0:3,0:0:0:0:
93,337,72827,1,2,0:0:0:0:
244,66,73130,6,0,B|275:77|290:103|290:103|314:86|349:88,1,120,2|4,0:0|0:3,0:0:0:0:
270,191,73736,6,0,L|258:248,1,55.9999982910157,2|4,0:1|0:3,0:0:0:0:
240,331,74342,1,2,0:1:0:0:
240,331,75099,6,0,L|250:281,2,40,0|0|4,0:0|0:0|0:3,0:0:0:0:
318,234,75554,2,0,P|269:204|206:211,2,120,4|4|4,0:3|0:3|0:3,0:0:0:0:
90,344,76766,1,2,0:0:0:0:
121,194,77069,6,0,L|139:285,1,80,4|0,0:3|0:0,0:0:0:0:
390,290,77978,6,0,L|418:149,1,120.000004577637,8|0,0:3|0:0,0:0:0:0:
431,94,78433,1,4,0:3:0:0:
315,70,78584,2,0,P|336:105|374:123,1,60.0000022888184,8|0,0:0|0:0,0:0:0:0:
437,36,78887,2,0,P|427:75|441:115,1,60.0000022888184,4|0,0:3|0:0,0:0:0:0:
481,343,79190,6,0,P|457:302|372:298,1,120.000004577637,0|4,0:0|0:3,0:0:0:0:
194,369,79796,1,8,0:3:0:0:
215,356,79948,1,0,0:0:0:0:
202,335,80099,1,4,0:3:0:0:
180,348,80251,1,0,0:0:0:0:
303,384,80402,38,0,L|279:266,1,120.000004577637,4|0,0:3|0:0,0:0:0:0:
265,187,80857,1,4,0:3:0:0:
111,297,81009,6,0,P|93:325|91:355,1,60.0000022888184,8|0,0:0|0:0,0:0:0:0:
200,241,81312,2,0,P|172:223|142:221,1,60.0000022888184,4|2,0:3|0:0,0:0:0:0:
64,227,81615,37,2,0:0:0:0:
303,383,81766,1,8,0:0:0:0:
303,383,81918,2,0,P|366:369|399:311,1,136.000002593994,4|8,0:3|0:0,0:0:0:0:
366,204,82372,1,0,0:0:0:0:
366,204,82524,2,0,P|343:228|336:261,1,68.0000012969971
480,290,82827,6,0,P|488:225|445:174,1,136.000002593994,6|0,0:0|0:0,0:0:0:0:
242,137,83281,1,4,0:3:0:0:
376,119,83433,38,0,B|309:129|309:129|305:128|305:128|239:137,1,136.000002593994,8|4,0:0|0:3,0:0:0:0:
108,58,83887,1,2,0:0:0:0:
108,58,84039,6,0,L|174:71,1,68.0000012969971,2|0,0:0|0:0,0:0:0:0:
89,141,84342,2,0,L|155:154,1,68.0000012969971,4|0,0:3|0:0,0:0:0:0:
300,295,84645,38,0,L|234:309,1,68.0000012969971,8|0,0:0|0:0,0:0:0:0:
281,212,84948,2,0,L|215:226,1,68.0000012969971,4|0,0:3|0:0,0:0:0:0:
24,311,85251,5,4,0:3:0:0:
47,325,85402,1,0,0:0:0:0:
62,301,85554,1,2,0:0:0:0:
39,286,85706,1,4,0:3:0:0:
150,320,85857,38,0,P|150:289|131:244,1,68.0000012969971,10|0,0:0|0:0,0:0:0:0:
309,70,86160,2,0,P|309:101|328:146,1,68.0000012969971,6|0,0:3|0:0,0:0:0:0:
436,78,86463,5,2,0:0:0:0:
412,63,86615,1,8,0:0:0:0:
397,86,86766,1,6,0:3:0:0:
421,101,86918,1,0,0:0:0:0:
229,124,87069,38,0,L|162:137,1,68.0000012969971,10|2,0:0|0:0,0:0:0:0:
397,86,87372,2,0,L|463:72,1,68.0000012969971,2|0,0:0|0:0,0:0:0:0:
361,363,87675,6,0,B|380:294|333:284|352:221,1,143.999995605469,4|0,0:0|0:0,0:0:0:0:
441,254,88130,1,4,0:3:0:0:
441,254,88281,2,0,B|450:282|450:282|445:315,1,60.0000022888184,8|0,0:0|0:0,0:0:0:0:
268,330,88584,2,0,B|259:302|259:302|264:269,1,60.0000022888184,4|0,0:3|0:0,0:0:0:0:
397,86,88887,38,0,P|381:113|296:122,1,120.000004577637,2|6,0:0|0:3,0:0:0:0:
147,17,89493,6,0,L|134:84,1,60.0000022888184,10|0,0:0|0:0,0:0:0:0:
210,129,89796,2,0,L|223:62,1,60.0000022888184,6|0,0:3|0:0,0:0:0:0:
34,214,90099,38,0,P|47:185|131:169,2,120.000004577637,6|6|8,0:3|0:3|0:0,0:0:0:0:
212,278,91009,2,0,L|199:211,1,60.0000022888184,2|4,0:0|0:3,0:0:0:0:
306,33,91312,2,0,B|363:39|363:39|367:37|367:37|425:44,1,120.000004577637,2|4,0:0|0:3,0:0:0:0:
483,118,91766,1,0,0:0:0:0:
483,118,91918,6,0,P|468:159|435:181,1,60.0000022888184,8|0,0:0|0:0,0:0:0:0:
384,234,92221,2,0,P|369:192|336:170,1,60.0000022888184
42,145,92524,38,0,B|84:139|113:163|113:163|131:127|169:116,1,151.999995941162,6|0,0:3|0:0,0:0:0:0:
433,330,92978,1,0,0:0:0:0:
433,330,93130,2,0,B|390:324|361:348|361:348|343:312|305:301,1,151.999995941162,8|4,0:0|0:3,0:0:0:0:
290,299,93584,1,0,0:0:0:0:
195,378,93736,6,0,L|208:311,1,51.999997619629,2|8,0:0|0:0,0:0:0:0:
233,188,94039,2,0,L|220:255,1,51.999997619629,4|0,0:3|0:0,0:0:0:0:
433,330,94342,37,8,0:0:0:0:
418,253,94493,1,4,0:3:0:0:
403,176,94645,1,4,0:3:0:0:
141,268,94948,6,0,P|98:255|69:170,1,120.000004577637,4|0,0:1|0:0,0:0:0:0:
218,101,95402,1,8,0:0:0:0:
132,132,95554,38,0,P|126:88|145:51,1,60.0000022888184,8|0,0:0|0:0,0:0:0:0:
218,101,95857,2,0,P|245:66|284:53,1,60.0000022888184,4|0,0:3|0:0,0:0:0:0:
329,229,96160,5,8,0:3:0:0:
297,142,96312,1,4,0:3:0:0:
374,194,96463,1,4,0:3:0:0:
280,196,96614,1,4,0:3:0:0:
354,139,96766,1,2,0:0:0:0:
235,277,97069,37,8,0:0:0:0:
459,18,97372,5,8,0:3:0:0:
459,18,97524,2,0,B|449:75|449:75|451:80|451:80|441:135,1,120.000004577637,2|4,0:0|0:3,0:0:0:0:
385,252,97978,2,0,L|374:194,1,60.0000022888184,8|0,0:0|0:0,0:0:0:0:
477,281,98281,2,0,L|465:222,1,60.0000022888184,4|0,0:3|0:0,0:0:0:0:
297,142,98584,38,0,P|242:163|220:217,2,120.000004577637,0|4|8,0:0|0:3|0:0,0:0:0:0:
385,252,99342,1,0,0:0:0:0:
385,252,99493,2,0,L|374:310,1,60.0000022888184,4|0,0:3|0:0,0:0:0:0:
297,352,99796,6,0,B|240:342|240:342|235:344|235:344|180:334,1,120.000004577637,8|0,0:3|0:0,0:0:0:0:
0,224,100251,37,4,0:3:0:0:
82,242,100402,2,0,L|140:253,1,60.0000022888184,8|0,0:0|0:0,0:0:0:0:
160,125,100706,6,0,P|101:121|58:161,1,120.000004577637,4|0,0:3|0:0,0:0:0:0:
27,306,101160,1,0,0:0:0:0:
27,306,101312,2,0,P|44:346|78:367,1,60.0000022888184,4|0,0:3|0:0,0:0:0:0:
269,213,101615,38,0,P|251:172|217:151,1,60.0000022888184,8|0,0:0|0:0,0:0:0:0:
138,382,101918,2,0,P|178:364|199:330,1,60.0000022888184,0|4,0:0|0:3,0:0:0:0:
357,117,102221,5,8,0:3:0:0:
357,117,102372,2,0,B|336:175|375:192|355:252,1,136.000002593994,2|4,0:0|0:3,0:0:0:0:
436,300,102827,2,0,L|447:242,1,60.0000022888184,8|0,0:0|0:0,0:0:0:0:
257,154,103130,2,0,L|268:212,1,60.0000022888184,4|0,0:3|0:0,0:0:0:0:
441,21,103433,2,0,L|323:43,2,120.000004577637,0|4|8,0:0|0:3|0:0,0:0:0:0:
239,64,104190,37,0,0:0:0:0:
239,64,104342,2,0,L|181:75,1,60.0000022888184,4|0,0:3|0:0,0:0:0:0:
168,206,104645,2,0,P|214:208|256:141,1,120.000004577637,8|0,0:3|0:0,0:0:0:0:
101,28,105099,5,4,0:3:0:0:
101,28,105251,2,0,P|84:68|96:105,1,60.0000022888184,8|0,0:0|0:0,0:0:0:0:
49,164,105554,2,0,P|66:204|100:221,1,60.0000022888184,4|0,0:3|0:0,0:0:0:0:
362,81,105857,37,0,0:0:0:0:
339,67,106008,1,0,0:0:0:0:
324,91,106160,1,4,0:3:0:0:
347,106,106312,1,0,0:0:0:0:
448,89,106463,6,0,P|442:45|413:19,1,60.0000022888184,8|0,0:0|0:0,0:0:0:0:
236,86,106766,2,0,P|241:129|270:155,1,60.0000022888184,0|4,0:0|0:3,0:0:0:0:
422,279,107069,38,0,P|424:233|357:191,1,120.000004577637,8|0,0:3|0:0,0:0:0:0:
286,223,107524,1,4,0:3:0:0:
286,223,107675,2,0,L|275:281,1,60.0000022888184,8|0,0:0|0:0,0:0:0:0:
499,374,107978,2,0,L|510:316,1,60.0000022888184,4|0,0:3|0:0,0:0:0:0:
353,354,108281,5,0,0:0:0:0:
353,354,108433,2,0,B|291:347|298:387|239:383,1,120.000004577637
117,308,108887,38,0,L|175:319,1,60.0000022888184,8|0,0:0|0:0,0:0:0:0:
196,234,109190,2,0,L|138:223,1,60.0000022888184,4|0,0:3|0:0,0:0:0:0:
13,91,109493,6,0,P|33:47|114:37,1,120.000004577637,8|0,0:3|0:0,0:0:0:0:
148,104,109948,1,4,0:3:0:0:
246,34,110099,38,0,P|218:22|188:23,1,60.0000022888184,8|0,0:0|0:0,0:0:0:0:
70,161,110402,2,0,P|96:174|114:198,1,60.0000022888184,4|0,0:3|0:0,0:0:0:0:
280,320,110706,5,0,0:0:0:0:
266,297,110857,1,0,0:0:0:0:
290,282,111009,1,4,0:3:0:0:
305,305,111161,1,0,0:0:0:0:
191,340,111312,38,0,P|179:312|180:282,1,60.0000022888184,8|0,0:0|0:0,0:0:0:0:
383,261,111615,2,0,P|394:288|393:318,1,60.0000022888184,0|4,0:0|0:3,0:0:0:0:
268,200,111918,5,8,0:3:0:0:
268,200,112069,2,0,B|259:141|259:141|260:138|260:138|252:81,1,120.000004577637,2|4,0:0|0:3,0:0:0:0:
343,144,112524,2,0,P|354:116|353:86,1,60.0000022888184,8|0,0:0|0:0,0:0:0:0:
165,44,112827,2,0,P|153:71|154:101,1,60.0000022888184,4|0,0:3|0:0,0:0:0:0:
285,318,113130,38,0,L|267:197,2,120.000004577637,0|4|8,0:0|0:3|0:0,0:0:0:0:
177,192,113887,5,0,0:0:0:0:
174,218,114039,1,4,0:3:0:0:
171,244,114190,1,0,0:0:0:0:
55,110,114342,38,0,P|88:135|125:139,1,60.0000022888184,8|0,0:3|0:0,0:0:0:0:
147,60,114645,2,0,P|114:35|77:31,1,60.0000022888184,0|4,0:0|0:3,0:0:0:0:
27,243,114948,6,0,P|68:237|97:214,1,60.0000022888184,8|0,0:0|0:0,0:0:0:0:
281,3,115251,2,0,P|239:8|210:31,1,60.0000022888184,4|0,0:3|0:0,0:0:0:0:
210,161,115554,37,0,0:0:0:0:
235,146,115705,1,0,0:0:0:0:
220,123,115857,1,4,0:3:0:0:
196,138,116009,1,0,0:0:0:0:
314,163,116160,6,0,L|435:145,1,120.000004577637,8|0,0:0|0:0,0:0:0:0:
432,145,116615,1,4,0:3:0:0:
320,296,116766,6,0,P|275:272|261:223,1,103.999995239258,4|0,0:3|0:0,0:0:0:0:
314,164,117221,1,0,0:0:0:0:
314,164,117372,38,0,P|299:115|323:70,1,103.999995239258,8|4,0:0|0:3,0:0:0:0:
403,64,117827,1,0,0:0:0:0:
403,64,117978,6,0,P|426:19|475:5,1,103.999995239258,0|4,0:0|0:3,0:0:0:0:
426,286,118584,2,0,L|416:220,1,51.999997619629,8|0,0:3|0:3,0:3:0:0:
410,277,118887,2,0,L|400:211,1,51.999997619629,4|0,0:3|0:3,0:3:0:0:
196,138,119190,38,0,B|119:126|119:126|115:127|115:127|39:116,2,155.999992858887,4|4|4,0:3|0:3|0:3,0:3:0:0:
320,296,120402,1,0,0:0:0:0:
304,317,120554,1,0,0:0:0:0:
283,301,120706,1,4,0:3:0:0:
298,280,120857,1,0,0:0:0:0:
223,368,121009,6,0,P|208:352|196:315,1,60.0000022888184,2|0,0:0|0:0,0:0:0:0:
383,237,121312,2,0,P|398:253|410:290,1,60.0000022888184
258,205,121615,38,0,B|275:93|275:93|261:115|243:126,1,155.999992858887,4|0,0:3|0:0,0:0:0:0:
115,3,122221,1,8,0:0:0:0:
199,50,122524,5,4,0:3:0:0:
199,50,122675,1,0,0:0:0:0:
199,50,122827,2,0,P|148:41|115:3,1,103.999995239258,0|4,0:0|0:3,0:0:0:0:
36,45,123281,1,0,0:0:0:0:
36,45,123433,2,0,P|40:70|35:95,1,51.999997619629,8|0,0:0|0:0,0:0:0:0:
103,153,123736,2,0,P|122:136|146:127,1,51.999997619629,4|0,0:3|0:0,0:0:0:0:
365,118,124039,38,0,L|383:237,1,120.000004577637,4|0,0:3|0:0,0:0:0:0:
259,213,124493,1,4,0:3:0:0:
259,213,124645,2,0,L|276:95,1,120.000004577637,0|4,0:0|0:3,0:0:0:0:
473,256,125251,6,0,P|467:285|449:309,1,60.0000022888184
362,182,125554,2,0,P|378:206|382:236,1,60.0000022888184,4|0,0:3|0:0,0:0:0:0:
189,189,125857,1,0,0:0:0:0:
189,189,126009,2,0,P|233:186|290:236,1,120.000004577637
421,50,126463,38,0,P|379:91|324:95,1,103.999995239258,2|0,0:2|0:0,0:0:0:0:
262,59,126918,1,0,0:0:0:0:
262,59,127069,2,0,L|270:0,1,51.999997619629,8|0,0:0|0:0,0:0:0:0:
120,54,127372,2,0,L|171:61,1,51.999997619629,4|0,0:3|0:0,0:0:0:0:
362,182,127675,2,0,B|354:233|354:233|355:237|355:237|348:287,1,103.999995239258,0|4,0:0|0:3,0:0:0:0:
197,369,128281,6,0,P|178:341|175:311,1,51.999997619629,8|0,0:0|0:0,0:0:0:0:
254,310,128584,2,0,P|260:276|279:253,1,51.999997619629,4|0,0:3|0:0,0:0:0:0:
171,61,128887,38,0,P|177:94|197:123,2,60.0000022888184,4|0|0,0:3|0:0|0:0,0:0:0:0:
276,3,129342,2,0,P|258:28|251:57,2,60.0000022888184,4|0|0,0:3|0:0|0:0,0:0:0:0:
117,230,129796,6,0,L|125:171,2,60.0000022888184,4|0|0,0:3|0:0|0:0,0:0:0:0:
32,120,130251,2,0,L|40:179,1,60.0000022888184,8|0,0:0|0:0,0:0:0:0:
40,179,130554,1,0,0:0:0:0:
254,310,130706,38,0,P|326:299|378:207,1,180.000006866455,8|0,0:0|0:0,0:0:0:0:
282,112,131312,22,0,P|296:162|283:212,1,103.999995239258,4|0,0:3|0:0,0:0:0:0:
141,90,131766,1,0,0:0:0:0:
141,90,131918,2,0,P|185:115|211:159,1,103.999995239258,8|4,0:0|0:3,0:0:0:0:
29,177,132372,1,0,0:0:0:0:
29,177,132524,2,0,P|78:162|128:176,1,103.999995239258,0|4,0:0|0:3,0:0:0:0:
324,379,133130,38,0,P|279:353|253:309,1,103.999995239258,8|4,0:0|0:3,0:0:0:0:
310,30,133736,38,0,P|305:75|284:112,2,60.0000022888184,4|0|0,0:3|0:0|0:0,0:0:0:0:
232,12,134190,2,0,P|222:40|221:70,2,60.0000022888184,4|0|0,0:3|0:0|0:0,0:0:0:0:
365,161,134645,6,0,P|321:170|279:161,2,60.0000022888184,4|0|0,0:3|0:0|0:0,0:0:0:0:
127,110,135099,2,0,P|151:127|179:137,1,60.0000022888184,8|4,0:0|0:3,0:0:0:0:
179,137,135403,1,0,0:0:0:0:
264,332,135554,38,0,B|275:260|229:275|236:201,1,136.000002593994,8|0,0:0|0:0,0:0:0:0:
310,30,136160,6,0,P|412:31|436:126,1,207.999990478516,2|8,0:0|0:0,0:0:0:0:
358,212,137069,2,0,L|366:153,2,51.999997619629,2|0|0,0:0|0:0|0:0,0:0:0:0:
182,314,137524,2,0,B|131:305|131:305|128:307|128:307|79:299,1,103.999995239258,4|0,0:3|0:0,0:0:0:0:
73,198,137978,38,0,P|112:213|129:240,1,60.0000022888184,8|0,0:0|0:0,0:0:0:0:
241,373,138281,2,0,P|280:358|297:331,1,60.0000022888184,4|0,0:3|0:0,0:0:0:0:
326,274,138584,22,0,L|315:197,2,64,4|0|0,0:3|0:0|0:0,0:0:0:0:
407,266,139039,1,4,0:3:0:0:
407,266,139190,2,0,L|396:189,1,64,8|0,0:0|0:0,0:0:0:0:
369,9,139493,38,0,B|359:72|359:72|360:75|360:75|351:137,1,128,4|0,0:3|0:0,0:0:0:0:
228,47,139948,1,8,0:0:0:0:
228,47,140099,2,0,P|256:76|285:84,1,64,4|0,0:3|0:0,0:0:0:0:
495,21,140403,2,0,P|467:50|438:58,1,64,8|0,0:0|0:0,0:0:0:0:
149,15,140706,2,0,P|142:65|166:108,1,96,4|0,0:3|0:0,0:0:0:0:
170,112,141009,6,0,L|155:221,1,103.999995239258,4|0,0:3|0:0,0:0:0:0:
325,318,141463,1,4,0:3:0:0:
325,318,141615,2,0,L|340:209,1,103.999995239258,8|0,0:0|0:0,0:0:0:0:
243,174,142069,37,0,0:0:0:0:
243,174,142221,2,0,L|251:233,1,60.0000022888184
410,328,142524,2,0,P|428:295|409:215,1,96,4|0,0:3|0:0,0:0:0:0:
419,227,142827,1,8,0:0:0:0:
248,366,143130,1,0,0:0:0:0:
225,53,143433,5,4,0:3:0:0:
210,74,143584,1,0,0:0:0:0:
231,90,143736,1,0,0:0:0:0:
247,69,143888,1,4,0:3:0:0:
130,87,144039,38,0,P|100:91|65:97,1,64,8|0,0:0|0:0,0:0:0:0:
328,59,144342,2,0,P|358:55|393:49,2,64,4|0|0,0:3|0:0|0:0,0:0:0:0:
256,248,144796,5,8,0:0:0:0:
256,248,144948,2,0,L|244:176,1,64,4|0,0:3|0:0,0:0:0:0:
231,90,145251,1,8,0:0:0:0:
268,330,145554,37,4,0:3:0:0:
505,174,145857,6,0,B|417:150|434:213|347:192,1,160,4|2,0:0|0:0,0:0:0:0:
351,192,146766,1,2,0:1:0:0:
154,5,147069,38,0,P|128:35|121:74,1,80,0|2,0:0|0:1,0:0:0:0:
177,143,147675,2,0,P|202:112|209:73,1,80,2|2,0:0|0:0,0:0:0:0:
90,157,148130,5,2,0:1:0:0:
90,157,148281,2,0,B|83:196|83:196|84:199|84:199|78:237,1,80,2|2,0:0|0:1,0:0:0:0:
267,326,148887,2,0,B|261:289|261:289|262:286|262:286|255:247,1,80,0|2,0:0|0:1,0:0:0:0:
162,276,149493,2,0,L|169:231,3,40,2|0|4|0,0:0|0:0|0:3|0:0,0:0:0:0:
355,188,150251,37,0,0:0:0:0:
355,188,150402,2,0,L|315:181,1,40
345,42,150706,6,0,P|381:53|410:133,2,120,4|4|4,0:3|0:3|0:3,0:0:0:0:
442,208,151918,1,4,0:3:0:0:
192,329,152221,38,0,P|228:318|257:238,1,120,4|0,0:3|0:0,0:0:0:0:
234,168,152827,2,0,L|194:161,1,40,4|0,0:3|0:0,0:0:0:0:
370,300,153130,6,0,B|427:290|427:290|431:292|431:292|487:283,1,120,4|4,0:3|0:3,0:0:0:0:
481,201,153736,2,0,L|441:207,1,40
474,118,154039,2,0,L|434:124,1,40,4|0,0:3|0:0,0:0:0:0:
113,174,154342,37,2,0:0:0:0:
310,24,154645,6,0,B|291:93|336:117|314:186,1,160
93,261,155554,22,0,P|60:259|35:173,1,136.000002593994,8|0,0:3|0:0,0:0:0:0:
159,105,156009,1,4,0:3:0:0:
159,105,156160,2,0,P|185:125|194:157,1,68.0000012969971,8|0,0:0|0:0,0:0:0:0:
31,91,156463,2,0,P|51:64|83:55,1,68.0000012969971
311,268,156766,22,0,L|163:242,1,136.000002593994,0|4,0:0|0:3,0:0:0:0:
401,285,157372,1,8,0:0:0:0:
437,293,157524,1,0,0:0:0:0:
423,270,157675,1,4,0:3:0:0:
414,307,157827,1,0,0:0:0:0:
484,204,157978,38,0,P|451:181|418:181,1,68.0000012969971,6|0,0:3|0:0,0:0:0:0:
280,376,158281,2,0,P|313:372|340:352,1,68.0000012969971,0|4,0:0|0:3,0:0:0:0:
460,100,158584,38,0,P|394:95|347:142,1,136.000002593994,8|4,0:0|0:3,0:0:0:0:
324,227,159039,1,0,0:0:0:0:
324,227,159190,1,2,0:0:0:0:
273,97,159342,22,0,P|256:133|261:165,2,68.0000012969971,8|4|0,0:0|0:3|0:0,0:0:0:0:
233,244,159796,2,0,L|85:218,1,136.000002593994,8|4,0:0|0:3,0:0:0:0:
365,7,160402,38,0,B|355:71|355:71|357:76|357:76|347:141,1,136.000002593994,6|0,0:0|0:0,0:0:0:0:
320,384,160857,1,4,0:3:0:0:
320,384,161009,2,0,L|334:304,1,68.0000012969971,8|0,0:0|0:0,0:0:0:0:
409,274,161312,2,0,L|488:288,1,68.0000012969971,4|0,0:3|0:0,0:0:0:0:
232,243,161615,38,0,P|213:194|266:141,1,136.000002593994,0|4,0:0|0:3,0:0:0:0:
69,10,162221,2,0,L|-12:24,1,68.0000012969971,8|0,0:0|0:0,0:0:0:0:
15,105,162524,2,0,L|81:93,1,68.0000012969971,4|0,0:3|0:0,0:0:0:0:
455,36,162827,21,2,0:0:0:0:
432,22,162978,1,0,0:0:0:0:
418,45,163130,1,0,0:3:0:0:
441,59,163281,1,4,0:3:0:0:
330,33,163433,38,0,P|332:82|368:111,1,68.0000012969971,8|0,0:0|0:0,0:0:0:0:
182,351,163736,2,0,P|179:301|143:272,1,68.0000012969971,4|0,0:3|0:0,0:0:0:0:
57,348,164039,37,2,0:0:0:0:
80,362,164190,1,8,0:0:0:0:
94,339,164342,1,4,0:3:0:0:
71,325,164493,1,0,0:0:0:0:
297,292,164645,22,0,L|286:225,1,68.0000012969971,8|0,0:0|0:0,0:0:0:0:
215,92,164948,2,0,L|226:159,1,68.0000012969971,4|0,0:3|0:0,0:0:0:0:
373,351,165251,38,0,B|407:338|424:309|424:309|450:328|489:326,1,136.000002593994,6|0,0:0|0:0,0:0:0:0:
297,292,165706,1,4,0:3:0:0:
297,292,165857,38,0,B|262:279|245:250|245:250|219:269|180:267,1,136.000002593994,8|4,0:0|0:3,0:0:0:0:
389,175,166312,1,0,0:0:0:0:
389,175,166463,22,0,L|378:242,1,68.0000012969971
256,370,166766,2,0,L|189:359,1,68.0000012969971,4|0,0:3|0:0,0:0:0:0:
61,237,167069,2,0,L|72:170,1,68.0000012969971,8|0,0:0|0:0,0:0:0:0:
194,42,167372,2,0,L|261:53,1,68.0000012969971,4|0,0:3|0:0,0:0:0:0:
292,208,167675,38,0,B|212:185|238:230|148:207,2,136.000002593994,4|0|8,0:3|0:0|0:0,0:0:0:0:
434,384,168584,1,4,0:3:0:0:
434,384,168736,1,0,0:0:0:0:
489,326,168887,38,0,L|478:259,1,68.0000012969971,0|8,0:0|0:0,0:0:0:0:
418,22,169190,2,0,L|407:89,1,68.0000012969971,4|0,0:3|0:0,0:0:0:0:
326,118,169493,21,8,0:0:0:0:
301,105,169645,1,0,0:0:0:0:
273,78,169796,1,4,0:3:0:0:
268,25,169948,1,0,0:0:0:0:
94,177,170099,38,0,B|160:166|160:166|163:167|163:167|228:158,1,136.000002593994,2|0,0:0|0:0,0:0:0:0:
228,157,170554,1,0,0:0:0:0:
131,17,170706,38,0,P|61:34|45:105,1,151.999995941162,10|4,0:0|0:3,0:0:0:0:
44,104,171160,1,0,0:0:0:0:
207,305,171312,22,0,P|277:292|302:204,1,167.999994873047,2|4,0:0|0:3,0:0:0:0:
303,207,171766,1,0,0:0:0:0:
95,176,171918,38,0,P|100:213|124:241,1,75.9999979705811,8|0,0:3|0:0,0:0:0:0:
234,163,172221,2,0,P|228:125|204:97,1,68.0000012969971,4|0,0:3|0:0,0:0:0:0:
0,361,172524,38,0,L|118:341,1,120.000004577637,4|0,0:1|0:0,0:0:0:0:
363,297,172979,21,8,0:3:0:0:
269,313,173130,1,8,0:3:0:0:
489,312,173433,38,0,P|490:279|470:237,1,60.0000022888184,4|0,0:3|0:0,0:0:0:0:
353,100,173736,37,4,0:3:0:0:
251,164,173888,1,4,0:3:0:0:
369,170,174039,1,4,0:3:0:0:
278,96,174190,1,4,0:3:0:0:
307,211,174342,1,2,0:0:0:0:
74,8,174645,22,0,L|60:90,1,60.0000022888184,4|0,0:3|0:0,0:0:0:0:
45,237,174948,37,8,2:3:0:0:
45,237,175099,2,0,P|82:220|90:136,1,120.000004577637,2|4,0:0|0:3,0:0:0:0:
197,101,175554,2,0,P|175:80|147:71,1,60.0000022888184,8|0,0:0|0:0,0:0:0:0:
0,314,175857,22,0,P|17:351|101:359,2,120.000004577637,6|0|4,0:3|0:0|0:3,0:0:0:0:
307,211,176766,37,10,0:0:0:0:
284,197,176917,1,0,0:0:0:0:
270,220,177069,1,4,0:3:0:0:
293,234,177220,1,2,0:0:0:0:
185,217,177372,38,0,P|185:246|199:272,1,60.0000022888184,8|0,2:3|0:0,0:0:0:0:
394,216,177675,2,0,P|393:186|379:160,1,60.0000022888184,0|4,0:0|0:3,0:0:0:0:
290,321,177978,54,0,P|319:320|345:306,1,60.0000022888184,8|0,0:0|0:0,0:0:0:0:
288,109,178281,2,0,P|258:109|232:123,1,60.0000022888184,4|0,0:3|0:0,0:0:0:0:
23,328,178584,21,2,0:0:0:0:
37,305,178735,1,0,0:0:0:0:
14,291,178887,1,4,0:3:0:0:
0,314,179038,1,0,0:0:0:0:
125,322,179190,38,0,L|114:262,1,60.0000022888184,8|0,0:0|0:0,0:0:0:0:
90,116,179493,2,0,L|100:175,1,60.0000022888184,4|0,0:3|0:0,0:0:0:0:
290,321,179796,37,10,2:3:0:0:
290,321,179948,2,0,B|348:331|339:288|406:298,1,120.000004577637,2|4,0:0|0:3,0:0:0:0:
355,219,180402,2,0,B|324:216|324:216|293:242,1,60.0000022888184,8|0,0:0|0:0,0:0:0:0:
214,372,180706,2,0,B|183:375|183:375|152:349,1,60.0000022888184,4|0,0:3|0:0,0:0:0:0:
251,81,181009,54,0,P|286:83|329:146,1,90.0000034332277
328,129,181312,2,0,L|387:139,1,60.0000022888184,4|0,0:3|0:0,0:0:0:0:
142,99,181615,21,10,0:0:0:0:
127,76,181766,1,0,0:0:0:0:
149,61,181918,1,4,0:3:0:0:
164,84,182069,1,2,0:0:0:0:
40,84,182221,38,0,P|45:40|77:12,1,60.0000022888184,8|0,2:3|0:0,0:0:0:0:
251,81,182524,2,0,P|245:124|213:152,1,60.0000022888184,0|4,0:0|0:3,0:0:0:0:
102,299,182827,38,0,B|123:254|96:233|120:182,2,120.000004577637,8|4|0,0:0|0:3|0:0,0:0:0:0:
22,347,183584,1,0,0:0:0:0:
22,347,183736,2,0,L|12:288,1,60.0000022888184,4|0,0:3|0:0,0:0:0:0:
201,223,184039,2,0,L|191:282,1,60.0000022888184,8|0,0:0|0:0,0:0:0:0:
250,349,184342,2,0,P|278:352|309:359,1,60.0000022888184,4|0,0:3|0:0,0:0:0:0:
186,106,184645,53,8,2:3:0:0:
186,106,184796,2,0,P|133:124|120:184,1,120.000004577637,0|4,0:0|0:3,0:0:0:0:
285,231,185251,2,0,P|309:180|276:129,2,120.000004577637,8|4|0,0:0|0:3|0:0,0:0:0:0:
58,320,186009,22,0,B|115:310|115:310|120:312|120:312|175:302,1,120.000004577637,2|0,0:0|0:0,0:0:0:0:
511,226,186463,2,0,B|482:221|482:221|480:222|480:222|452:217,1,60.0000022888184,10|0,0:0|0:0,0:0:0:0:
390,165,186766,2,0,P|406:147|450:138,1,60.0000022888184,4|0,0:3|0:0,0:0:0:0:
334,321,187069,38,0,P|286:287|284:230,1,120.000004577637,10|0,2:3|0:0,0:0:0:0:
390,45,187524,1,4,0:3:0:0:
390,45,187675,2,0,P|437:78|439:135,1,120.000004577637,8|4,0:0|0:3,0:0:0:0:
161,324,188282,37,0,0:0:0:0:
138,310,188433,1,0,0:0:0:0:
152,287,188585,1,4,0:3:0:0:
175,301,188736,1,0,0:0:0:0:
67,358,188887,54,0,P|52:333|52:304,1,60.0000022888184,8|0,0:0|0:0,0:0:0:0:
250,257,189190,2,0,P|264:282|263:312,1,60.0000022888184,4|0,0:3|0:0,0:0:0:0:
114,87,189493,21,8,2:3:0:0:
114,87,189645,2,0,B|124:144|124:144|122:149|122:149|132:204,1,120.000004577637,2|4,0:0|0:3,0:0:0:0:
331,373,190099,2,0,L|390:363,1,60.0000022888184,8|0,0:0|0:0,0:0:0:0:
299,120,190402,38,0,P|247:122|215:183,2,120.000004577637,6|0|4,0:3|0:0|0:3,0:0:0:0:
430,223,191312,37,8,0:0:0:0:
416,246,191463,1,0,0:0:0:0:
393,232,191615,1,4,0:3:0:0:
407,209,191766,1,0,0:0:0:0:
390,362,191918,54,0,P|372:346|363:302,1,60.0000022888184,8|0,2:3|0:0,0:0:0:0:
434,98,192221,2,0,P|451:114|461:158,1,60.0000022888184,2|4,0:0|0:3,0:0:0:0:
316,203,192524,22,0,B|263:193|267:229|210:223,1,107.999996704102,10|0,0:0|0:0,0:0:0:0:
201,240,192827,2,0,L|142:230,1,60.0000022888184,6|0,0:3|0:0,0:0:0:0:
366,137,193130,5,0,0:0:0:0:
431,187,193281,1,0,0:0:0:0:
381,252,193433,1,6,0:3:0:0:
316,203,193584,1,0,0:0:0:0:
351,57,193736,5,10,0:0:0:0:
491,127,193887,1,0,0:0:0:0:
467,281,194039,1,4,0:3:0:0:
312,306,194190,1,0,0:0:0:0:
242,168,194342,1,4,0:3:0:0:
99,352,204039,6,0,P|179:345|217:277,1,155.999992858887,6|0,0:0|0:0,0:0:0:0:
194,97,204645,2,0,L|184:156,1,51.999997619629,8|0,0:0|0:0,0:0:0:0:
160,226,204948,6,0,P|111:211|82:174,1,77.9999964294435,4|0,0:3|0:0,0:0:0:0:
87,185,205251,2,0,L|28:195,1,51.999997619629
263,45,205554,5,4,0:3:0:0:
263,45,205857,2,0,P|317:76|331:134,1,103.999995239258,10|0,0:0|0:0,0:0:0:0:
216,381,206463,6,0,P|199:320|230:269,1,103.999995239258,2|0,0:0|0:0,0:0:0:0:
303,282,206918,1,4,0:3:0:0:
303,282,207069,2,0,P|319:342|288:393,1,103.999995239258,8|4,0:0|0:3,0:0:0:0:
131,267,207524,5,0,0:0:0:0:
131,267,207675,2,0,P|162:212|220:198,1,103.999995239258,2|4,0:0|0:3,0:0:0:0:
323,202,208130,1,0,0:0:0:0:
323,202,208281,2,0,P|369:223|391:269,1,103.999995239258,8|4,0:0|0:3,0:0:0:0:
263,142,208887,38,0,B|252:75|284:90|272:15,1,120,2|4,0:0|0:3,0:0:0:0:
260,264,209493,2,0,B|250:319|277:306|267:368,2,103.999995239258,8|4|0,0:0|0:3|0:0,0:0:0:0:
273,24,210402,5,4,0:3:0:0:
323,202,210706,1,10,0:0:0:0:
143,156,211009,1,4,0:3:0:0:
249,125,211312,37,6,0:0:0:0:
512,318,211766,5,8,0:3:0:0:
433,308,211918,2,0,B|396:302|396:302|393:303|393:303|356:297,1,77.9999964294435,8|0,0:3|0:0,0:0:0:0:
339,295,212221,2,0,P|319:330|321:360,1,51.999997619629,4|0,0:3|0:0,0:0:0:0:
409,190,212524,38,0,P|398:155|373:131,1,71.9999978027344,0|0,3:0|3:0,0:0:0:0:
242,262,212827,5,0,3:0:0:0:
242,262,212978,2,0,P|210:245|166:248,1,80,0|0,3:0|0:0,0:0:0:0:
156,353,213433,2,0,P|121:363|94:395,1,60,0|0,3:0|0:0,0:0:0:0:
38,334,213736,38,0,B|49:266|49:266|47:260|47:260|58:192,1,143.999995605469,8|0,0:3|0:0,0:0:0:0:
173,65,214190,1,4,0:3:0:0:
173,65,214342,2,0,L|243:77,1,71.9999978027344,8|0,0:0|0:0,0:0:0:0:
240,159,214645,2,0,L|114:137,1,107.999996704102,4|0,0:3|0:0,0:0:0:0:
119,134,214948,22,0,P|91:102|85:68,1,71.9999978027344
298,8,215251,2,0,P|326:40|332:74,1,71.9999978027344,4|0,0:3|0:0,0:0:0:0:
173,65,215554,6,0,P|182:30|207:4,1,71.9999978027344,8|0,0:0|0:0,0:0:0:0:
415,79,215857,2,0,P|405:113|380:139,1,71.9999978027344,4|0,0:3|0:0,0:0:0:0:
240,381,216160,22,0,B|252:314|252:314|249:308|249:308|261:239,1,143.999995605469,2|0,0:0|0:0,0:0:0:0:
339,293,216615,1,4,0:3:0:0:
339,293,216766,2,0,L|351:363,1,71.9999978027344,8|0,0:0|0:0,0:0:0:0:
166,327,217069,2,0,P|117:309|97:260,1,107.999996704102,4|0,0:3|0:0,0:0:0:0:
78,260,217372,38,0,P|78:218|105:186,1,71.9999978027344,6|0,0:0|0:0,0:0:0:0:
168,26,217675,2,0,P|204:47|218:86,1,71.9999978027344,4|0,0:3|0:0,0:0:0:0:
326,220,217978,2,0,P|289:241|248:233,1,71.9999978027344,8|0,0:0|0:0,0:0:0:0:
197,168,218281,21,4,0:3:0:0:
197,168,218433,1,0,0:0:0:0:
365,135,218584,6,0,L|509:109,1,143.999995605469,6|0,0:0|0:0,0:0:0:0:
450,40,219039,1,4,0:3:0:0:
450,40,219190,22,0,P|414:34|379:26,1,71.9999978027344,8|0,0:0|0:0,0:0:0:0:
422,217,219493,2,0,P|457:222|492:230,1,71.9999978027344,4|0,0:3|0:0,0:0:0:0:
308,347,219796,38,0,P|246:320|237:247,1,143.999995605469,0|4,0:0|0:3,0:0:0:0:
352,66,220251,1,0,0:0:0:0:
352,66,220402,2,0,L|364:136,1,71.9999978027344,8|0,0:0|0:0,0:0:0:0:
284,181,220706,2,0,L|272:111,1,71.9999978027344,4|0,0:3|0:0,0:0:0:0:
6,312,221009,21,2,0:0:0:0:
72,356,221160,1,0,0:0:0:0:
115,290,221312,1,0,0:0:0:0:
50,247,221463,1,4,0:3:0:0:
191,318,221615,6,0,P|194:281|177:238,1,71.9999978027344,8|0,0:0|0:0,0:0:0:0:
320,66,221918,2,0,P|317:101|328:135,1,71.9999978027344,4|0,0:3|0:0,0:0:0:0:
505,71,222221,21,6,0:0:0:0:
440,28,222372,1,0,0:0:0:0:
397,94,222524,1,4,0:3:0:0:
462,137,222675,1,0,0:0:0:0:
170,6,222827,38,0,P|204:16|239:13,1,71.9999978027344,8|0,0:0|0:0,0:0:0:0:
440,223,223130,2,0,P|405:212|370:215,1,71.9999978027344,4|0,0:3|0:0,0:0:0:0:
107,351,223433,22,0,B|118:288|118:288|117:271|117:271|128:209,1,143.999995605469,6|0,0:0|0:0,0:0:0:0:
128,208,223887,1,0,0:0:0:0:
173,138,224039,6,0,P|138:127|103:130,1,71.9999978027344,8|0,0:0|0:0,0:0:0:0:
213,284,224342,2,0,P|223:249|220:214,1,71.9999978027344,4|0,0:3|0:0,0:0:0:0:
48,53,224645,22,0,P|26:102|32:190,1,143.999995605469,0|4,0:0|0:3,0:0:0:0:
302,302,225251,2,0,P|314:268|310:233,1,71.9999978027344,8|0,0:0|0:0,0:0:0:0:
376,183,225554,2,0,P|409:195|444:191,1,71.9999978027344,4|0,0:3|0:0,0:0:0:0:
200,377,225857,38,0,P|178:325|244:252,1,143.999995605469,2|0,0:0|0:0,0:0:0:0:
447,355,226312,21,4,0:3:0:0:
447,355,226463,2,0,L|377:343,1,71.9999978027344,8|0,0:0|0:0,0:0:0:0:
157,185,226766,2,0,L|227:173,1,71.9999978027344,4|0,0:3|0:0,0:0:0:0:
417,14,227069,6,0,B|423:48|423:48|422:58|422:58|428:93,1,80,6|0,0:0|0:0,0:0:0:0:
244,170,227372,2,0,B|252:121|252:121|251:108|251:108|260:61,1,107.999996704102,4|0,0:3|0:0,0:0:0:0:
264,44,227675,2,0,P|223:32|191:37,1,71.9999978027344,8|0,0:0|0:0,0:0:0:0:
333,178,227978,2,0,P|345:137|340:105,1,71.9999978027344,4|0,0:3|0:0,0:0:0:0:
11,297,228281,22,0,B|74:302|64:257|132:268,1,128,6|4,0:0|0:3,0:0:0:0:
141,273,228736,1,4,0:3:0:0:
496,210,228887,38,0,B|412:220|428:160|345:172,1,160,10|4,0:0|0:3,0:0:0:0:
332,177,229342,1,2,0:0:0:0:
144,1,229493,22,0,L|153:60,2,60.0000022888184,2|4|4,0:0|0:3|0:3,0:0:0:0:
171,354,230099,5,10,0:0:0:0:
228,295,230251,1,0,0:0:0:0:
142,274,230402,1,4,0:3:0:0:
85,334,230554,1,0,0:0:0:0:
203,209,230706,6,0,P|213:171|200:133,1,80,6|0,0:0|0:0,0:0:0:0:
9,337,231160,1,8,0:0:0:0:
9,337,231312,2,0,P|47:346|84:333,1,80,8|4,0:0|0:3,0:0:0:0:
374,39,231918,5,4,0:3:0:0:
287,61,232069,1,4,0:3:0:0:
284,148,232221,1,4,0:3:0:0:
368,178,232372,1,4,0:3:0:0:
421,108,232524,1,2,0:0:0:0:
203,209,232827,5,4,0:3:0:0:
486,21,233130,2,0,L|505:139,1,120.000004577637,12|0,2:3|0:0,0:0:0:0:
456,213,233584,1,4,0:3:0:0:
456,213,233736,2,0,L|467:282,1,60.0000022888184,8|0,0:0|0:0,0:0:0:0:
368,178,234039,2,0,P|331:162|308:101,1,90.0000034332277,2|0,0:0|0:0,0:0:0:0:
289,117,234342,6,0,P|284:73|296:45,1,60.0000022888184
224,7,234645,2,0,P|180:12|152:0,1,60.0000022888184,4|0,0:3|0:0,0:0:0:0:
376,71,234948,2,0,P|420:66|448:78,1,60.0000022888184,10|0,0:0|0:0,0:0:0:0:
231,184,235251,2,0,P|201:189|172:183,1,60.0000022888184,4|2,0:3|0:0,0:0:0:0:
339,319,235554,6,0,L|318:197,1,120.000004577637,8|0,2:3|0:0,0:0:0:0:
236,331,236009,1,4,0:3:0:0:
236,331,236160,6,0,L|248:254,1,60.0000022888184,8|0,0:0|0:0,0:0:0:0:
418,173,236463,2,0,L|408:232,1,60.0000022888184,4|0,0:3|0:0,0:0:0:0:
57,180,236766,5,0,0:0:0:0:
62,148,236918,1,0,0:0:0:0:
93,155,237069,1,4,0:3:0:0:
87,185,237221,1,0,0:0:0:0:
63,63,237372,6,0,L|122:73,1,60.0000022888184,8|0,0:0|0:0,0:0:0:0:
84,270,237675,2,0,L|25:260,1,60.0000022888184,4|0,0:3|0:0,0:0:0:0:
172,183,237978,6,0,B|261:169|243:238|345:226,1,180.000006866455,8|4,2:3|0:3,0:0:0:0:
314,71,238584,2,0,B|257:55|257:55|212:97,1,120.000004577637,8|4,0:0|0:3,0:0:0:0:
263,337,239190,2,0,B|320:353|320:353|365:311,1,120.000004577637,0|4,0:0|0:3,0:0:0:0:
50,166,239796,5,10,0:0:0:0:
68,191,239948,1,0,0:0:0:0:
93,174,240100,1,4,0:3:0:0:
76,147,240251,1,2,0:0:0:0:
56,274,240402,6,0,L|46:333,1,60.0000022888184,8|0,2:3|0:0,0:0:0:0:
92,67,240706,2,0,L|102:8,1,60.0000022888184,0|4,0:0|0:3,0:0:0:0:
172,183,241009,6,0,B|239:189|230:142|302:151,2,136.000002593994,8|4|0,0:0|0:3|0:0,0:0:0:0:
190,51,241766,1,0,0:0:0:0:
190,51,241918,2,0,P|223:58|247:82,1,60.0000022888184,4|0,0:3|0:0,0:0:0:0:
315,234,242221,2,0,P|348:226|372:203,1,60.0000022888184,8|0,0:0|0:0,0:0:0:0:
425,94,242524,2,0,L|435:153,1,60.0000022888184,4|0,0:3|0:0,0:0:0:0:
471,356,242827,6,0,L|449:228,1,120.000004577637,10|0,2:3|0:0,0:0:0:0:
367,209,243281,1,4,0:3:0:0:
367,209,243433,2,0,L|230:232,1,120.000004577637,8|4,0:0|0:3,0:0:0:0:
44,263,244039,1,0,0:0:0:0:
121,219,244190,6,0,P|134:247|132:279,2,60.0000022888184,2|4|0,0:0|0:3|0:0,0:0:0:0:
129,366,244645,2,0,B|187:371|179:330|241:338,1,120.000004577637,8|4,0:0|0:3,0:0:0:0:
409,360,245099,1,2,0:0:0:0:
322,376,245251,6,0,P|321:346|334:319,1,60.0000022888184,8|0,2:3|0:0,0:0:0:0:
395,220,245554,2,0,P|407:246|406:276,1,60.0000022888184,0|4,0:0|0:3,0:0:0:0:
223,186,245857,6,0,P|258:158|331:169,1,120.000004577637,8|4,0:0|0:3,0:0:0:0:
503,307,246463,5,0,0:0:0:0:
494,319,246615,1,0,0:0:0:0:
481,311,246767,1,4,0:3:0:0:
490,297,246918,1,0,0:0:0:0:
409,360,247069,6,0,L|340:348,1,60.0000022888184,8|0,0:0|0:0,0:0:0:0:
418,206,247372,2,0,L|477:216,1,60.0000022888184,4|0,0:3|0:0,0:0:0:0:
336,256,247675,5,8,2:3:0:0:
336,256,247827,2,0,L|315:136,1,120.000004577637,2|0,0:0|0:0,0:0:0:0:
225,0,248281,6,0,P|195:31|192:57,1,60.0000022888184,8|0,0:0|0:0,0:0:0:0:
328,57,248584,2,0,P|284:57|264:73,1,60.0000022888184,4|0,0:3|0:0,0:0:0:0:
125,100,248887,6,0,P|154:132|198:133,1,90.0000034332277
210,130,249190,2,0,L|199:189,1,60.0000022888184,4|0,0:3|0:0,0:0:0:0:
177,318,249493,5,8,0:0:0:0:
202,301,249645,1,0,0:0:0:0:
185,274,249796,1,4,0:3:0:0:
159,293,249948,1,0,0:0:0:0:
278,343,250099,6,0,P|288:315|287:286,1,60.0000022888184,8|0,2:3|0:0,0:0:0:0:
82,251,250402,2,0,P|72:279|74:309,1,60.0000022888184,0|4,0:0|0:3,0:0:0:0:
405,159,250706,6,0,P|407:129|398:101,1,60.0000022888184,8|0,0:0|0:0,0:0:0:0:
192,130,251009,2,0,P|189:159|200:188,1,60.0000022888184,4|0,0:3|0:0,0:0:0:0:
319,140,251312,5,0,0:0:0:0:
294,123,251464,1,0,0:0:0:0:
276,148,251615,1,4,0:3:0:0:
302,167,251767,1,0,0:0:0:0:
279,42,251918,6,0,L|266:-19,1,47.9999985351563,8|0,0:0|0:0,0:0:0:0:
323,249,252221,2,0,L|336:310,1,47.9999985351563,4|0,0:3|0:0,0:0:0:0:
106,222,252524,21,2,0:3:0:0:
106,222,252675,2,0,P|149:235|200:177,1,120,2|2,0:3|0:0,0:0:0:0:
155,115,253433,2,0,P|107:119|80:156,1,80,2|0,0:0|0:0,0:0:0:0:
160,317,253887,37,2,0:3:0:0:
160,317,254039,1,2,0:0:0:0:
160,317,254342,6,0,P|207:312|234:275,1,80,2|0,0:3|0:0,0:0:0:0:
271,218,254796,1,2,0:3:0:0:
355,72,254948,38,0,L|370:154,1,80,2|0,0:0|0:0,0:0:0:0:
444,204,255554,1,2,0:0:0:0:
457,125,255857,1,2,0:0:0:0:
228,292,256463,6,0,B|123:262|142:345|38:326,1,200,2|0,0:0|0:0,0:0:0:0:
146,172,257372,37,2,0:3:0:0:
75,235,257524,2,0,L|58:146,1,83.9999974365235,2|0,0:0|0:0,0:0:0:0:
119,90,258281,2,0,L|207:73,1,80,2|0,0:3|0:0,0:0:0:0:
75,235,258887,5,2,0:0:0:0:
258,10,259190,2,0,P|284:42|286:85,1,80,2|0,0:3|0:0,0:0:0:0:
236,151,259645,37,2,0:3:0:0:
398,27,260099,5,2,0:0:0:0:
426,305,260402,1,2,0:0:0:0:
148,333,260706,1,2,0:3:0:0:
119,55,261009,1,2,0:0:0:0:
315,181,261312,37,2,0:0:0:0:
236,151,261615,1,2,0:0:0:0:
250,235,261918,1,2,0:0:0:0:
256,192,261993,12,0,267069,0:0:0:0:
