osu file format v14

[General]
AudioFilename: audio.mp3
AudioLeadIn: 0
PreviewTime: 9666
Countdown: 0
SampleSet: Soft
StackLeniency: 0.4
Mode: 0
LetterboxInBreaks: 0
WidescreenStoryboard: 1

[Editor]
Bookmarks: 71856,91493,176584,240402,253493,286914,297747
DistanceSpacing: 0.5
BeatDivisor: 12
GridSize: 32
TimelineZoom: 2.2

[Metadata]
Title:Dokoka de Hi wa Noboru
TitleUnicode:どこかで日は昇る
Artist:Mrs. GREEN APPLE
ArtistUnicode:Mrs. GREEN APPLE
Creator:imaginative
Version:Forgotten Affection
Source:笑う招き猫
Tags:ni japanese j-pop jpop single warau manekineko laughing lucky cats theme song ending ed ENSEMBLE BEST ALBUM 5 大森元貴 Motoki Omori Oumori 若井滉斗 Hiroto Wakai 山中綾華 Ayaka Yamanaka 藤澤涼架 Ryoka Ryouka Fujisawa 髙野清宗 Kiyokazu Takano
BeatmapID:2935623
BeatmapSetID:1336174

[Difficulty]
HPDrainRate:5
CircleSize:4.9
OverallDifficulty:7.5
ApproachRate:8.3
SliderMultiplier:1.73
SliderTickRate:1

[Events]
//Background and Video events
0,0,"affection be like.jpg",0,0
//Break Periods
2,246940,251143
//Storyboard Layer 0 (Background)
//Storyboard Layer 1 (Fail)
//Storyboard Layer 2 (Pass)
//Storyboard Layer 3 (Foreground)
//Storyboard Layer 4 (Overlay)
//Storyboard Sound Samples

[TimingPoints]
939,545.454545454546,2,2,1,35,1,0
939,-166.666666666667,2,2,1,35,0,0
5302,-133.333333333333,2,2,1,35,0,0
9666,-153.846153846154,2,2,1,35,0,0
14029,-125,2,2,1,35,0,0
16211,818.185537206987,2,2,1,60,1,0
16211,-111.111111111111,2,2,1,60,0,0
16892,-111.111111111111,2,2,1,5,0,0
17029,-71.4285714285714,2,2,1,60,0,0
17847,818.185537206987,2,2,1,55,1,0
17847,-66.6666666666667,2,2,1,55,0,0
32301,-66.6666666666667,2,2,1,40,0,0
32574,818.185537206987,2,2,2,40,1,0
32574,-90.9090909090909,2,2,2,40,0,0
33392,-90.9090909090909,2,2,2,40,0,0
46345,-90.9090909090909,2,2,2,5,0,0
46483,-90.9090909090909,2,2,2,40,0,0
49618,-90.9090909090909,2,2,2,5,0,0
49755,-90.9090909090909,2,2,2,40,0,0
56164,-90.9090909090909,2,2,2,5,0,0
56301,-90.9090909090909,2,2,2,40,0,0
56982,-90.9090909090909,2,2,2,5,0,0
57119,-90.9090909090909,2,2,2,40,0,0
58755,-100,2,2,2,40,0,0
70210,-80,2,2,2,40,0,0
71028,-80,2,2,1,45,0,0
71846,-71.4285714285714,2,2,1,50,0,0
84937,-54.054054054054,2,2,1,65,0,1
85756,-57.1428571428571,2,2,1,65,0,1
86165,-57.1428571428571,2,2,1,5,0,1
86301,-57.1428571428571,2,2,1,65,0,1
86983,-57.1428571428571,2,2,1,5,0,1
87119,-57.1428571428571,2,2,1,65,0,1
87392,-57.1428571428571,2,2,1,65,0,1
87801,-57.1428571428571,2,2,1,5,0,1
87937,-57.1428571428571,2,2,1,65,0,1
91483,-54.054054054054,2,2,1,65,0,1
92301,-57.1428571428571,2,2,1,65,0,1
94756,-54.054054054054,2,2,1,65,0,1
95574,-57.1428571428571,2,2,1,65,0,1
98028,-54.054054054054,2,2,1,65,0,1
98847,-57.1428571428571,2,2,1,65,0,1
99256,-57.1428571428571,2,2,1,5,0,1
99392,-57.1428571428571,2,2,1,65,0,1
100074,-57.1428571428571,2,2,1,5,0,1
100210,-57.1428571428571,2,2,1,65,0,1
100892,-57.1428571428571,2,2,1,5,0,1
101028,-57.1428571428571,2,2,1,65,0,1
104574,-54.054054054054,2,2,1,65,0,1
105392,-57.1428571428571,2,2,1,65,0,1
107847,-54.054054054054,2,2,1,65,0,1
108665,-57.1428571428571,2,2,1,65,0,1
111119,-54.054054054054,2,2,1,65,0,1
111937,-57.1428571428571,2,2,1,65,0,1
112346,-57.1428571428571,2,2,1,5,0,1
112483,-57.1428571428571,2,2,1,65,0,1
114392,-54.054054054054,2,2,1,65,0,1
115210,-57.1428571428571,2,2,1,65,0,1
116437,-57.1428571428571,2,2,1,5,0,1
116574,-57.1428571428571,2,2,1,65,0,1
117665,-54.054054054054,2,2,1,65,0,1
118074,-54.054054054054,2,2,1,5,0,1
118210,-54.054054054054,2,2,1,65,0,1
118756,-57.1428571428571,2,2,1,65,0,1
120938,-54.054054054054,2,2,1,65,0,1
123119,-57.1428571428571,2,2,1,65,0,1
124210,-66.6666666666667,2,2,1,55,0,0
137029,-66.6666666666667,2,2,1,40,0,0
137301,-90.9090909090909,2,2,1,40,0,0
139619,-90.9090909090909,2,2,1,5,0,0
139756,-90.9090909090909,2,2,1,40,0,0
142891,-90.9090909090909,2,2,1,5,0,0
143029,-90.9090909090909,2,2,1,40,0,0
148756,-86.9565217391304,2,2,1,40,0,0
150392,-83.3333333333333,2,2,1,45,0,0
163483,-90.9090909090909,2,2,1,45,0,0
174938,-76.9230769230769,2,2,1,45,0,0
176574,-71.4285714285714,2,2,1,50,0,0
188847,-125,2,2,1,50,0,0
189392,-71.4285714285714,2,2,1,50,0,0
189597,-71.4285714285714,2,2,1,5,0,0
189665,-54.054054054054,2,2,1,65,0,1
190483,-57.1428571428571,2,2,1,65,0,1
196211,-54.054054054054,2,2,1,65,0,1
197029,-57.1428571428571,2,2,1,65,0,1
199483,-54.054054054054,2,2,1,65,0,1
200302,-57.1428571428571,2,2,1,65,0,1
202756,-54.054054054054,2,2,1,65,0,1
203574,-57.1428571428571,2,2,1,65,0,1
203983,-57.1428571428571,2,2,1,5,0,1
204120,-57.1428571428571,2,2,1,65,0,1
206438,-57.1428571428571,2,2,1,5,0,1
206574,-57.1428571428571,2,2,1,65,0,1
209302,-54.054054054054,2,2,1,65,0,1
210120,-57.1428571428571,2,2,1,65,0,1
212574,-54.054054054054,2,2,1,65,0,1
213393,-57.1428571428571,2,2,1,65,0,1
215847,-54.054054054054,2,2,1,65,0,1
216938,-57.1428571428571,2,2,1,65,0,1
219120,-54.054054054054,2,2,1,65,0,1
219938,-57.1428571428571,2,2,1,65,0,1
222393,-54.054054054054,2,2,1,65,0,1
223483,-57.1428571428571,2,2,1,65,0,1
225665,-54.054054054054,2,2,1,65,0,1
227302,818.185537206987,2,2,1,60,1,0
227302,-62.5,2,2,1,60,0,0
228120,-58.8235294117647,2,2,1,60,0,0
228529,-100,2,2,1,5,0,0
228665,-100,2,2,1,60,0,0
230574,-62.5,2,2,1,60,0,0
246938,-62.5,2,2,1,35,0,0
251847,-52.6315789473684,2,2,1,70,0,0
253483,-58.8235294117647,2,2,1,65,0,0
264665,-58.8235294117647,2,2,1,25,0,0
264938,818.185537206987,2,2,1,25,1,0
264938,-58.8235294117647,2,2,1,25,0,0
284683,971.65991902834,2,2,1,25,1,0
285654,1250,2,2,1,25,1,0

[Colours]
Combo1 : 116,116,203
Combo2 : 196,196,196
Combo3 : 148,148,148
Combo4 : 176,223,170
Combo5 : 126,203,116
Combo6 : 171,171,222

[HitObjects]
89,73,939,6,0,L|192:79,2,103.8,2|2|2,0:2|0:2|0:2,0:0:0:0:
190,190,3120,6,0,L|87:196,2,103.8,2|2|2,0:2|0:2|0:2,0:0:0:0:
77,313,5120,1,2,0:2:0:0:
95,326,5302,6,0,P|133:347|187:331,1,86.5000000000002,2|2,0:2|0:2,0:0:0:0:
303,196,5848,2,0,P|302:239|261:278,1,86.5000000000002,2|2,0:2|0:2,0:0:0:0:
119,200,6393,2,0,P|119:243|160:282,1,86.5000000000002,2|2,0:2|0:2,0:0:0:0:
327,322,6939,2,0,P|289:343|234:327,1,86.5000000000002,2|2,0:2|0:2,0:0:0:0:
211,170,7484,6,0,B|255:160|248:193|303:182,1,86.5000000000002,2|2,0:2|0:2,0:0:0:0:
365,163,8029,1,2,0:2:0:0:
219,72,8575,1,2,0:2:0:0:
212,79,9666,6,0,B|288:68|288:68|301:80|318:89,2,112.45,2|2|2,0:2|0:2|0:2,0:0:0:0:
433,198,11666,1,2,0:2:0:0:
418,178,11848,6,0,B|342:167|342:167|329:179|312:188,2,112.45,2|2|2,0:2|0:2|0:2,0:0:0:0:
267,278,13848,1,2,0:2:0:0:
250,294,14029,6,0,L|153:300,1,92.2666666666667,2|2,0:2|0:2,0:0:0:0:
83,281,14575,1,2,0:2:0:0:
56,244,14757,1,2,0:2:0:0:
62,200,14939,1,2,0:2:0:0:
98,173,15120,6,0,P|56:188|15:167,1,92.2666666666667,2|2,0:2|0:2,0:0:0:0:
64,102,15666,1,2,0:2:0:0:
218,158,16029,1,2,0:2:0:0:
198,186,16211,6,0,L|211:318,1,129.75,6|0,3:2|0:0,0:0:0:0:
277,359,17029,6,0,B|364:329|348:386|436:355,1,161.466666666667,10|0,0:2|0:0,0:0:0:0:
210,315,17847,6,0,P|135:334|74:264,1,173,6|0,3:2|3:2,0:0:0:0:
48,132,18665,1,10,0:2:0:0:
284,213,19210,1,2,3:2:0:0:
191,137,19483,6,0,B|150:178|150:178|178:302,1,173,2|0,3:2|3:2,0:0:0:0:
302,197,20301,1,10,0:2:0:0:
153,48,20847,1,0,3:2:0:0:
259,77,21119,6,0,B|362:99|362:99|401:80|385:38,1,173,2|2,3:2|3:2,0:0:0:0:
179,57,21937,1,10,0:2:0:0:
303,260,22347,5,8,0:2:0:0:
303,260,22483,1,2,3:2:0:0:
37,329,22756,5,2,3:2:0:0:
123,341,23028,1,6,3:2:0:0:
241,357,23301,1,6,3:2:0:0:
54,231,23574,5,2,3:2:0:0:
173,194,23847,1,2,3:2:0:0:
335,265,24119,1,2,3:2:0:0:
121,66,24392,6,0,B|162:101|171:159|171:159|166:107|190:89,1,173,6|0,3:2|3:2,0:0:0:0:
285,115,25210,1,10,0:2:0:0:
201,302,25619,5,8,0:2:0:0:
201,302,25756,1,0,3:2:0:0:
296,96,26028,5,2,3:2:0:0:
504,169,26301,1,6,3:2:0:0:
296,244,26574,1,6,3:2:0:0:
451,306,26847,5,10,0:2:0:0:
296,244,27119,1,2,3:2:0:0:
431,177,27392,1,2,3:2:0:0:
416,162,27528,1,8,0:2:0:0:
401,147,27665,6,0,B|329:153|329:153|314:170|314:170|235:177,1,173,6|0,3:2|3:2,0:0:0:0:
144,59,28483,6,0,B|230:51,1,86.5,10|0,0:2|0:0,0:0:0:0:
299,72,28892,1,8,0:2:0:0:
299,72,29028,1,0,3:2:0:0:
97,113,29301,6,0,B|66:184|125:152|98:243,1,129.75,2|8,3:2|0:2,0:0:0:0:
80,305,29847,1,0,3:2:0:0:
247,132,30119,5,10,0:2:0:0:
348,293,30392,1,0,3:2:0:0:
284,363,30665,1,0,3:2:0:0:
276,371,32301,1,2,0:2:0:0:
217,285,32574,6,0,P|271:263|335:292,1,126.866666666667,2|2,3:2|3:2,0:0:0:0:
357,319,33255,1,2,0:2:0:0:
357,319,33392,1,10,0:2:0:0:
284,93,33937,1,2,0:2:0:0:
353,187,34210,6,0,P|292:213|238:186,1,126.866666666667,2|0,3:2|3:2,0:0:0:0:
187,130,35028,1,10,0:2:0:0:
431,133,35574,1,2,0:2:0:0:
387,57,35846,6,0,B|299:44|299:44|288:61|271:75,1,126.866666666667,2|0,3:2|3:2,0:0:0:0:
231,136,36664,1,10,0:2:0:0:
68,47,37483,6,0,L|73:176,1,126.866666666667,2|2,3:2|3:2,0:0:0:0:
96,275,38301,1,10,0:2:0:0:
241,110,38846,1,2,0:2:0:0:
154,172,39119,6,0,P|195:149|251:165,1,95.15,2|2,3:2|0:2,0:0:0:0:
270,179,39664,1,2,3:2:0:0:
93,230,39937,1,10,0:2:0:0:
215,335,40483,1,2,0:2:0:0:
278,253,40755,6,0,B|311:284|311:284|300:334|296:367,1,126.866666666667,2|2,3:2|3:2,0:0:0:0:
215,196,41574,1,10,0:2:0:0:
401,115,42119,1,2,0:2:0:0:
330,164,42392,6,0,B|271:193|271:193|222:156,1,126.866666666667,2|0,3:2|3:2,0:0:0:0:
149,89,43210,6,0,B|100:52|100:52|41:81,1,126.866666666667,10|2,0:2|0:2,0:0:0:0:
86,160,44028,5,2,3:2:0:0:
20,216,44301,1,0,3:2:0:0:
57,294,44574,1,2,3:2:0:0:
265,287,44846,5,2,3:2:0:0:
209,221,45119,1,0,3:2:0:0:
131,258,45392,1,2,3:2:0:0:
363,223,45664,6,0,P|403:172|365:92,1,158.583333333333,2|0,3:2|0:0,0:0:0:0:
334,71,46483,1,10,0:2:0:0:
80,129,47301,6,0,B|157:111|134:168|207:147,1,126.866666666667,2|2,3:2|3:2,0:0:0:0:
234,134,47983,1,2,0:2:0:0:
234,134,48119,1,10,0:2:0:0:
79,217,48664,1,2,0:2:0:0:
46,31,48937,6,0,L|51:197,1,158.583333333333,2|0,3:2|0:0,0:0:0:0:
79,217,49755,1,10,0:2:0:0:
246,46,50574,6,0,B|207:98|207:98|245:150,1,126.866666666667,2|2,3:2|3:2,0:0:0:0:
313,233,51392,1,10,0:2:0:0:
447,94,51937,1,0,3:2:0:0:
404,29,52210,6,0,P|380:56|386:142,1,126.866666666667,2|2,3:2|3:2,0:0:0:0:
447,234,53028,1,10,0:2:0:0:
263,343,53574,1,2,0:2:0:0:
406,374,53846,6,0,B|380:344|339:338|339:338|376:341|389:324,1,126.866666666667,2|2,3:2|3:2,0:0:0:0:
466,259,54665,1,10,0:2:0:0:
236,350,55210,1,2,0:2:0:0:
335,244,55483,6,0,B|269:247|269:247|255:262|255:262|183:265,1,158.583333333333,2|0,3:2|0:0,0:0:0:0:
176,227,56301,6,0,B|247:223|247:223|261:208|261:208|327:205,1,158.583333333333,10|0,0:2|0:0,0:0:0:0:
362,202,57119,5,2,3:2:0:0:
317,122,57392,1,0,3:2:0:0:
194,141,57665,1,0,3:2:0:0:
26,80,57937,5,2,3:2:0:0:
71,160,58210,1,0,3:2:0:0:
194,141,58483,1,0,3:2:0:0:
55,193,58755,6,0,L|49:297,1,86.5,2|2,0:2|0:2,0:0:0:0:
46,356,59301,1,2,0:2:0:0:
46,356,59437,1,2,0:2:0:0:
46,356,59574,1,2,0:2:0:0:
239,306,60119,1,2,0:2:0:0:
170,251,60392,5,2,0:2:0:0:
313,362,60937,1,2,0:2:0:0:
382,307,61210,1,2,0:2:0:0:
170,251,61755,1,2,0:2:0:0:
308,206,62028,6,0,P|265:221|224:194,1,86.5,2|2,0:2|0:2,0:0:0:0:
176,144,62574,1,2,0:2:0:0:
176,144,62710,1,2,0:2:0:0:
176,144,62846,1,2,0:2:0:0:
257,121,63119,1,0,0:0:0:0:
374,169,63392,1,2,0:2:0:0:
485,69,63665,6,0,B|419:59|443:99|375:86,1,115.333333333333,2|0,0:2|0:0,0:0:0:0:
281,69,64483,2,0,L|221:71,1,57.6666666666667
149,128,65028,1,2,0:2:0:0:
205,285,65301,6,0,B|215:302|215:302|211:221,1,86.5,6|2,3:2|0:2,0:0:0:0:
209,164,65846,1,2,0:2:0:0:
209,164,65983,1,2,0:2:0:0:
209,164,66119,1,2,0:2:0:0:
48,352,66665,5,2,0:2:0:0:
215,302,66937,2,0,B|142:287|142:287|122:303|96:314,1,115.333333333333,2|2,3:2|0:2,0:0:0:0:
25,172,67755,1,2,0:2:0:0:
5,302,68028,1,2,0:2:0:0:
30,149,68301,1,2,0:2:0:0:
165,267,68574,6,0,L|101:271,1,57.6666666666667,2|2,3:2|3:2,0:0:0:0:
277,261,69119,1,2,0:2:0:0:
106,190,69392,6,0,L|164:187,1,57.6666666666667,2|2,0:2|0:2,0:0:0:0:
276,181,69937,1,2,0:2:0:0:
32,97,70210,6,0,P|83:93|111:49,1,108.125,6|8,3:2|0:2,0:0:0:0:
101,14,70755,1,0,3:2:0:0:
150,140,71028,5,8,0:2:0:0:
268,106,71301,1,0,3:2:0:0:
434,59,71574,1,0,3:2:0:0:
236,121,71846,6,0,B|208:183|240:236|240:236|238:217|248:196,1,161.466666666667,6|2,3:2|3:2,0:0:0:0:
259,334,72665,1,10,0:2:0:0:
10,169,73210,1,2,3:2:0:0:
152,224,73483,6,0,B|50:202|50:202|14:207|7:249,1,161.466666666667,2|2,3:2|3:2,0:0:0:0:
186,296,74301,1,10,0:2:0:0:
147,45,74846,1,2,3:2:0:0:
34,103,75119,6,0,B|104:91|83:137|149:126,1,121.1,2|2,3:2|0:2,0:0:0:0:
235,102,75665,1,2,3:2:0:0:
235,102,75801,1,2,0:2:0:0:
235,102,75937,2,0,B|277:102|307:73|307:73|337:103|381:102,1,161.466666666667,10|2,0:2|3:2,0:0:0:0:
297,169,76756,6,0,B|274:194|274:194|290:251,2,80.7333333333334,2|0|0,3:2|0:0|3:2,0:0:0:0:
452,211,77574,2,0,B|475:236|475:236|459:293,1,80.7333333333334,8|0,0:2|0:0,0:0:0:0:
413,333,77983,1,8,0:2:0:0:
359,334,78119,1,10,0:2:0:0:
305,335,78256,1,8,0:2:0:0:
251,336,78392,6,0,B|231:356|231:377|231:377|203:324|237:261,1,161.466666666667,6|2,3:2|3:2,0:0:0:0:
289,108,79210,1,10,0:2:0:0:
305,335,79756,1,2,3:2:0:0:
97,283,80028,6,0,B|170:249|170:249|255:294,1,161.466666666667,2|2,3:2|3:2,0:0:0:0:
29,317,80846,1,10,0:2:0:0:
185,161,81256,1,8,0:2:0:0:
185,161,81392,1,2,3:2:0:0:
34,67,81665,6,0,B|2:155|77:133|34:233,1,161.466666666667,2|2,3:2|3:2,0:0:0:0:
185,161,82483,6,0,B|219:206|219:206|195:314,1,161.466666666667,2|2,3:2|3:2,0:0:0:0:
63,363,83301,5,2,0:2:0:0:
196,308,83846,1,2,0:2:0:0:
52,232,84119,5,2,0:2:0:0:
60,267,84256,1,2,0:2:0:0:
91,299,84392,1,2,0:2:0:0:
146,299,84528,1,2,0:2:0:0:
188,248,84665,1,2,0:2:0:0:
160,178,84801,1,2,0:2:0:0:
74,175,84937,6,0,B|30:228|31:294|31:294|25:239|-10:209,1,213.366666666667,6|0,3:2|3:2,0:0:0:0:
137,113,85756,2,0,B|232:99|232:99|247:122|273:138,1,151.375,10|0,0:2|0:0,0:0:0:0:
328,181,86301,1,2,3:2:0:0:
127,297,86574,6,0,P|137:326|153:272,1,151.375,2|0,3:2|0:0,0:0:0:0:
100,237,87119,1,2,3:2:0:0:
266,338,87392,2,0,B|350:375|350:375|418:339,1,151.375,10|0,0:2|0:0,0:0:0:0:
464,313,87937,1,2,3:2:0:0:
338,100,88210,6,0,L|345:305,1,201.833333333333,2|0,3:2|3:2,0:0:0:0:
233,151,89028,5,8,0:2:0:0:
219,263,89301,1,0,0:0:0:0:
143,291,89574,1,0,3:2:0:0:
120,154,89846,5,2,3:2:0:0:
320,160,90119,1,6,3:2:0:0:
156,265,90392,1,6,3:2:0:0:
220,40,90665,5,2,3:2:0:0:
289,316,90937,1,2,3:2:0:0:
85,146,91210,1,2,3:2:0:0:
386,92,91483,6,0,B|296:76|329:131|230:115,1,160.025,6|8,3:2|0:2,0:0:0:0:
163,101,92028,1,0,3:2:0:0:
358,155,92301,6,0,B|374:257,1,100.916666666667,10|0,0:2|0:0,0:0:0:0:
345,324,92710,1,8,0:2:0:0:
345,324,92847,1,0,3:2:0:0:
152,108,93119,5,2,3:2:0:0:
320,153,93392,1,4,3:2:0:0:
507,206,93665,1,4,3:2:0:0:
320,153,93937,5,2,3:2:0:0:
252,324,94210,1,4,3:2:0:0:
444,371,94483,1,2,3:2:0:0:
427,355,94619,1,0,3:2:0:0:
409,338,94756,6,0,B|446:341|459:306|459:306|422:161,1,213.366666666667,6|2,3:2|3:2,0:0:0:0:
203,263,95574,2,0,P|247:281|299:259,1,100.916666666667,10|0,0:2|0:0,0:0:0:0:
343,218,95983,1,8,0:2:0:0:
343,218,96119,1,2,3:2:0:0:
137,85,96392,6,0,B|109:114|109:114|123:180,1,100.916666666667,6|0,3:2|0:0,0:0:0:0:
134,240,96801,1,8,0:2:0:0:
134,240,96937,1,0,3:2:0:0:
210,41,97210,1,8,0:2:0:0:
370,55,97483,1,0,3:2:0:0:
187,38,97756,1,0,3:2:0:0:
464,66,98028,6,0,P|398:136|292:108,1,213.366666666667,6|0,3:2|3:2,0:0:0:0:
177,9,98847,2,0,P|211:46|180:140,1,151.375,10|0,0:2|0:0,0:0:0:0:
127,182,99392,1,2,3:2:0:0:
337,198,99665,6,0,B|248:177|268:232|188:214,1,151.375,2|0,3:2|0:0,0:0:0:0:
127,182,100210,1,2,3:2:0:0:
235,356,100483,2,0,B|298:365|298:365|378:307,1,151.375,10|0,0:2|0:0,0:0:0:0:
421,260,101028,1,2,3:2:0:0:
314,95,101301,6,0,B|360:186|360:186|407:88,1,201.833333333333,2|0,3:2|3:2,0:0:0:0:
287,31,102119,5,8,0:2:0:0:
186,81,102392,1,0,0:0:0:0:
186,81,102528,1,0,0:0:0:0:
186,81,102665,1,0,3:2:0:0:
306,273,102937,5,2,3:2:0:0:
255,173,103210,1,6,3:2:0:0:
206,59,103483,1,6,3:2:0:0:
78,316,103756,5,2,3:2:0:0:
43,171,104028,1,2,3:2:0:0:
94,172,104165,1,0,3:2:0:0:
144,173,104301,1,2,3:2:0:0:
195,174,104437,1,0,3:2:0:0:
245,175,104574,6,0,B|231:199|201:206|167:182|165:150|175:119|198:91,1,160.025,6|8,3:2|0:2,0:0:0:0:
244,11,105119,1,0,3:2:0:0:
401,149,105392,6,0,L|392:257,1,100.916666666667,10|0,0:2|0:0,0:0:0:0:
359,308,105801,1,8,0:2:0:0:
359,308,105937,1,0,3:2:0:0:
102,83,106210,5,2,3:2:0:0:
245,33,106483,1,4,3:2:0:0:
388,83,106756,1,4,3:2:0:0:
474,118,107028,5,2,3:2:0:0:
428,304,107301,1,0,3:2:0:0:
428,276,107437,1,0,3:2:0:0:
428,248,107574,1,2,3:2:0:0:
151,327,107847,6,0,B|178:350|178:350|262:329,1,106.683333333333,6|0,3:2|0:0,0:0:0:0:
311,309,108256,1,8,0:2:0:0:
311,309,108392,1,2,3:2:0:0:
178,120,108665,6,0,P|152:164|176:215,1,100.916666666667,10|0,0:2|0:0,0:0:0:0:
210,264,109074,1,8,0:2:0:0:
210,264,109210,1,2,3:2:0:0:
296,79,109483,6,0,L|292:189,1,100.916666666667,2|0,3:2|0:0,0:0:0:0:
352,247,109892,1,8,0:2:0:0:
313,278,110028,1,0,3:2:0:0:
264,277,110165,1,0,3:2:0:0:
227,244,110301,1,10,0:2:0:0:
437,170,110574,5,0,3:2:0:0:
435,220,110710,1,0,3:2:0:0:
433,260,110847,1,2,3:2:0:0:
431,290,110983,1,0,3:2:0:0:
429,315,111119,6,0,B|297:283|297:283|274:314|235:333,1,213.366666666667,6|2,3:2|3:2,0:0:0:0:
115,145,111937,6,0,P|147:184|242:165,1,151.375,10|0,0:2|0:0,0:0:0:0:
291,117,112483,1,2,3:2:0:0:
459,260,112756,5,2,3:2:0:0:
308,136,113028,1,4,3:2:0:0:
478,279,113301,1,6,3:2:0:0:
318,112,113574,5,2,3:2:0:0:
249,271,113847,1,0,3:2:0:0:
308,136,114119,1,2,3:2:0:0:
160,319,114392,6,0,B|148:327|142:341|142:341|152:262,1,106.683333333333,6|0,3:2|0:0,0:0:0:0:
165,192,114801,1,8,0:2:0:0:
165,192,114938,1,2,3:2:0:0:
24,348,115210,6,0,B|37:247,1,100.916666666667,10|0,0:2|0:0,0:0:0:0:
48,177,115619,1,8,0:2:0:0:
48,177,115756,1,0,3:2:0:0:
125,64,116028,6,0,P|88:100|157:86,1,151.375,6|0,3:2|0:0,0:0:0:0:
205,21,116574,1,0,3:2:0:0:
202,37,116710,1,0,3:2:0:0:
199,54,116847,1,8,0:2:0:0:
315,59,117119,5,0,3:2:0:0:
308,108,117256,1,0,3:2:0:0:
303,148,117392,1,2,3:2:0:0:
298,178,117528,1,0,3:2:0:0:
294,202,117665,6,0,B|391:189|349:245|450:231,1,160.025,6|0,3:2|0:0,0:0:0:0:
512,213,118210,1,2,3:2:0:0:
321,280,118483,5,10,0:2:0:0:
435,314,118756,2,0,L|428:258,1,50.4583333333334,2|8,0:2|0:2,0:0:0:0:
503,335,119028,1,2,3:2:0:0:
297,271,119301,5,2,3:2:0:0:
156,338,119574,1,4,3:2:0:0:
15,271,119847,1,6,3:2:0:0:
19,162,120119,5,2,3:2:0:0:
160,95,120392,1,0,3:2:0:0:
301,162,120665,1,2,3:2:0:0:
111,41,120938,6,0,P|159:21|212:44,1,106.683333333333,6|0,3:2|0:0,0:0:0:0:
259,88,121347,1,8,0:2:0:0:
259,88,121483,1,0,3:2:0:0:
170,272,121756,5,2,3:2:0:0:
405,170,122028,1,0,3:2:0:0:
155,109,122301,1,0,3:2:0:0:
286,236,122574,5,2,0:2:0:0:
278,244,123119,6,0,L|279:280,3,25.2291669072708,8|8|8|8,0:2|0:2|0:2|0:0,0:0:0:0:
267,293,123392,1,10,0:2:0:0:
254,308,123528,1,2,3:2:0:0:
233,330,123665,1,2,0:2:0:0:
195,344,123801,1,2,0:2:0:0:
144,339,123938,1,2,3:2:0:0:
95,301,124074,1,2,3:2:0:0:
76,239,124210,6,0,B|94:261|100:282|100:282|90:158,1,173,6|0,3:2|3:2,0:0:0:0:
78,19,125028,1,10,0:2:0:0:
267,73,125438,1,8,0:2:0:0:
267,73,125574,1,2,3:2:0:0:
116,160,125847,6,0,B|193:151|155:199|240:193,1,129.75,2|8,3:2|0:2,0:0:0:0:
300,179,126392,1,0,3:2:0:0:
129,229,126665,2,0,P|108:274|128:318,1,86.5,10|0,0:2|0:0,0:0:0:0:
157,365,127074,1,8,0:2:0:0:
157,365,127210,1,0,3:2:0:0:
386,271,127483,6,0,P|336:305|270:275,1,129.75,2|8,3:2|0:2,0:0:0:0:
231,233,128028,1,2,3:2:0:0:
363,137,128301,6,0,L|460:139,1,86.5,10|0,0:2|0:0,0:0:0:0:
512,168,128710,1,8,0:2:0:0:
512,168,128847,1,2,3:2:0:0:
292,245,129119,5,2,3:2:0:0:
357,117,129392,1,6,3:2:0:0:
409,258,129665,1,6,3:2:0:0:
247,171,129938,5,2,3:2:0:0:
467,187,130210,1,2,3:2:0:0:
225,169,130483,1,2,3:2:0:0:
424,283,130756,6,0,B|370:287|370:287|359:299|359:299|301:305,1,129.75,6|8,3:2|0:2,0:0:0:0:
234,284,131301,1,0,3:2:0:0:
274,82,131574,6,0,B|294:109|294:109|274:176,1,86.5,10|0,0:2|0:0,0:0:0:0:
255,224,131983,1,8,0:2:0:0:
255,224,132119,1,2,3:2:0:0:
127,69,132392,5,2,3:2:0:0:
95,239,132665,1,6,3:2:0:0:
133,49,132938,1,6,3:2:0:0:
298,229,133210,5,10,0:2:0:0:
193,263,133483,1,2,3:2:0:0:
80,306,133756,1,2,3:2:0:0:
73,320,133892,1,8,0:2:0:0:
66,334,134029,6,0,B|168:322|117:385|229:373,1,173,6|0,3:2|3:2,0:0:0:0:
328,157,134847,6,0,P|280:135|216:174,1,129.75,10|8,0:2|0:2,0:0:0:0:
194,234,135392,1,0,3:2:0:0:
308,344,135665,6,0,P|343:359|391:330,1,86.5,2|0,3:2|0:0,0:0:0:0:
428,287,136074,1,8,0:2:0:0:
428,287,136210,1,0,3:2:0:0:
378,92,136483,5,14,0:2:0:0:
238,130,136756,1,0,3:2:0:0:
140,156,137029,1,2,3:2:0:0:
71,174,137301,6,0,L|77:310,1,126.866666666667,2|2,0:2|0:2,0:0:0:0:
133,370,138119,1,2,0:2:0:0:
204,194,138665,1,2,0:2:0:0:
139,268,138938,6,0,B|152:237|187:232|187:232|300:250,1,158.583333333333,2|0,0:2|0:0,0:0:0:0:
315,256,139756,1,2,0:2:0:0:
329,62,140301,1,2,0:2:0:0:
382,141,140574,6,0,P|334:168|267:132,1,126.866666666667,2|2,0:2|0:2,0:0:0:0:
217,53,141392,2,0,L|150:60,2,63.4333333333333,2|2|2,0:2|0:2|0:2,0:0:0:0:
96,139,142210,6,0,B|83:191|107:248|107:248|93:229|67:220,1,158.583333333333,2|0,0:2|0:0,0:0:0:0:
28,211,143029,1,2,0:2:0:0:
140,338,143574,1,2,0:2:0:0:
220,239,143847,6,0,B|266:206|266:206|342:232,1,126.866666666667,2|2,0:2|0:2,0:0:0:0:
505,227,144665,2,0,B|448:268|448:268|394:250,1,126.866666666667,2|2,0:2|0:2,0:0:0:0:
430,67,145483,6,0,L|440:211,1,126.866666666667,2|2,0:2|0:2,0:0:0:0:
350,111,146301,1,2,0:2:0:0:
220,239,146847,1,2,0:2:0:0:
167,152,147119,6,0,B|138:190|138:190|152:284,1,126.866666666667,2|2,0:2|0:2,0:0:0:0:
315,335,147938,5,2,0:2:0:0:
237,311,148210,1,2,0:2:0:0:
163,344,148483,1,2,0:2:0:0:
325,147,148756,6,0,L|321:217,1,66.3166666666667,2|0,3:2|3:2,0:0:0:0:
251,75,149301,1,2,3:2:0:0:
244,146,149438,6,0,L|241:168,2,33.1583333333333,0|10|0,3:2|0:2|0:0,0:0:0:0:
68,209,149847,1,0,3:2:0:0:
158,326,150119,1,0,3:2:0:0:
168,336,150256,1,0,3:2:0:0:
178,347,150392,6,0,B|221:317|221:317|270:336,1,103.8,6|8,3:2|0:1,0:0:0:0:
304,354,150938,1,0,3:2:0:0:
361,214,151210,2,0,B|378:224|383:250|383:250|380:219|403:193,1,103.8,10|8,0:2|0:1,0:0:0:0:
436,133,151756,1,0,3:2:0:0:
436,133,151892,1,8,0:1:0:0:
436,133,152029,6,0,P|392:113|338:132,1,103.8,2|8,3:2|0:1,0:0:0:0:
308,153,152574,1,0,3:2:0:0:
243,24,152847,2,0,L|239:108,1,69.2,10|0,0:2|0:0,0:0:0:0:
215,123,153256,1,8,0:2:0:0:
213,157,153392,1,8,0:2:0:0:
211,192,153529,1,8,0:2:0:0:
210,226,153665,6,0,B|205:205|191:198|191:198|122:201,1,103.8,2|8,3:2|0:1,0:0:0:0:
87,204,154210,1,0,3:2:0:0:
158,342,154483,6,0,P|210:357|255:324,1,103.8,8|8,0:2|0:1,0:0:0:0:
274,298,155029,1,0,3:2:0:0:
215,123,155301,6,0,P|201:158|217:195,1,69.2,2|0,3:2|0:0,0:0:0:0:
227,218,155710,1,8,0:1:0:0:
227,218,155847,2,0,L|269:220,1,34.6,0|8,3:2|0:1,0:0:0:0:
423,179,156120,5,10,0:2:0:0:
396,157,156256,1,8,0:2:0:0:
363,146,156392,1,8,0:2:0:0:
329,148,156529,1,8,0:2:0:0:
298,163,156665,1,10,0:2:0:0:
274,188,156801,1,10,0:2:0:0:
261,219,156938,6,0,B|244:251|244:251|258:317,1,103.8,2|8,3:2|0:1,0:0:0:0:
279,348,157483,1,0,3:2:0:0:
342,221,157756,1,10,0:2:0:0:
486,368,158301,2,0,L|491:320,1,34.6,2|8,3:2|0:1,0:0:0:0:
458,256,158574,6,0,B|368:238|368:238|349:258|323:271,1,138.4,2|2,3:2|3:2,0:0:0:0:
235,324,159392,1,10,0:2:0:0:
143,167,159938,1,10,0:2:0:0:
150,183,160074,1,8,0:2:0:0:
157,199,160210,6,0,P|191:174|251:187,1,103.8,2|8,3:2|0:1,0:0:0:0:
274,210,160756,1,0,3:2:0:0:
100,273,161029,5,8,0:2:0:0:
45,147,161301,1,0,0:0:0:0:
91,51,161574,1,0,0:0:0:0:
136,107,161710,6,0,L|133:137,2,17.2999994720459,0|0|8,3:2|3:2|0:2,0:0:0:0:
217,29,162120,1,0,3:2:0:0:
312,85,162392,1,0,3:2:0:0:
251,171,162665,5,4,3:3:0:0:
311,236,162938,1,0,3:2:0:0:
289,277,163210,1,2,3:2:0:0:
204,326,163483,6,0,B|132:334,1,63.4333333333333,6|0,3:2|3:2,0:0:0:0:
71,333,163892,1,2,0:2:0:0:
71,333,164029,1,2,0:2:0:0:
71,333,164165,1,2,0:2:0:0:
71,333,164301,1,2,0:2:0:0:
84,134,164847,1,2,0:2:0:0:
128,270,165120,6,0,L|128:207,1,63.4333333333333,2|0,3:2|3:2,0:0:0:0:
84,134,165665,1,2,0:2:0:0:
35,268,165938,1,2,0:2:0:0:
171,125,166483,1,2,0:2:0:0:
128,206,166756,6,0,P|156:217|191:206,1,63.4333333333333,2|0,3:2|3:2,0:0:0:0:
246,170,167165,1,2,0:2:0:0:
274,156,167301,1,2,0:2:0:0:
305,156,167438,1,2,0:2:0:0:
333,170,167574,1,2,0:2:0:0:
231,291,168120,1,2,0:2:0:0:
333,170,168392,6,0,L|338:236,2,63.4333333333333,2|0|0,3:2|3:2|0:0,0:0:0:0:
328,133,169074,1,0,3:2:0:0:
328,133,169210,2,0,B|245:109|245:109|230:122|207:131,1,126.866666666667,8|2,0:2|0:2,0:0:0:0:
98,24,170029,6,0,P|107:56|93:84,1,63.4333333333333,2|0,3:2|3:2,0:0:0:0:
33,184,170574,1,2,0:2:0:0:
88,104,170847,2,0,L|221:109,1,126.866666666667,2|2,0:2|0:2,0:0:0:0:
321,36,171665,6,0,P|329:65|318:97,1,63.4333333333333,2|0,3:2|3:2,0:0:0:0:
249,223,172210,1,2,0:2:0:0:
419,186,172483,2,0,P|362:161|308:204,1,126.866666666667,2|2,0:2|0:2,0:0:0:0:
483,271,173301,5,2,3:2:0:0:
364,250,173574,1,2,3:2:0:0:
300,317,173847,1,2,0:2:0:0:
476,198,174120,5,2,0:2:0:0:
357,177,174392,1,2,0:2:0:0:
293,244,174665,1,2,0:2:0:0:
382,74,174938,6,0,L|375:160,1,74.9666666666667,6|0,3:2|0:0,0:0:0:0:
357,177,175347,1,8,0:2:0:0:
357,177,175483,1,0,3:2:0:0:
149,93,175756,5,8,0:2:0:0:
286,143,176029,1,0,3:2:0:0:
124,81,176301,1,8,0:2:0:0:
209,252,176574,6,0,B|196:241|184:215|184:215|191:333,1,161.466666666667,6|2,3:2|3:2,0:0:0:0:
388,149,177392,2,0,P|345:137|310:157,1,80.7333333333334,10|0,0:2|0:0,0:0:0:0:
260,197,177801,1,8,0:2:0:0:
260,197,177938,1,2,3:2:0:0:
377,325,178211,6,0,B|396:334|402:366|402:366|398:328|423:297,1,121.1,2|0,3:2|0:0,0:0:0:0:
457,236,178756,1,2,3:2:0:0:
406,100,179029,2,0,L|236:106,1,161.466666666667,10|2,0:2|3:2,0:0:0:0:
118,33,179847,6,0,P|144:80|116:139,1,121.1,2|2,3:2|0:2,0:0:0:0:
65,185,180392,5,2,3:2:0:0:
65,185,180529,1,2,0:2:0:0:
65,185,180665,2,0,B|51:161|21:154|-13:178|-15:210|-5:241|18:269,1,161.466666666667,10|2,0:2|3:2,0:0:0:0:
163,179,181483,6,0,L|249:173,1,80.7333333333334,2|0,3:2|0:0,0:0:0:0:
313,197,181892,1,8,0:2:0:0:
313,197,182029,2,0,L|356:194,1,40.3666666666667,0|0,3:2|0:0,0:0:0:0:
192,274,182301,6,0,B|154:296|154:296|189:311,1,80.7333333333334,8|0,0:2|0:0,0:0:0:0:
279,334,182711,1,8,0:2:0:0:
332,328,182847,1,10,0:2:0:0:
386,322,182983,1,8,0:2:0:0:
440,317,183120,6,0,B|403:320|390:285|390:285|413:185,1,161.466666666667,6|2,3:2|3:2,0:0:0:0:
257,107,183938,2,0,B|329:96|307:135|379:126,1,121.1,10|8,0:2|0:2,0:0:0:0:
439,106,184483,1,2,3:2:0:0:
256,216,184756,6,0,B|275:197|276:175|276:175|302:229|265:292,1,161.466666666667,2|2,3:2|3:2,0:0:0:0:
113,369,185574,1,10,0:2:0:0:
2,147,186120,1,2,3:2:0:0:
2,147,186256,1,0,0:0:0:0:
2,147,186392,6,0,B|72:133|72:133|95:145|95:145|162:131,1,161.466666666667,2|2,3:2|3:2,0:0:0:0:
257,107,187211,2,0,B|350:86|350:86|365:111|404:130,1,161.466666666667,2|2,3:2|3:2,0:0:0:0:
488,191,188029,5,2,0:2:0:0:
289,240,188574,1,2,0:2:0:0:
289,240,188847,2,0,L|347:232,1,46.1333333333333,2|2,0:2|0:2,0:0:0:0:
233,294,189392,2,0,L|165:303,1,60.5499981521607,2|0,0:2|0:0,0:0:0:0:
69,184,189665,6,0,B|87:152|126:143|170:174|172:216|159:256|130:293,1,213.366666666667,6|0,3:2|3:2,0:0:0:0:
57,203,190483,2,0,B|34:158|34:158|62:103,1,100.916666666667,10|0,0:2|0:0,0:0:0:0:
90,55,190892,1,8,0:2:0:0:
90,55,191029,1,2,3:2:0:0:
212,184,191301,6,0,B|295:171|266:228|355:211,1,151.375,2|8,3:2|0:2,0:0:0:0:
425,192,191847,1,2,3:2:0:0:
383,21,192120,2,0,P|358:60|380:113,1,100.916666666667,10|0,0:2|0:0,0:0:0:0:
415,167,192529,1,8,0:2:0:0:
415,167,192665,1,2,3:2:0:0:
284,63,192938,6,0,B|228:37|228:37|94:85,1,201.833333333333,2|0,3:2|3:2,0:0:0:0:
58,277,193756,6,0,P|97:303|156:285,1,100.916666666667,8|0,0:2|0:0,0:0:0:0:
209,251,194165,1,8,0:2:0:0:
209,251,194302,1,0,3:2:0:0:
96,84,194574,5,2,3:2:0:0:
190,225,194847,1,6,3:2:0:0:
84,67,195120,1,6,3:2:0:0:
58,277,195392,5,2,3:2:0:0:
221,61,195665,1,2,3:2:0:0:
47,294,195938,1,2,3:2:0:0:
250,135,196211,6,0,B|382:103|382:103|405:134|444:153,1,213.366666666667,6|0,3:2|3:2,0:0:0:0:
325,325,197029,6,0,P|304:276|328:231,1,100.916666666667,10|0,0:2|0:0,0:0:0:0:
363,184,197438,1,8,0:2:0:0:
363,184,197574,1,0,3:2:0:0:
194,275,197847,5,2,3:2:0:0:
347,74,198120,1,4,3:2:0:0:
333,332,198392,1,4,3:2:0:0:
202,118,198665,5,2,3:2:0:0:
444,210,198938,1,4,3:2:0:0:
194,275,199211,1,2,3:2:0:0:
220,266,199347,1,0,3:2:0:0:
246,257,199483,6,0,B|125:232|154:316|41:297,1,213.366666666667,6|2,3:2|3:2,0:0:0:0:
81,69,200302,6,0,B|102:100|102:100|89:168,1,100.916666666667,10|0,0:2|0:0,0:0:0:0:
76,231,200711,1,8,0:2:0:0:
76,231,200847,1,2,3:2:0:0:
220,107,201120,6,0,P|270:99|309:127,1,100.916666666667,6|0,3:2|0:0,0:0:0:0:
345,188,201529,1,8,0:2:0:0:
345,188,201665,1,0,3:2:0:0:
280,12,201938,1,8,0:2:0:0:
252,167,202211,5,8,0:2:0:0:
240,215,202347,1,0,3:2:0:0:
232,254,202483,1,0,3:2:0:0:
226,284,202620,1,0,3:2:0:0:
219,314,202756,6,0,B|325:297|325:297|341:324|371:341,1,160.025,6|8,3:2|0:2,0:0:0:0:
419,375,203302,1,0,3:2:0:0:
170,364,203574,2,0,B|142:329|142:329|165:220,1,151.375,10|0,0:2|0:0,0:0:0:0:
177,155,204120,1,2,3:2:0:0:
405,112,204392,6,0,P|353:97|309:124,1,100.916666666667,2|0,3:2|0:0,0:0:0:0:
269,169,204802,1,8,0:2:0:0:
269,169,204938,1,2,3:2:0:0:
376,305,205211,2,0,P|428:320|472:293,1,100.916666666667,10|0,0:2|0:0,0:0:0:0:
512,248,205620,1,8,0:2:0:0:
512,248,205756,1,2,3:2:0:0:
212,184,206029,6,0,B|295:171|266:228|355:211,1,151.375,2|0,3:2|0:0,0:0:0:0:
420,185,206574,1,0,3:2:0:0:
276,51,206847,6,0,P|199:52|153:160,1,201.833333333333,8|0,0:2|3:2,0:0:0:0:
438,264,207665,5,2,3:2:0:0:
337,254,207938,1,6,3:2:0:0:
180,240,208211,1,6,3:2:0:0:
419,371,208483,5,2,3:2:0:0:
337,254,208756,1,2,3:2:0:0:
206,75,209029,1,2,3:2:0:0:
216,95,209165,1,0,3:2:0:0:
226,115,209302,6,0,B|258:129|268:155|268:155|276:77|203:17,1,213.366666666667,6|0,3:2|3:2,0:0:0:0:
157,278,210120,6,0,B|144:300|114:307|80:283|78:251|88:220|111:192,1,151.375,10|8,0:2|0:2,0:0:0:0:
136,141,210665,1,0,3:2:0:0:
430,190,210938,5,2,3:2:0:0:
215,228,211211,1,4,3:2:0:0:
146,159,211483,1,4,3:2:0:0:
27,21,211756,5,2,3:2:0:0:
19,69,211892,1,0,3:2:0:0:
14,109,212029,1,0,3:2:0:0:
9,139,212165,1,0,3:2:0:0:
6,163,212302,1,2,3:2:0:0:
300,259,212574,6,0,P|240:244|169:313,1,160.025,6|8,3:2|0:2,0:0:0:0:
148,371,213120,1,2,3:2:0:0:
299,259,213393,6,0,P|372:246|426:295,1,151.375,10|8,0:2|0:2,0:0:0:0:
454,370,213938,1,2,3:2:0:0:
356,140,214211,6,0,B|310:143|310:143|301:151|301:151|254:155,1,100.916666666667,6|0,3:2|0:0,0:0:0:0:
154,135,214620,1,8,0:2:0:0:
184,174,214756,1,0,3:2:0:0:
184,223,214893,1,0,3:2:0:0:
151,260,215029,1,10,0:2:0:0:
378,255,215302,5,0,3:2:0:0:
335,260,215438,1,8,0:2:0:0:
293,265,215574,1,0,3:2:0:0:
250,270,215711,1,8,0:2:0:0:
207,275,215847,6,0,B|225:307|264:316|308:285|310:243|297:203|268:166,1,213.366666666667,6|2,3:2|3:2,0:0:0:0:
200,9,216665,5,10,0:2:0:0:
126,137,216938,2,0,L|133:71,1,50.4583333333334,2|8,0:2|0:2,0:0:0:0:
44,230,217211,1,2,3:2:0:0:
232,200,217483,5,2,3:2:0:0:
99,341,217756,1,4,3:2:0:0:
31,155,218029,1,6,3:2:0:0:
252,207,218302,5,2,3:2:0:0:
119,348,218574,1,0,3:2:0:0:
51,162,218847,1,2,3:2:0:0:
272,214,219120,6,0,B|189:201|218:258|120:240,1,160.025,6|0,3:2|0:0,0:0:0:0:
44,230,219665,1,0,3:2:0:0:
198,5,219938,2,0,P|238:39|215:125,1,151.375,10|8,0:2|0:2,0:0:0:0:
158,171,220483,1,0,3:2:0:0:
320,74,220756,6,0,B|391:47|391:47|468:90,1,151.375,2|8,3:2|0:2,0:0:0:0:
512,129,221302,1,0,3:2:0:0:
288,158,221574,1,8,0:2:0:0:
453,177,221847,1,0,3:2:0:0:
433,187,221983,1,0,3:2:0:0:
413,197,222120,1,2,3:2:0:0:
511,323,222393,6,0,P|458:268|379:283,1,160.025,6|0,3:2|0:0,0:0:0:0:
330,331,222938,1,2,3:2:0:0:
281,94,223211,5,10,0:2:0:0:
413,197,223483,2,0,L|362:207,1,50.4583333333334,2|8,0:2|0:2,0:0:0:0:
227,235,223756,1,2,3:2:0:0:
491,175,224029,5,2,3:2:0:0:
341,146,224302,1,4,3:2:0:0:
204,120,224574,1,6,3:2:0:0:
461,254,224847,5,2,3:2:0:0:
343,232,225120,1,0,3:2:0:0:
246,214,225393,1,2,3:2:0:0:
457,333,225665,6,0,P|399:331|449:367,1,160.025,6|8,3:2|0:2,0:0:0:0:
509,290,226211,1,0,3:2:0:0:
325,146,226483,1,10,0:2:0:0:
215,285,226756,5,0,3:2:0:0:
265,285,226893,1,0,3:2:0:0:
301,318,227029,1,0,3:2:0:0:
324,274,227165,1,0,3:2:0:0:
370,258,227302,6,0,B|385:270|394:298|394:298|368:154,1,184.533333333333,6|0,3:2|3:2,0:0:0:0:
96,50,228120,6,0,B|176:40|154:91|237:77,1,147.050002804756,12|0,0:2|0:0,0:0:0:0:
300,60,228665,1,2,3:2:0:0:
120,130,228938,5,6,3:2:0:0:
15,250,229211,1,2,0:2:0:0:
179,301,229483,1,2,3:2:0:0:
126,113,229756,5,14,0:2:0:0:
5,265,230029,1,2,0:2:0:0:
15,250,230165,1,8,0:2:0:0:
25,235,230302,1,2,3:2:0:0:
102,348,230574,6,0,P|182:377|270:320,1,184.533333333333,6|0,3:2|3:2,0:0:0:0:
239,170,231392,5,12,0:2:0:0:
179,301,231665,1,2,3:2:0:0:
98,227,231938,1,2,3:2:0:0:
294,325,232211,6,0,B|307:332|318:355|318:355|309:256,1,138.4,6|8,3:2|0:2,0:0:0:0:
302,182,232756,1,0,3:2:0:0:
495,182,233029,6,0,B|455:186|432:158|432:158|415:189|375:193,1,138.4,6|8,3:2|0:2,0:0:0:0:
302,182,233574,1,0,3:2:0:0:
279,178,233711,1,0,3:2:0:0:
256,174,233847,6,0,B|271:146|305:138|342:165|344:201|333:235|308:267,1,184.533333333333,6|0,3:2|3:2,0:0:0:0:
116,285,234665,6,0,P|157:272|198:299,1,92.2666666666667,6|0,3:2|0:0,0:0:0:0:
231,358,235074,1,8,0:2:0:0:
231,358,235211,1,0,3:2:0:0:
98,161,235483,6,0,P|129:190|126:239,1,92.2666666666667,6|0,3:2|0:0,0:0:0:0:
92,297,235892,1,8,0:2:0:0:
92,297,236029,1,0,3:2:0:0:
206,79,236302,6,0,P|196:121|152:143,1,92.2666666666667,6|0,3:2|0:0,0:0:0:0:
85,141,236711,1,8,0:2:0:0:
85,141,236847,1,0,3:2:0:0:
290,44,237120,5,6,3:2:0:0:
370,158,237392,1,0,3:2:0:0:
367,174,237529,1,0,3:2:0:0:
364,191,237665,1,0,3:2:0:0:
262,314,237938,5,6,3:2:0:0:
364,191,238211,2,0,L|412:197,1,46.1333333333333,2|0,3:2|3:2,0:0:0:0:
483,315,238483,1,2,3:2:0:0:
275,178,238756,6,0,B|190:168|190:168|177:190|154:205,1,138.4,6|8,3:2|0:2,0:0:0:0:
92,251,239302,1,0,3:2:0:0:
262,23,239574,5,2,3:2:0:0:
324,99,239847,1,2,3:2:0:0:
212,212,240120,1,2,3:2:0:0:
435,367,240392,6,0,L|378:360,1,46.1333333333333,6|0,3:2|0:0,0:0:0:0:
446,224,240665,2,0,L|389:217,1,46.1333333333333,4|0,3:2|0:0,0:0:0:0:
457,81,240938,2,0,L|411:75,1,46.1333333333333,4|0,3:2|0:0,0:0:0:0:
315,248,241211,5,0,3:2:0:0:
255,119,241483,1,2,3:2:0:0:
324,265,241756,1,2,3:2:0:0:
43,43,242029,6,0,L|38:89,1,46.1333333333333,6|0,3:2|0:0,0:0:0:0:
186,54,242302,2,0,L|181:100,1,46.1333333333333,6|0,3:2|0:0,0:0:0:0:
330,65,242574,2,0,L|324:111,1,46.1333333333333,6|0,3:2|0:0,0:0:0:0:
128,174,242847,5,2,3:2:0:0:
322,206,243120,1,2,3:2:0:0:
107,170,243392,1,2,3:2:0:0:
333,355,243665,6,0,L|329:303,1,46.1333333333333,6|0,3:2|0:0,0:0:0:0:
304,92,243938,2,0,L|307:137,1,46.1333333333333,4|0,3:2|0:0,0:0:0:0:
248,360,244211,2,0,L|244:308,1,46.1333333333333,4|0,3:2|0:0,0:0:0:0:
226,98,244483,5,0,3:2:0:0:
146,246,244756,1,2,3:2:0:0:
25,220,245029,1,2,3:2:0:0:
303,235,245302,6,0,L|244:232,1,46.1333333333333,6|0,3:2|0:0,0:0:0:0:
262,28,245574,2,0,L|230:77,1,46.1333333333333,4|0,3:2|0:0,0:0:0:0:
70,104,245847,2,0,L|97:156,1,46.1333333333333,4|0,3:2|0:0,0:0:0:0:
221,307,246120,5,0,3:2:0:0:
150,221,246392,1,0,3:2:0:0:
107,325,246665,1,0,3:2:0:0:
195,291,251847,22,0,B|264:283|240:326|303:319,1,109.566666666667,4|0,3:2|0:0,0:0:0:0:
368,310,252256,1,8,0:2:0:0:
392,262,252393,1,0,3:2:0:0:
384,209,252529,1,0,3:2:0:0:
345,171,252665,6,0,B|340:181|324:187|324:187|410:173,1,109.566666666667,12|0,0:2|3:2,0:0:0:0:
478,156,253074,1,0,3:2:0:0:
493,104,253211,1,0,3:2:0:0:
473,54,253347,1,0,3:2:0:0:
426,28,253483,6,0,L|377:32,1,49.0166666666667,6|0,3:2|0:0,0:0:0:0:
140,53,253756,2,0,L|188:48,1,49.0166666666667,4|0,3:2|0:0,0:0:0:0:
433,113,254029,2,0,L|384:117,1,49.0166666666667,4|0,3:2|0:0,0:0:0:0:
139,139,254302,5,2,3:2:0:0:
143,221,254574,1,0,3:2:0:0:
146,299,254847,1,2,3:2:0:0:
278,94,255120,6,0,L|274:153,1,49.0166666666667,6|0,3:2|0:0,0:0:0:0:
382,331,255393,2,0,L|355:289,1,49.0166666666667,4|0,3:2|0:0,0:0:0:0:
151,327,255665,2,0,L|182:289,1,49.0166666666667,6|0,3:2|0:0,0:0:0:0:
274,142,255938,5,2,3:2:0:0:
194,52,256211,1,0,3:2:0:0:
157,161,256483,1,2,3:2:0:0:
450,71,256756,6,0,L|453:128,1,49.0166666666667,6|0,3:2|0:0,0:0:0:0:
257,151,257029,2,0,L|254:102,1,49.0166666666667,4|0,3:2|0:0,0:0:0:0:
471,66,257302,2,0,L|474:123,1,49.0166666666667,4|0,3:2|0:0,0:0:0:0:
260,224,257574,5,2,3:2:0:0:
377,243,257847,1,0,3:2:0:0:
489,260,258120,1,0,3:2:0:0:
133,286,258393,6,0,L|124:223,1,49.0166666666667,6|0,3:2|0:0,0:0:0:0:
102,96,258665,5,0,3:2:0:0:
144,61,258802,1,8,0:2:0:0:
198,49,258938,1,0,3:2:0:0:
250,61,259074,1,0,3:2:0:0:
293,95,259211,21,2,3:2:0:0:
285,143,259347,1,0,3:2:0:0:
280,186,259483,5,8,3:3:0:0:
274,224,259620,1,8,3:3:0:0:
269,258,259756,69,4,3:3:0:0:
265,287,259893,1,4,3:3:0:0:
262,311,260029,5,12,3:2:0:0:
256,192,260165,12,2,264938,0:2:0:0:
