osu file format v14

[General]
AudioFilename: audio.mp3
AudioLeadIn: 0
PreviewTime: 148160
Countdown: 1
SampleSet: Soft
StackLeniency: 0.5
Mode: 0
LetterboxInBreaks: 0
EpilepsyWarning: 1
WidescreenStoryboard: 1

[Editor]
Bookmarks: 49160,97722,134660,184160,227660,277160
DistanceSpacing: 0.5
BeatDivisor: 8
GridSize: 32
TimelineZoom: 3.499998

[Metadata]
Title:Boku no Koto
TitleUnicode:僕のこと
Artist:Mrs. GREEN APPLE
ArtistUnicode:Mrs. GREEN APPLE
Creator:Haruto
Version:Collab Affection
Source:
Tags:about me attitude album atomosphere omota s_o_u_r sour gokugohan12468 kittyadventure haruto_aizawa theduckmask collab collaboration japanese pop jpop ミセスグリーンアップル motoki omori 大森元貴 hiroto wakai 若井滉斗 ayaka yamanaka 山中綾華 ryoka fujisawa 藤澤涼架 kiyokatsu kiyokazu takano 髙野清宗
BeatmapID:2445840
BeatmapSetID:1172658

[Difficulty]
HPDrainRate:5
CircleSize:4
OverallDifficulty:8
ApproachRate:8.8
SliderMultiplier:1.65
SliderTickRate:1

[Events]
//Background and Video events
0,0,"68481208_p0.jpg",0,0
//Break Periods
//Storyboard Layer 0 (Background)
//Storyboard Layer 1 (Fail)
//Storyboard Layer 2 (Pass)
//Storyboard Layer 3 (Foreground)
//Storyboard Layer 4 (Overlay)
//Storyboard Sound Samples

[TimingPoints]
785,375,4,2,1,30,1,0
1160,375,4,2,1,30,1,0
1160,-181.818181818182,4,2,1,30,0,0
6972,-181.818181818182,4,2,1,30,0,0
7160,-181.818181818182,4,2,1,30,0,0
23660,-153.846153846154,4,2,1,30,0,0
24222,-153.846153846154,4,2,1,60,0,0
25160,-133.333333333333,4,2,1,50,0,0
43160,-117.647058823529,4,2,1,55,0,0
49160,-100,4,2,1,60,0,0
72222,-83.3333333333333,4,2,1,65,0,0
72597,-90.9090909090909,4,2,1,65,0,0
72785,-100,4,2,1,65,0,0
73160,-100,4,2,1,70,0,0
82160,-71.4285714285714,4,2,1,70,0,0
82535,-100,4,2,1,70,0,0
95660,-100,4,2,1,65,0,0
97722,-133.333333333333,4,2,1,65,0,0
98660,-100,4,2,1,70,0,0
104660,-133.333333333333,4,2,1,70,0,0
110660,-117.647058823529,4,2,1,75,0,0
113660,-100,4,2,1,75,0,0
116285,-100,4,2,1,50,0,0
116660,-181.818181818182,4,2,1,50,0,0
128660,-133.333333333333,4,2,1,60,0,0
134660,-125,4,2,1,60,0,0
143660,-142.857142857143,4,2,1,65,0,0
144410,-125,4,2,1,65,0,0
148160,-125,4,2,1,75,0,0
149097,-166.666666666667,4,2,1,75,0,0
149660,-100,4,2,1,70,0,0
172535,-200,4,2,1,70,0,0
172910,-100,4,2,1,70,0,0
173660,-133.333333333333,4,2,1,70,0,0
174222,-117.647058823529,4,2,1,70,0,0
174785,-153.846153846153,4,2,1,70,0,0
175535,-142.857142857143,4,2,1,70,0,0
175910,-125,4,2,1,70,0,0
176660,-111.111111111111,4,2,1,70,0,0
176941,-111.111111111111,4,2,1,20,0,0
177035,-111.111111111111,4,2,1,70,0,0
177222,-142.857142857143,4,2,1,70,0,0
177785,-117.647058823529,4,2,1,70,0,0
178535,-105.263157894737,4,2,1,70,0,0
178910,-133.333333333333,4,2,1,70,0,0
179660,-117.647058823529,4,2,1,70,0,0
181160,-153.846153846153,4,2,1,50,0,0
181535,-153.846153846153,4,2,1,60,0,0
181910,-153.846153846153,4,2,1,65,0,0
182285,-153.846153846153,4,2,1,70,0,0
182660,-153.846153846153,4,2,1,75,0,0
183035,-153.846153846153,4,2,1,80,0,0
183410,-105.263157894736,4,2,1,70,0,0
184160,-133.333333333332,4,2,1,75,0,0
190160,-133.333333333332,4,2,1,80,0,0
194660,-133.333333333332,4,2,1,75,0,0
195410,-90.9090909090909,4,2,1,75,0,0
195597,-100,4,2,1,75,0,0
195785,-111.111111111111,4,2,1,75,0,0
196160,-125,4,2,1,75,0,0
202160,-125,4,2,1,80,0,0
205910,-111.111111111111,4,2,1,80,0,0
206660,-111.111111111111,4,2,1,75,0,0
208160,-111.111111111111,4,2,1,80,0,0
212660,-133.333333333333,4,2,1,70,0,0
218660,-117.647058823529,4,2,1,70,0,0
221660,-90.9090909090909,4,2,1,50,0,0
222035,-90.9090909090909,4,2,1,55,0,0
222410,-100,4,2,1,60,0,0
222785,-100,4,2,1,65,0,0
223160,-100,4,2,1,70,0,0
223535,-100,4,2,1,75,0,0
223910,-100,4,2,1,80,0,0
224285,-100,4,2,1,85,0,0
224660,-100,4,2,1,90,0,0
225035,-125,4,2,1,85,0,0
225222,-100,4,2,1,80,0,0
225410,-100,4,2,1,75,0,0
225785,-111.111111111111,4,2,1,70,0,0
226535,-111.111111111111,4,2,1,65,0,0
226910,-200,4,2,1,60,0,0
227660,-200,4,2,1,35,0,0
239660,-142.857142857143,4,2,1,45,0,0
244160,-285.714285714286,4,2,1,45,0,0
246410,-200,4,2,1,45,0,0
247160,-142.857142857143,4,2,1,45,0,0
251660,-142.857142857143,4,2,1,50,0,0
253160,-142.857142857143,4,2,1,70,0,0
254660,-100,4,2,1,75,0,1
272660,-100,4,2,1,80,0,1
277160,-153.846153846153,4,2,1,70,0,0
278660,-222.222222222221,4,2,1,30,0,0
279222,-79.9999999999999,4,2,1,70,0,0
279410,-100,4,2,1,70,0,0
280160,-100,4,2,1,75,0,0
280910,-83.3333333333333,4,2,1,75,0,0
281285,-100,4,2,1,75,0,0
281660,-133.333333333333,4,2,1,75,0,0
283160,-86.9565217391304,4,2,1,75,0,0
283535,-100,4,2,1,75,0,0
283910,-83.3333333333333,4,2,1,75,0,0
284285,-100,4,2,1,75,0,0
284660,-133.333333333333,4,2,1,75,0,0
292160,-117.647058823529,4,2,1,85,0,0
297785,-86.9565217391302,4,2,1,85,0,0
298160,-133.333333333333,4,2,1,30,0,0
299660,-222.222222222221,4,2,1,30,0,0
301160,-133.333333333333,4,2,1,30,0,0
306035,-200,4,2,1,30,0,0
318972,-250,4,2,1,30,0,0
319253,-250,4,2,1,20,0,0

[Colours]
Combo1 : 255,70,70
Combo2 : 103,159,192
Combo3 : 209,200,88
Combo4 : 157,157,157
Combo5 : 225,225,223
Combo6 : 123,235,86
Combo7 : 245,194,99
Combo8 : 249,166,220

[HitObjects]
99,80,785,53,2,0:0:0:0:
99,80,1160,2,0,P|147:72|203:63,1,90.7500027694703,2|2,0:0|0:0,0:0:0:0:
358,115,1910,2,0,P|309:122|253:131,1,90.7500027694703,2|2,0:0|0:0,0:0:0:0:
166,233,2660,102,0,P|130:265|118:355,1,136.125004154205,2|2,0:0|0:0,0:0:0:0:
245,384,3410,2,0,P|237:335|228:279,1,90.7500027694703,2|2,0:0|0:0,0:0:0:0:
188,66,4160,5,2,0:0:0:0:
273,90,4535,1,2,0:0:0:0:
358,115,4910,1,2,0:0:0:0:
443,140,5285,1,2,0:0:0:0:
429,14,5660,102,0,P|385:20|335:28,1,90.7500027694703,2|2,0:0|0:0,0:0:0:0:
267,180,6410,2,0,P|284:177|303:173,2,22.6875006923676,2|2|2,0:0|0:0|0:0,0:0:0:0:
191,133,6785,2,0,P|184:100|187:70,1,45.3750013847352,2|0,0:0|0:0,0:0:0:0:
376,203,7160,6,0,P|384:245|374:302,1,90.7500027694703,2|2,0:0|0:0,0:0:0:0:
116,348,7910,2,0,P|71:341|22:334,1,90.7500027694703,2|2,0:0|0:0,0:0:0:0:
149,234,8660,102,0,B|212:217|217:258|283:242,1,136.125004154205,2|2,0:0|0:0,0:0:0:0:
253,152,9410,2,0,P|208:145|163:138,1,90.7500027694703,2|2,0:0|0:0,0:0:0:0:
73,123,9972,1,2,0:0:0:0:
225,0,10160,6,0,P|261:24|274:67,1,90.7500027694703,2|2,0:0|0:0,0:0:0:0:
85,292,10910,2,0,P|109:255|105:211,1,90.7500027694703,2|2,0:0|0:0,0:0:0:0:
45,38,11660,101,2,0:0:0:0:
253,152,12035,1,2,0:0:0:0:
321,194,12410,5,2,0:0:0:0:
502,295,12785,101,2,0:0:0:0:
122,250,13160,6,0,B|185:233|190:274|256:258,1,136.125004154205,2|2,0:0|0:0,0:0:0:0:
321,194,13910,2,0,P|300:171|233:170,1,90.7500027694703,2|2,0:0|0:0,0:0:0:0:
122,250,14660,102,0,P|107:277|129:340,1,90.7500027694703,2|2,0:0|0:0,0:0:0:0:
321,194,15410,2,0,P|335:166|313:103,1,90.7500027694703,2|2,0:0|0:0,0:0:0:0:
174,0,16160,6,0,P|181:45|190:107,1,90.7500027694703,2|2,0:0|0:0,0:0:0:0:
335,283,16910,2,0,P|327:238|321:193,1,90.7500027694703,2|2,0:0|0:0,0:0:0:0:
449,92,17660,102,0,B|386:75|381:116|315:100,1,136.125004154205,2|2,0:0|0:0,0:0:0:0:
242,149,18410,2,0,P|222:176|223:238,1,90.7500027694703,2|2,0:0|0:0,0:0:0:0:
402,350,19160,6,0,P|425:312|423:267,2,90.7500027694703,2|2|2,0:0|0:0|0:0,0:0:0:0:
220,231,20285,1,2,0:0:0:0:
108,327,20660,102,0,P|152:319|197:313,1,90.7500027694703,2|0,0:0|0:0,0:0:0:0:
332,135,21410,2,0,P|287:142|242:149,1,90.7500027694703,2|2,0:0|0:0,0:0:0:0:
155,164,21972,5,2,0:0:0:0:
155,164,22160,1,2,0:0:0:0:
418,122,22535,1,2,0:0:0:0:
269,13,22910,102,0,P|272:35|276:57,2,45.3750013847352,2|2|2,0:0|0:0|0:0,0:0:0:0:
288,142,23472,1,2,0:0:0:0:
208,113,23660,6,0,B|158:100|155:128|103:116,1,107.249995090485,2|2,0:0|0:0,0:0:0:0:
13,9,24222,1,0,1:0:0:0:
13,9,24316,1,0,1:0:0:0:
13,9,24410,101,8,0:0:0:0:
95,27,24597,1,8,0:0:0:0:
135,221,24785,5,8,1:3:0:0:
364,170,24972,1,2,1:2:0:0:
273,284,25160,102,0,P|267:253|262:222,1,61.875002360344,6|0,1:2|0:0,0:0:0:0:
405,30,25535,2,0,P|411:61|416:92,1,61.875002360344,2|0,0:0|0:0,0:0:0:0:
499,211,25910,2,0,P|514:178|515:145,1,61.875002360344,10|0,0:0|0:0,0:0:0:0:
326,85,26285,2,0,P|295:90|264:96,1,61.875002360344,2|0,0:0|0:0,0:0:0:0:
151,305,26660,6,0,P|212:294|273:283,1,123.750004720688,2|2,1:2|1:2,0:0:0:0:
355,325,27222,1,2,0:0:0:0:
199,211,27410,1,10,0:0:0:0:
199,211,27785,101,2,0:0:0:0:
309,26,28160,6,0,P|324:59|325:92,1,61.875002360344,2|0,1:2|0:0,0:0:0:0:
199,211,28535,2,0,P|184:178|183:145,1,61.875002360344,2|0,0:0|0:0,0:0:0:0:
76,91,28910,102,0,P|71:121|65:151,1,61.875002360344,10|0,0:0|0:0,0:0:0:0:
301,248,29285,2,0,P|305:217|311:187,1,61.875002360344,2|0,0:0|0:0,0:0:0:0:
135,279,29660,6,0,P|74:289|13:300,1,123.750004720688,2|0,1:2|1:0,0:0:0:0:
301,248,30410,101,8,0:0:0:0:
462,218,30597,1,0,1:0:0:0:
308,165,30785,6,0,P|338:170|368:175,1,61.875002360344,2|0,1:2|1:0,0:0:0:0:
471,366,31160,2,0,P|447:311|382:288,1,123.750004720688,6|2,1:2|0:0,0:0:0:0:
245,317,31722,1,0,0:0:0:0:
245,317,31910,102,0,P|239:347|234:377,1,61.875002360344,10|0,0:0|0:0,0:0:0:0:
450,127,32285,2,0,P|455:96|460:66,1,61.875002360344,2|0,0:0|0:0,0:0:0:0:
308,165,32660,6,0,P|262:173|216:182,1,92.812503540516,2|0,1:2|0:0,0:0:0:0:
202,168,33035,1,0,1:2:0:0:
172,84,33222,1,2,0:0:0:0:
123,214,33410,102,0,P|113:184|112:153,1,61.875002360344,10|0,0:0|0:0,0:0:0:0:
246,0,33785,2,0,P|261:43|260:95,1,92.812503540516,2|0,0:0|0:0,0:0:0:0:
82,66,34160,6,0,P|51:61|21:55,1,61.875002360344,2|0,1:2|0:0,0:0:0:0:
202,168,34535,2,0,P|233:173|262:178,1,61.875002360344,2|0,0:0|0:0,0:0:0:0:
102,300,34910,102,0,P|71:305|41:310,1,61.875002360344,14|0,0:0|0:0,0:0:0:0:
170,370,35285,6,0,P|201:375|230:380,1,61.875002360344,2|0,0:0|0:0,0:0:0:0:
339,246,35660,101,2,1:2:0:0:
339,246,36035,2,0,P|356:213|355:156,1,92.812503540516,0|0,1:0|1:0,0:0:0:0:
363,143,36410,6,0,P|394:138|425:133,1,61.875002360344,10|8,0:0|0:0,0:0:0:0:
429,20,36785,2,0,P|367:29|341:74,1,92.812503540516,2|0,1:2|0:0,0:0:0:0:
344,61,37160,102,0,P|277:50|211:40,1,123.750004720688,6|2,1:2|0:0,0:0:0:0:
78,93,37722,1,2,0:0:0:0:
78,93,37910,2,0,P|108:97|139:102,1,61.875002360344,10|0,0:0|0:0,0:0:0:0:
237,191,38285,2,0,P|245:227|238:269,1,61.875002360344,2|0,0:0|0:0,0:0:0:0:
161,359,38660,6,0,P|151:297|141:236,2,123.750004720688,2|2|10,1:2|1:2|0:0,0:0:0:0:
331,215,39785,2,0,P|368:209|405:203,1,61.875002360344,2|0,0:0|0:0,0:0:0:0:
230,104,40160,101,2,1:2:0:0:
145,86,40347,1,0,0:0:0:0:
288,36,40535,5,2,0:0:0:0:
373,18,40722,101,2,0:0:0:0:
240,165,40910,6,0,P|234:127|228:90,1,61.875002360344,10|0,0:0|0:0,0:0:0:0:
54,8,41285,2,0,P|59:45|65:82,1,61.875002360344,2|8,0:0|0:0,0:0:0:0:
98,258,41660,101,2,1:2:0:0:
98,258,41847,1,8,0:0:0:0:
123,171,42035,2,0,B|79:159|76:184|31:173,1,92.812503540516,0|0,1:0|0:0,0:0:0:0:
98,258,42410,6,0,P|103:295|109:332,1,61.875002360344,8|0,0:0|1:0,0:0:0:0:
240,165,42785,2,0,P|235:134|230:103,1,61.875002360344,2|0,1:2|1:0,0:0:0:0:
244,85,43066,101,0,1:0:0:0:
244,85,43160,2,0,P|285:85|350:153,1,140.250002675056,6|2,1:2|1:2,0:0:0:0:
124,66,43722,1,0,0:0:0:0:
124,66,43910,2,0,P|146:39|177:22,1,70.1250013375282,10|0,0:0|0:0,0:0:0:0:
428,108,44285,2,0,P|440:140|438:175,1,70.1250013375282,2|2,0:0|0:0,0:0:0:0:
255,250,44660,5,0,1:0:0:0:
240,165,44847,1,8,0:0:0:0:
166,272,45035,102,0,P|153:304|155:339,1,70.1250013375282,0|0,1:0|0:0,0:0:0:0:
321,193,45410,1,10,0:0:0:0:
225,80,45597,1,2,0:0:0:0:
291,24,45785,1,2,0:0:0:0:
155,136,45972,5,2,0:0:0:0:
155,136,46066,1,2,0:0:0:0:
155,136,46160,2,0,P|80:124|6:112,1,140.250002675056,6|0,1:2|1:0,0:0:0:0:
404,241,46910,2,0,P|411:209|408:169,1,70.1250013375282,8|0,0:0|0:0,0:0:0:0:
255,250,47285,2,0,P|248:282|251:322,1,70.1250013375282,2|0,0:0|0:0,0:0:0:0:
403,382,47660,101,8,1:2:0:0:
102,218,48035,1,8,1:2:0:0:
319,78,48222,5,0,1:0:0:0:
319,78,48316,1,0,1:0:0:0:
319,78,48410,1,8,0:0:0:0:
192,44,48597,101,8,0:0:0:0:
74,11,48785,5,2,1:2:0:0:
74,11,49160,102,0,B|147:15|142:57|231:49,1,165,6|0,1:2|3:0,0:0:0:0:
386,3,49722,1,0,3:0:0:0:
386,3,49816,1,0,3:0:0:0:
386,3,49910,2,0,B|373:72|373:72|380:88|380:88|368:166,1,165,0|0,1:0|3:0,0:0:0:0:
453,271,50472,5,0,3:0:0:0:
453,271,50566,1,0,3:0:0:0:
453,271,50660,1,0,1:0:0:0:
453,271,51035,2,0,P|392:265|343:254,1,82.5,2|0,3:2|3:0,0:0:0:0:
182,301,51410,101,8,1:2:0:0:
248,330,51597,1,8,1:2:0:0:
128,354,51785,5,8,1:2:0:0:
295,269,51972,1,8,1:2:0:0:
14,159,52160,102,0,L|45:335,1,165,6|0,1:2|3:0,0:0:0:0:
44,344,52628,1,0,3:0:0:0:
44,344,52722,2,0,L|-11:337,2,41.25,2|0|2,0:0|3:0|1:2,0:0:0:0:
71,144,53285,5,0,3:0:0:0:
71,144,53378,1,0,3:0:0:0:
71,144,53472,1,2,0:0:0:0:
71,144,53565,1,0,3:0:0:0:
71,144,53660,2,0,P|163:119|251:78,1,165,2|2,1:2|3:2,0:0:0:0:
366,217,54222,2,0,L|306:208,2,41.25,0|0|8,3:0|3:0|1:2,0:0:0:0:
418,164,54597,101,8,1:2:0:0:
265,260,54785,1,8,1:2:0:0:
333,306,54972,5,10,1:2:0:0:
270,351,55160,2,0,P|217:340|150:338,1,82.5,6|2,1:2|0:0,0:0:0:0:
48,253,55535,101,2,3:2:0:0:
105,210,55722,1,2,0:0:0:0:
56,59,55910,2,0,B|46:98|46:98|56:139,1,82.5,2|2,1:2|0:0,0:0:0:0:
235,1,56285,1,2,3:2:0:0:
175,68,56472,5,0,3:0:0:0:
175,68,56566,1,0,3:0:0:0:
175,68,56660,2,0,B|234:74|242:144|319:135,1,165,2|2,1:2|3:2,0:0:0:0:
405,23,57222,1,0,3:0:0:0:
405,23,57316,1,0,3:0:0:0:
405,23,57410,2,0,B|392:60|392:60|411:110,1,82.5,8|8,1:2|1:2,0:0:0:0:
472,233,57785,101,8,1:2:0:0:
398,217,57972,1,10,1:2:0:0:
506,325,58160,6,0,P|411:332|317:368,1,165,6|2,1:2|3:2,0:0:0:0:
285,217,58722,1,2,0:0:0:0:
285,217,58816,1,0,3:0:0:0:
285,217,58910,2,0,P|227:212|170:190,1,82.5,2|2,1:2|0:0,0:0:0:0:
66,352,59285,101,2,3:2:0:0:
130,321,59472,1,0,3:0:0:0:
117,144,59660,6,0,P|40:163|53:253,1,165,2|2,1:2|3:2,0:0:0:0:
137,129,60222,1,0,3:0:0:0:
137,129,60316,1,0,3:0:0:0:
137,129,60410,101,8,1:2:0:0:
108,54,60597,1,8,1:2:0:0:
247,101,60785,5,8,1:2:0:0:
343,134,60972,1,10,1:2:0:0:
228,189,61160,102,0,B|301:198|280:246|376:250,1,165,6|0,1:2|3:0,0:0:0:0:
385,264,61628,1,0,3:0:0:0:
385,264,61722,2,0,L|325:275,2,41.25,0|0|0,3:0|3:0|1:0,0:0:0:0:
505,67,62285,5,2,3:2:0:0:
505,67,62378,1,0,3:0:0:0:
505,67,62472,1,0,3:0:0:0:
505,67,62566,1,0,3:0:0:0:
505,67,62660,2,0,P|427:60|330:25,1,165,2|2,1:2|3:2,0:0:0:0:
215,146,63222,2,0,L|258:135,2,41.25,2|0|8,3:2|3:0|1:2,0:0:0:0:
158,98,63597,101,8,1:2:0:0:
330,169,63785,1,8,1:2:0:0:
197,256,63972,1,10,1:2:0:0:
282,384,64160,6,0,B|289:346|289:346|276:297,1,82.5,6|0,1:2|0:0,0:0:0:0:
96,186,64535,1,0,3:0:0:0:
96,186,64628,1,0,3:0:0:0:
96,186,64722,1,2,0:0:0:0:
96,186,64816,1,0,3:0:0:0:
96,186,64910,2,0,L|1:200,1,82.5,2|0,1:2|0:0,0:0:0:0:
153,45,65285,2,0,B|111:31,3,41.25,0|0|2|0,3:0|3:0|0:0|3:0,0:0:0:0:
170,34,65660,102,0,B|250:61|225:86|311:117,1,165,2|2,1:2|3:2,0:0:0:0:
463,29,66222,2,0,L|419:36,1,41.25,0|0,3:0|3:0,0:0:0:0:
397,52,66410,5,8,1:2:0:0:
463,108,66597,101,8,1:2:0:0:
346,194,66785,5,10,1:2:0:0:
490,320,66972,101,10,1:2:0:0:
434,194,67160,6,0,B|424:232|424:232|433:280,1,82.5,6|0,1:2|0:0,0:0:0:0:
281,373,67535,1,2,3:2:0:0:
281,373,67628,1,0,3:0:0:0:
281,373,67722,1,2,0:0:0:0:
281,373,67816,1,0,3:0:0:0:
281,373,67910,2,0,B|290:331|267:340|281:288,1,82.5,6|2,1:2|0:0,0:0:0:0:
73,233,68285,2,0,B|73:232|114:239,3,41.25,2|0|0|0,3:2|3:0|3:0|3:0,0:0:0:0:
57,230,68660,102,0,P|156:252|158:329,1,165,6|2,1:2|3:2,0:0:0:0:
35,321,69222,2,0,L|27:365,1,41.25,2|0,3:2|3:0,0:0:0:0:
15,371,69410,5,12,1:2:0:0:
176,290,69597,1,8,1:2:0:0:
304,372,69785,2,0,B|336:366|336:366|360:342|360:342|396:335,1,82.5,8|10,1:2|1:2,0:0:0:0:
481,348,70160,102,0,B|409:331|409:331|378:277|432:254,1,165,6|2,1:2|3:2,0:0:0:0:
385,92,70722,5,2,0:0:0:0:
383,102,70816,1,0,3:0:0:0:
381,111,70910,1,8,1:2:0:0:
463,76,71097,1,8,1:2:0:0:
295,164,71285,1,8,1:2:0:0:
105,31,71472,101,10,1:2:0:0:
163,128,72222,5,8,0:0:0:0:
163,128,72316,1,8,0:0:0:0:
163,128,72410,2,0,P|121:143|103:180,1,49.4999984893799,14|0,0:0|0:0,0:0:0:0:
37,279,72597,2,0,P|54:297|76:306,1,45.3750013847352,2|0,1:2|0:0,0:0:0:0:
211,259,72785,102,0,P|215:214|193:189,1,41.25,2|0,1:2|0:0,0:0:0:0:
137,231,72972,1,2,1:2:0:0:
271,330,73160,6,0,L|422:295,1,123.75,6|0,1:2|0:0,0:0:0:0:
377,330,73535,1,0,1:0:0:0:
310,175,73722,101,2,1:2:0:0:
428,56,73910,2,0,L|417:102,1,41.25,10|0,0:0|0:0,0:0:0:0:
429,124,74097,6,0,B|460:128|487:163|538:152,1,82.5,2|2,1:2|0:0,0:0:0:0:
317,45,74472,2,0,L|164:70,1,123.75,2|0,1:2|0:0,0:0:0:0:
177,79,74847,2,0,L|238:93,1,41.25,8|0,0:0|0:0,0:0:0:0:
96,143,75035,101,2,1:2:0:0:
204,285,75222,1,0,1:0:0:0:
51,229,75410,6,0,B|113:234|118:290|215:284,1,165,10|2,0:0|1:2,0:0:0:0:
270,127,75972,1,2,1:2:0:0:
270,127,76066,1,0,1:0:0:0:
270,127,76160,2,0,B|262:167|262:167|270:209,1,82.5,6|0,1:2|0:0,0:0:0:0:
441,321,76535,101,0,1:0:0:0:
373,301,76722,1,2,1:2:0:0:
310,353,76910,5,10,0:0:0:0:
446,237,77097,1,2,1:2:0:0:
342,77,77285,1,2,0:0:0:0:
491,155,77472,102,0,L|332:184,1,123.75,2|0,1:2|0:0,0:0:0:0:
356,194,77847,2,0,L|369:143,2,41.25,8|0|2,0:0|0:0|1:2,0:0:0:0:
213,286,78222,1,0,1:0:0:0:
146,189,78410,6,0,P|184:188|234:176,1,82.5,10|0,0:0|1:2,0:0:0:0:
274,361,78785,2,0,P|312:362|362:374,1,82.5,2|0,1:2|1:2,0:0:0:0:
191,298,79160,102,0,B|141:300|118:345|36:330,1,123.75,6|0,1:2|0:0,0:0:0:0:
53,345,79535,2,0,B|60:304|60:304|53:262,1,82.5,0|2,1:0|1:2,0:0:0:0:
170,58,79910,2,0,B|162:99|162:99|170:140,1,82.5,10|2,0:0|1:2,0:0:0:0:
394,240,80285,1,2,0:0:0:0:
279,204,80472,6,0,B|324:213|324:213|341:230|341:230|397:240,1,123.75,2|0,1:2|0:0,0:0:0:0:
410,232,80847,2,0,L|359:225,1,41.25,8|0,0:0|0:0,0:0:0:0:
291,289,81035,1,2,1:2:0:0:
419,142,81222,1,0,1:0:0:0:
340,6,81410,2,0,B|328:50|342:34|330:93,1,82.5,10|2,0:0|1:2,0:0:0:0:
200,246,81785,102,0,P|157:232|103:275,1,82.5,2|2,1:2|1:2,0:0:0:0:
123,256,82066,1,0,1:0:0:0:
123,256,82160,6,0,B|173:259|197:211|197:211|155:113,1,173.24999471283,6|0,1:2|0:0,0:0:0:0:
150,92,82535,2,0,L|125:211,1,82.5,0|2,1:0|1:2,0:0:0:0:
238,293,82910,2,0,B|277:268|313:299|313:299|328:348|385:351,1,165,10|2,0:0|0:0,0:0:0:0:
238,293,83472,1,2,1:2:0:0:
429,257,83660,102,0,L|367:265,1,41.25,2|0,1:2|0:0,0:0:0:0:
304,142,83847,1,8,0:0:0:0:
375,15,84035,2,0,B|385:61|385:61|374:115,1,82.5,2|0,1:2|1:0,0:0:0:0:
435,160,84316,5,0,1:0:0:0:
452,155,84410,1,10,0:0:0:0:
295,47,84597,101,2,1:2:0:0:
173,153,84785,5,2,1:2:0:0:
107,107,84972,101,2,1:2:0:0:
37,124,85160,6,0,B|115:142|100:204|211:209,1,165,6|0,1:2|1:0,0:0:0:0:
264,283,85722,1,2,1:2:0:0:
141,367,85910,2,0,L|67:339,2,41.25,10|0|2,0:0|0:0|1:2,0:0:0:0:
83,284,86285,101,2,0:0:0:0:
255,368,86472,6,0,B|310:376|326:337|390:350,1,123.75,2|0,1:2|0:0,0:0:0:0:
385,346,86847,102,0,L|459:363,1,41.25,8|0,0:0|0:0,0:0:0:0:
334,267,87035,1,2,1:2:0:0:
469,153,87222,1,0,1:0:0:0:
393,27,87410,6,0,B|382:64|382:64|402:125,1,82.5,10|2,0:0|1:2,0:0:0:0:
466,11,87785,1,2,1:2:0:0:
264,125,87972,101,2,1:2:0:0:
264,125,88066,1,0,1:0:0:0:
264,125,88160,2,0,B|257:110|257:110|213:104|213:104|178:158|124:150,1,165,6|0,1:2|1:0,0:0:0:0:
43,13,88722,1,2,1:2:0:0:
114,31,88910,1,10,0:0:0:0:
26,149,89097,1,2,1:2:0:0:
188,292,89285,6,0,L|97:318,1,82.5,2|2,0:0|1:2,0:0:0:0:
31,294,89566,1,0,1:0:0:0:
31,294,89660,2,0,B|67:266|67:266|139:289|139:289|158:330|158:330|230:356|230:356|282:310,1,288.75,6|0,1:2|0:0,0:0:0:0:
211,176,90410,1,2,0:0:0:0:
294,236,90597,102,0,P|267:238|245:245,1,41.25,2|0,1:2|0:0,0:0:0:0:
115,116,90785,2,0,P|193:103|266:69,1,123.75,2|0,1:2|1:0,0:0:0:0:
234,86,91160,6,0,P|186:59|137:74,1,82.5,6|0,1:2|0:0,0:0:0:0:
137,151,91535,2,0,P|169:174|210:175,1,82.5,0|2,1:0|1:2,0:0:0:0:
428,37,91910,102,0,B|406:90|432:66|400:170,1,123.75,10|0,0:0|0:0,0:0:0:0:
390,172,92285,1,2,0:0:0:0:
507,281,92472,1,2,1:2:0:0:
507,281,92566,1,0,1:0:0:0:
507,281,92660,6,0,P|436:281|408:342,1,123.75,2|0,1:2|0:0,0:0:0:0:
413,344,93035,2,0,P|424:307|396:247,1,82.5,2|0,1:2|1:0,0:0:0:0:
242,157,93410,101,10,0:0:0:0:
172,180,93597,1,2,1:2:0:0:
121,124,93785,1,2,1:2:0:0:
193,100,93972,1,2,1:2:0:0:
45,262,94160,6,0,B|106:281|95:320|180:337,1,123.75,6|0,1:2|0:0,0:0:0:0:
172,320,94535,1,0,1:0:0:0:
334,231,94722,101,2,1:2:0:0:
315,225,94816,1,0,1:0:0:0:
302,212,94910,1,10,0:0:0:0:
372,128,95097,1,2,1:2:0:0:
343,318,95285,5,2,0:0:0:0:
200,169,95472,101,2,1:2:0:0:
45,262,95660,5,6,1:2:0:0:
38,274,97722,102,0,B|196:254|128:374|290:355,1,278.437510621548,2|0,0:0|0:0,0:0:0:0:
302,365,98660,54,0,P|295:322|288:276,1,82.5,6|0,1:2|0:0,0:0:0:0:
191,150,99035,2,0,P|195:177|200:205,2,55,2|2|2,3:2|3:2|3:2,0:0:0:0:
174,65,99410,1,0,3:0:0:0:
320,280,99785,6,0,P|324:252|328:225,2,55,2|2|2,3:2|3:2|3:2,0:0:0:0:
302,365,100160,1,0,3:0:0:0:
354,106,100535,1,8,3:2:0:0:
200,204,100910,1,0,3:1:0:0:
458,256,101285,1,8,3:2:0:0:
243,109,101660,6,0,P|236:68|229:27,1,82.5,6|0,1:2|0:0,0:0:0:0:
97,91,102035,2,0,P|124:86|151:82,2,55,2|2|2,3:2|3:2|3:2,0:0:0:0:
11,103,102410,1,0,3:0:0:0:
202,176,102785,6,0,P|174:171|147:167,2,55,2|2|2,3:2|3:2|3:2,0:0:0:0:
288,188,103160,1,0,3:0:0:0:
229,27,103535,1,8,3:2:0:0:
68,86,103910,1,0,3:1:0:0:
127,247,104285,1,8,3:2:0:0:
327,87,104660,54,0,P|387:77|448:67,1,123.750004720688,6|2,1:2|3:2,0:0:0:0:
508,222,105410,2,0,P|446:211|385:202,1,123.750004720688,0|2,3:0|3:2,0:0:0:0:
182,130,106160,6,0,P|135:99|126:35,1,123.750004720688,0|8,3:0|3:2,0:0:0:0:
56,180,106910,2,0,P|9:211|0:275,1,123.750004720688,0|8,3:1|3:2,0:0:0:0:
240,64,107660,6,0,P|250:125|259:186,1,123.750004720688,6|2,1:2|3:2,0:0:0:0:
465,252,108410,2,0,P|454:190|445:129,1,123.750004720688,0|2,3:0|3:2,0:0:0:0:
320,176,109160,6,0,P|280:182|241:188,1,61.875002360344,0|0,3:0|3:1,0:0:0:0:
158,258,109535,2,0,P|151:218|145:179,1,61.875002360344,8|0,3:2|0:0,0:0:0:0:
132,96,109910,5,0,3:1:0:0:
174,348,110097,1,0,3:1:0:0:
320,176,110285,2,0,P|350:180|381:185,1,61.875002360344,0|0,3:1|3:1,0:0:0:0:
481,79,110660,54,0,P|430:17|351:25,1,140.250002675056,6|0,1:2|1:0,0:0:0:0:
390,108,111222,1,0,1:0:0:0:
286,32,111410,6,0,P|251:37|216:43,1,70.1250013375282,10|0,0:0|1:0,0:0:0:0:
131,86,111785,1,2,0:2:0:0:
131,86,111972,1,2,0:0:0:0:
218,209,112160,6,0,P|212:174|206:139,1,70.1250013375282,2|8,0:0|0:0,0:0:0:0:
99,264,112535,2,0,P|149:304|199:292,1,105.187502006292,2|0,1:2|0:0,0:0:0:0:
201,292,112910,1,10,0:0:0:0:
131,86,113097,1,0,1:0:0:0:
0,264,113285,1,0,1:0:0:0:
304,175,113660,6,0,P|290:91|276:7,1,165,6|2,1:2|1:2,0:0:0:0:
429,270,114410,2,0,P|347:283|266:296,1,165,14|0,1:2|0:0,0:0:0:0:
170,104,115160,5,6,1:2:0:0:
192,226,115347,1,0,1:0:0:0:
314,204,115535,1,0,1:0:0:0:
292,82,115722,1,2,0:0:0:0:
102,255,115910,2,0,P|154:316|234:314,1,165,10|2,0:0|1:2,0:0:0:0:
292,82,116660,6,0,P|247:89|202:96,1,90.7500027694703,2|2,0:0|0:0,0:0:0:0:
93,202,117410,2,0,P|137:194|182:187,1,90.7500027694703,2|2,0:0|0:0,0:0:0:0:
321,164,118160,6,0,P|326:230|274:272,1,136.125004154205,2|2,0:0|0:0,0:0:0:0:
182,187,118910,2,0,P|173:136|165:85,1,90.7500027694703,2|2,0:0|0:0,0:0:0:0:
292,82,119472,1,2,0:0:0:0:
292,82,119660,102,0,P|337:74|382:67,2,90.7500027694703,2|2|2,0:0|0:0|0:0,0:0:0:0:
167,97,120785,1,2,0:0:0:0:
276,271,121160,5,2,0:0:0:0:
276,271,121347,2,0,P|280:295|285:321,2,45.3750013847352,2|2|0,0:0|0:0|0:0,0:0:0:0:
151,330,121910,2,0,P|173:326|195:322,1,45.3750013847352,2|2,0:0|0:0,0:0:0:0:
412,254,122285,2,0,P|389:257|367:261,1,45.3750013847352,2|0,0:0|0:0,0:0:0:0:
194,235,122660,102,0,P|185:186|178:137,1,90.7500027694703,2|2,0:0|0:0,0:0:0:0:
305,28,123410,2,0,P|313:76|320:125,1,90.7500027694703,2|2,0:0|0:0,0:0:0:0:
336,202,123972,1,2,0:0:0:0:
181,55,124160,6,0,P|138:62|99:94,1,90.7500027694703,2|2,0:0|0:0,0:0:0:0:
179,145,124722,1,2,0:0:0:0:
179,145,124910,2,0,P|153:180|148:230,1,90.7500027694703,2|2,0:0|0:0,0:0:0:0:
244,215,125472,1,2,0:0:0:0:
244,215,125660,2,0,P|250:258|282:297,1,90.7500027694703,2|2,0:0|0:0,0:0:0:0:
460,49,126410,102,0,P|456:72|452:95,1,45.3750013847352,2|2,0:0|0:0,0:0:0:0:
419,180,126785,2,0,P|385:177|358:157,1,68.0625020771027,2|0,0:0|0:0,0:0:0:0:
343,154,127160,6,0,P|336:109|352:67,1,90.7500027694703,2|2,0:0|0:0,0:0:0:0:
205,120,127910,1,2,0:0:0:0:
28,182,128285,1,2,0:0:0:0:
185,0,128660,102,0,P|195:60|206:126,1,123.750004720688,6|0,1:2|0:0,0:0:0:0:
119,196,129222,1,2,0:0:0:0:
119,196,129410,2,0,P|109:136|98:70,1,123.750004720688,2|2,1:2|0:0,0:0:0:0:
221,227,130160,6,0,P|283:237|345:248,1,123.750004720688,2|2,1:2|0:0,0:0:0:0:
259,363,130910,1,2,1:2:0:0:
296,141,131285,1,2,0:0:0:0:
469,284,131660,2,0,P|490:226|481:166,1,123.750004720688,2|2,1:2|0:0,0:0:0:0:
317,19,132410,102,0,P|311:52|307:80,1,61.875002360344,2|2,1:2|0:0,0:0:0:0:
238,197,132785,2,0,P|230:149|222:102,1,92.812503540516,2|0,0:0|0:0,0:0:0:0:
221,90,133160,6,0,P|192:79|162:83,2,61.875002360344,2|0|2,1:2|0:0|0:0,0:0:0:0:
343,247,133910,1,2,1:2:0:0:
132,176,134285,1,2,0:0:0:0:
317,19,134660,102,0,P|377:29|443:40,1,99,6|0,1:2|0:0,0:0:0:0:
425,50,135035,2,0,P|444:23|445:-13,1,66,2|0,0:0|0:0,0:0:0:0:
351,109,135410,2,0,P|394:156|398:221,1,132,2|2,1:2|0:0,0:0:0:0:
397,221,135972,1,2,0:0:0:0:
300,269,136160,6,0,P|305:236|311:203,1,66,2|0,1:2|0:0,0:0:0:0:
458,309,136535,2,0,P|452:341|446:374,1,66,0|2,0:0|0:0,0:0:0:0:
232,338,136910,2,0,P|165:348|98:360,1,132,2|2,1:2|0:0,0:0:0:0:
96,127,137660,102,0,P|161:138|226:149,1,132,2|2,1:2|0:0,0:0:0:0:
496,203,138410,1,2,1:2:0:0:
416,97,138785,6,0,P|383:102|350:108,1,66,2|0,0:0|0:0,0:0:0:0:
213,52,139160,2,0,P|245:46|278:40,1,66,2|0,1:2|0:0,0:0:0:0:
313,192,139535,2,0,P|318:242|301:282,1,66
233,309,139910,102,0,P|200:314|167:320,1,66,2|0,1:2|0:0,0:0:0:0:
158,228,140285,2,0,P|190:222|223:216,1,66,2|0,0:0|0:0,0:0:0:0:
384,378,140660,6,0,P|395:306|408:235,1,132,2|2,1:2|0:0,0:0:0:0:
178,115,141410,2,0,P|167:179|155:243,1,99,2|0,1:2|0:0,0:0:0:0:
158,228,141785,2,0,P|190:222|223:216,1,66,2|0,0:0|0:0,0:0:0:0:
198,30,142160,102,0,P|147:29|91:93,1,132,2|0,1:2|0:0,0:0:0:0:
205,332,142910,2,0,P|256:333|312:269,1,132,2|2,1:2|0:0,0:0:0:0:
223,216,143660,6,0,B|143:192|134:245|52:224,1,173.24999471283,6|2,1:2|0:0,0:0:0:0:
278,79,144410,2,0,P|283:111|289:144,1,66,10|0,0:0|0:0,0:0:0:0:
367,202,144785,2,0,P|372:169|378:136,1,66,2|2,0:0|1:2,0:0:0:0:
481,15,145160,101,2,0:0:0:0:
292,276,145535,2,0,P|267:234|222:215,1,99,2|0,1:2|0:0,0:0:0:0:
226,195,145910,2,0,P|188:193|156:209,1,66,10|2,0:0|0:0,0:0:0:0:
195,371,146285,2,0,P|233:373|265:357,1,66,2|0,0:0|0:0,0:0:0:0:
367,202,146660,6,0,P|378:133|390:65,1,132,0|0,1:0|1:0,0:0:0:0:
82,137,147410,2,0,P|70:205|58:273,1,132,8|8,0:0|3:0,0:0:0:0:
235,32,148160,101,14,1:2:0:0:
277,352,148535,1,14,1:2:0:0:
277,352,148910,1,10,1:2:0:0:
59,267,149097,6,0,B|121:273|114:234|178:243,1,123.74999622345,14|0,1:2|0:0,0:0:0:0:
195,253,149660,102,0,P|187:214|180:171,1,82.5,6|0,1:2|0:0,0:0:0:0:
275,194,150035,1,0,1:0:0:0:
79,177,150222,1,2,1:2:0:0:
187,343,150410,2,0,P|269:328|350:314,1,165,10|2,0:0|0:0,0:0:0:0:
309,106,150972,6,0,P|229:108|179:171,1,165,2|0,1:2|1:0,0:0:0:0:
383,178,151535,2,0,P|405:133|400:86,1,82.5,2|0,1:2|1:0,0:0:0:0:
140,28,151910,2,0,P|118:73|123:120,1,82.5,10|0,0:0|1:2,0:0:0:0:
253,332,152285,102,0,P|263:271|273:210,1,123.75,2|0,1:2|1:0,0:0:0:0:
275,194,152660,2,0,B|200:170|192:222|113:202,1,165,6|0,1:2|1:0,0:0:0:0:
113,202,153222,1,2,1:2:0:0:
219,81,153410,2,0,P|261:74|305:67,1,82.5,10|2,0:0|1:2,0:0:0:0:
450,169,153785,2,0,P|409:175|368:182,1,82.5,0|2,0:0|1:2,0:0:0:0:
238,269,154160,6,0,P|214:317|224:390,1,123.75,2|0,1:2|0:0,0:0:0:0:
346,356,154535,2,0,P|339:313|333:274,1,82.5,2|0,1:2|1:0,0:0:0:0:
139,143,154910,2,0,P|146:186|152:225,1,82.5,10|2,0:0|1:2,0:0:0:0:
320,82,155285,2,0,P|313:41|307:0,1,82.5,2|2,1:2|1:2,0:0:0:0:
480,135,155660,101,6,1:2:0:0:
398,122,155847,1,0,0:0:0:0:
385,204,156035,1,0,1:0:0:0:
467,217,156222,1,0,1:2:0:0:
301,190,156410,6,0,P|260:183|219:177,1,82.5,10|2,0:0|1:2,0:0:0:0:
416,36,156785,2,0,P|456:42|497:48,1,82.5,2|2,0:0|1:2,0:0:0:0:
441,347,157160,101,2,1:2:0:0:
441,347,157347,2,0,P|382:347|326:262,1,165,0|0,1:0|1:0,0:0:0:0:
176,100,157910,2,0,P|145:126|130:165,1,82.5,10|0,0:0|1:2,0:0:0:0:
85,244,158285,2,0,P|54:217|39:178,1,82.5,2|0,1:2|1:2,0:0:0:0:
254,0,158660,5,6,1:2:0:0:
268,90,158847,1,2,0:0:0:0:
281,180,159035,1,2,1:2:0:0:
294,270,159222,1,2,1:2:0:0:
190,134,159409,101,10,0:0:0:0:
334,28,159597,1,2,1:2:0:0:
432,174,159785,1,2,0:0:0:0:
294,270,159972,1,2,1:2:0:0:
175,47,160160,5,2,1:2:0:0:
175,47,160347,2,0,B|100:23|92:75|13:55,1,165,8|0,0:2|1:0,0:0:0:0:
94,137,160816,1,0,1:0:0:0:
85,145,160910,2,0,P|66:185|72:226,1,82.5,10|2,0:0|1:2,0:0:0:0:
268,90,161285,2,0,P|273:49|280:8,1,82.5,2|2,1:2|1:2,0:0:0:0:
432,174,161660,102,0,P|484:195|501:268,1,123.75,6|0,1:2|0:0,0:0:0:0:
504,265,162035,2,0,P|463:270|422:277,1,82.5,0|2,1:0|1:2,0:0:0:0:
262,231,162410,2,0,P|303:226|344:219,1,82.5,10|0,0:0|1:2,0:0:0:0:
499,78,162785,2,0,B|441:59|436:97|375:84,1,123.75,2|0,0:0|1:0,0:0:0:0:
369,98,163160,6,0,P|363:57|357:16,1,82.5,2|0,1:2|1:0,0:0:0:0:
268,90,163535,1,2,1:2:0:0:
432,174,163722,1,0,1:0:0:0:
343,219,163910,102,0,P|349:260|354:300,1,82.5,10|0,0:0|0:2,0:0:0:0:
299,381,164285,2,0,P|258:324|263:258,1,123.75,2|0,1:2|1:0,0:0:0:0:
260,182,164660,6,0,P|179:170|97:158,1,165,6|0,1:2|1:0,0:0:0:0:
97,158,165222,1,2,1:2:0:0:
299,381,165410,102,0,B|342:371|364:336|364:336|398:361|446:357,1,165,10|2,0:0|0:0,0:0:0:0:
344,238,165972,1,2,1:2:0:0:
344,238,166066,1,0,1:0:0:0:
344,238,166160,6,0,P|349:198|355:156,1,82.5,2|0,1:2|1:0,0:0:0:0:
257,272,166535,2,0,P|193:280|129:290,1,123.75,2|0,1:2|0:0,0:0:0:0:
122,293,166910,2,0,P|100:335|105:369,1,82.5,10|2,0:0|1:2,0:0:0:0:
265,181,167285,2,0,P|268:140|247:105,1,82.5,2|2,1:2|1:2,0:0:0:0:
138,33,167660,102,0,P|149:114|161:196,1,165,6|0,1:2|1:0,0:0:0:0:
161,196,168222,1,2,1:2:0:0:
378,319,168410,2,0,P|367:238|355:156,1,165,12|2,0:0|0:0,0:0:0:0:
250,273,168972,5,2,1:2:0:0:
250,273,169066,1,0,1:0:0:0:
250,273,169160,2,0,P|198:287|164:389,2,165,6|2|10,1:2|1:2|0:0,0:0:0:0:
462,376,170097,1,2,1:2:0:0:
405,56,170472,101,2,1:2:0:0:
405,56,170566,1,0,1:0:0:0:
405,56,170660,2,0,P|343:65|282:73,1,123.75,6|0,1:2|0:0,0:0:0:0:
273,90,171035,2,0,P|266:47|260:4,1,82.5,0|2,1:0|1:2,0:0:0:0:
181,55,171316,5,0,0:0:0:0:
162,57,171410,1,10,0:0:0:0:
72,66,171597,1,2,1:2:0:0:
216,163,171785,101,2,0:0:0:0:
304,179,171972,5,2,1:2:0:0:
170,243,172160,102,0,B|113:225|108:261|48:248,1,123.75,6|0,1:2|0:0,0:0:0:0:
36,264,172535,2,0,P|32:236|28:209,1,55,2|2,1:2|0:0,0:0:0:0:
161,358,172910,2,0,P|225:350|256:252,1,165,10|2,0:0|0:0,0:0:0:0:
162,57,173472,101,2,0:0:0:0:
162,57,173566,1,2,0:0:0:0:
162,57,173660,2,0,B|219:50|219:50|225:52|225:52|284:45,1,123.750004720688,6|0,1:2|1:0,0:0:0:0:
425,122,174222,2,0,P|358:121|319:176,1,140.250002675056,6|0,1:2|0:0,0:0:0:0:
388,377,174785,22,0,B|416:308|377:292|411:217,1,160.874992635727,6|0,1:2|0:0,0:0:0:0:
279,280,175535,2,0,P|225:287|171:295,1,86.6249973564149,2|0,1:2|0:0,0:0:0:0:
181,294,175910,102,0,P|176:261|171:228,1,66,10|0,0:0|0:0,0:0:0:0:
244,124,176285,2,0,P|248:156|253:189,1,66,2|2,1:2|0:0,0:0:0:0:
123,367,176660,38,0,B|71:360|71:360|67:363|67:363|11:357,1,111.374996601105,6|0,1:2|0:0,0:0:0:0:
0,373,177035,1,0,1:0:0:0:
72,166,177222,2,0,P|113:161|172:232,1,115.49999647522,6|0,1:2|0:0,0:0:0:0:
328,362,177785,86,0,P|428:364|483:280,1,210.375004012585,6|0,1:2|0:0,0:0:0:0:
298,148,178535,2,0,P|290:208|281:269,1,117.562496860743,2|0,1:2|0:0,0:0:0:0:
279,280,178910,102,0,P|248:275|217:271,1,61.875002360344,14|0,0:0|0:0,0:0:0:0:
382,194,179285,2,0,P|412:198|443:202,1,61.875002360344,2|0,1:2|0:0,0:0:0:0:
245,75,179660,6,0,B|181:55|173:95|104:80,2,140.250002675056,2|2|10,1:2|1:2|0:0,0:0:0:0:
298,148,180597,1,2,1:2:0:0:
433,69,180785,2,0,P|428:33|423:-1,1,70.1250013375282,2|0,1:2|0:0,0:0:0:0:
207,158,181160,102,0,P|214:211|221:265,1,107.249995090485,6|2,1:2|1:2,0:0:0:0:
390,384,181910,2,0,P|382:330|375:276,1,107.249995090485,2|10,1:2|1:2,0:0:0:0:
334,29,182660,5,10,1:2:0:0:
178,355,183035,1,14,1:2:0:0:
207,158,183410,102,0,P|228:144|257:140,2,52.2499986047745,8|8|8,1:2|1:2|1:2,0:0:0:0:
258,226,183785,2,0,P|282:230|306:248,2,52.2499986047745,0|2|0,1:0|1:2|1:0,0:0:0:0:
127,287,184160,6,0,P|65:278|4:270,1,123.750004720688,6|2,1:2|1:2,0:0:0:0:
139,139,184910,102,0,P|200:130|261:122,1,123.750004720688,10|2,0:0|1:2,0:0:0:0:
328,14,185472,2,0,L|323:45,1,30.937501180172,2|0,1:2|1:0,0:0:0:0:
323,45,185660,6,0,B|323:121|344:89|342:191,1,123.750004720688,2|2,1:2|1:2,0:0:0:0:
424,65,186410,2,0,P|453:61|498:46,1,61.875002360344,10|0,0:0|0:0,0:0:0:0:
425,223,186785,2,0,P|454:227|499:242,1,61.875002360344,2|0,0:0|0:0,0:0:0:0:
336,146,187160,102,0,P|269:142|248:193,2,123.750004720688,2|2|10,1:2|1:2|0:0,0:0:0:0:
297,159,188285,5,2,0:0:0:0:
182,76,188472,2,0,L|173:29,2,30.937501180172,2|0|2,1:2|1:0|1:2,0:0:0:0:
244,10,188847,101,10,0:0:0:0:
86,114,189035,2,0,L|10:102,1,61.875002360344,2|2,1:2|1:2,0:0:0:0:
129,175,189410,6,0,B|140:253|154:208|162:314,1,123.750004720688,10|2,0:0|0:0,0:0:0:0:
111,348,189972,1,2,0:0:0:0:
245,240,190160,102,0,L|320:260,1,61.875002360344,6|0,1:2|0:0,0:0:0:0:
376,125,190535,2,0,P|347:137|317:144,1,61.875002360344,2|0,1:2|0:0,0:0:0:0:
417,331,190910,2,0,L|386:196,1,123.750004720688,10|2,0:0|0:0,0:0:0:0:
397,218,191660,6,0,L|484:234,1,61.875002360344,2|0,1:2|0:0,0:0:0:0:
296,340,192035,2,0,L|235:351,1,61.875002360344,2|0,1:2|0:0,0:0:0:0:
132,196,192410,101,10,0:0:0:0:
202,212,192597,1,0,1:2:0:0:
153,273,192785,1,2,1:2:0:0:
84,256,192972,1,0,1:2:0:0:
223,181,193160,6,0,B|276:183|284:225|351:222,2,123.750004720688,6|0|10,1:2|1:2|0:0,0:0:0:0:
241,195,194285,101,2,0:0:0:0:
284,86,194472,2,0,L|292:118,2,30.937501180172,2|0|2,1:2|1:0|1:2,0:0:0:0:
337,29,194847,5,0,1:0:0:0:
172,94,195035,2,0,P|140:86|127:26,1,92.812503540516,2|0,1:2|0:0,0:0:0:0:
130,27,195410,102,0,L|145:76,1,45.3750013847352,10|0,0:0|0:0,0:0:0:0:
70,124,195597,6,0,P|65:151|59:163,1,41.25,0|0,1:0|0:0,0:0:0:0:
147,212,195785,102,0,P|154:239|158:250,1,37.1249988670349,0|0,1:0|0:0,0:0:0:0:
109,321,195972,5,2,1:2:0:0:
109,321,196066,1,0,0:0:0:0:
109,321,196160,102,0,B|167:315|180:361|247:348,2,132,6|2|10,1:2|1:2|0:0,0:0:0:0:
249,339,197285,5,2,1:2:0:0:
308,254,197472,2,0,L|304:295,2,33,2|0|2,1:2|1:0|1:2,0:0:0:0:
407,337,197847,102,0,P|478:328|473:253,1,132,0|2,1:0|1:2,0:0:0:0:
444,136,198410,2,0,P|416:159|416:202,1,66,10|0,0:0|0:0,0:0:0:0:
488,205,198785,1,2,0:0:0:0:
320,256,198972,2,0,L|366:266,1,33,2|0,1:2|1:0,0:0:0:0:
352,263,199160,6,0,L|262:285,1,66,2|0,1:2|0:0,0:0:0:0:
230,149,199535,2,0,L|140:127,1,66,2|0,1:2|0:0,0:0:0:0:
284,90,199910,102,0,P|274:59|269:26,1,66,10|0,0:0|0:0,0:0:0:0:
154,140,200285,2,0,P|164:171|169:203,1,66,2|2,0:0|1:2,0:0:0:0:
76,365,200660,6,0,B|77:278|58:309|65:232,1,132,2|6,1:2|1:2,0:0:0:0:
38,344,201410,101,10,0:0:0:0:
128,304,201597,1,0,1:0:0:0:
282,363,201785,5,0,1:0:0:0:
226,313,201972,101,2,1:2:0:0:
226,313,202066,1,0,1:2:0:0:
226,313,202160,6,0,P|265:266|328:289,1,132,6|2,1:2|1:2,0:0:0:0:
333,295,202910,102,0,P|328:262|321:227,1,66,10|0,0:0|0:0,0:0:0:0:
399,332,203285,1,2,0:0:0:0:
247,146,203472,1,2,1:2:0:0:
247,146,203566,1,0,1:0:0:0:
247,146,203660,6,0,B|198:144|181:209|109:199,1,132,6|2,1:2|1:2,0:0:0:0:
117,193,204410,101,10,0:0:0:0:
201,65,204598,1,2,1:2:0:0:
139,20,204785,1,2,1:2:0:0:
291,94,204972,5,2,1:2:0:0:
291,94,205066,1,0,0:0:0:0:
291,94,205160,2,0,P|349:92|374:14,1,132,6|2,1:2|1:2,0:0:0:0:
245,22,205722,102,0,L|191:34,1,33,0|0,1:0|1:0,0:0:0:0:
163,92,205910,2,0,B|259:111|219:205|336:227,1,222.74999320221,10|2,0:0|1:2,0:0:0:0:
282,162,206660,6,0,L|204:178,1,74.2499977340699,6|0,1:2|1:0,0:0:0:0:
320,326,207035,2,0,P|375:314|400:298,1,74.2499977340699,4|0,0:3|0:0,0:0:0:0:
206,286,207410,101,10,0:0:0:0:
127,300,207597,1,0,1:0:0:0:
122,223,207785,2,0,L|135:155,2,49.4999984893799,2|2|2,1:2|0:0|0:0,0:0:0:0:
6,318,208160,6,0,L|34:186,1,111.374996601105,6|0,1:2|0:0,0:0:0:0:
40,203,208535,102,0,L|27:154,2,37.1249988670349,2|0|0,1:2|0:0|0:0,0:0:0:0:
86,105,208910,1,10,0:0:0:0:
25,28,209097,5,0,0:0:0:0:
25,28,209191,1,0,0:0:0:0:
25,28,209285,2,0,P|74:18|103:7,1,74.2499977340699,2|2,0:0|1:2,0:0:0:0:
186,108,209660,2,0,P|259:113|345:142,1,148.49999546814,6|2,1:2|1:2,0:0:0:0:
324,141,210410,101,10,0:0:0:0:
494,62,210597,1,2,1:2:0:0:
377,86,210785,1,2,1:2:0:0:
448,129,210972,5,2,1:2:0:0:
448,129,211066,1,0,0:0:0:0:
448,129,211160,2,0,B|421:213|452:180|423:297,2,148.49999546814,6|2|10,1:2|1:2|0:0,0:0:0:0:
315,345,212285,2,0,P|264:345|238:318,1,74.2499977340699,2|0,0:0|0:0,0:0:0:0:
254,327,212660,22,0,B|302:339|322:294|322:294|289:198,1,185.625007081032,6|0,1:2|0:0,0:0:0:0:
214,136,213410,2,0,P|206:176|196:205,1,61.875002360344,0|0,1:0|0:0,0:0:0:0:
214,136,213785,1,0,1:0:0:0:
286,76,213972,38,0,L|327:87,2,30.937501180172,0|0|2,1:0|0:0|1:2,0:0:0:0:
52,82,214535,6,0,P|41:110|39:132,2,41.2500015735627,2|2|2,3:0|3:0|3:0,0:0:0:0:
98,23,214910,37,2,3:0:0:0:
85,207,215285,2,0,P|61:225|48:243,2,41.2500015735627,2|2|2,3:0|3:0|3:0,0:0:0:0:
154,179,215660,6,0,B|238:172|232:265|352:233,1,185.625007081032,6|0,1:2|0:0,0:0:0:0:
349,217,216410,38,0,L|278:235,1,61.875002360344,0|0,1:0|0:0,0:0:0:0:
391,153,216785,5,0,1:0:0:0:
472,268,216972,2,0,L|501:275,2,30.937501180172,0|0|2,1:0|0:0|1:2,0:0:0:0:
416,316,217347,1,0,0:0:0:0:
260,254,217535,38,0,L|212:266,2,41.2500015735627,2|2|2,3:0|3:0|3:0,0:0:0:0:
337,281,217910,5,2,3:0:0:0:
176,204,218160,37,2,3:0:0:0:
100,171,218410,5,2,3:0:0:0:
242,128,218660,38,0,L|350:96,1,105.187502006292,6|0,1:2|0:0,0:0:0:0:
358,101,219035,2,0,L|337:33,1,70.1250013375282,0|0,1:0|1:0,0:0:0:0:
157,28,219410,6,0,B|96:19|94:63|12:52,1,140.250002675056,8|0,0:0|1:0,0:0:0:0:
131,159,219972,2,0,L|166:167,1,35.0625006687641,0|0,1:0|0:0,0:0:0:0:
165,167,220160,38,0,P|155:216|105:235,1,105.187502006292,2|0,1:2|0:0,0:0:0:0:
38,205,220535,2,0,B|32:149|25:176|16:114,1,70.1250013375282,0|0,1:0|1:0,0:0:0:0:
189,365,220910,5,10,0:0:0:0:
196,318,221035,37,2,0:0:0:0:
246,292,221160,5,2,0:0:0:0:
286,306,221285,38,0,L|333:295,1,46.7500008916855,2|2,0:0|0:0,0:0:0:0:
404,274,221535,1,2,0:0:0:0:
482,283,221660,6,0,B|465:270|465:270|422:281|422:281|412:361|363:371,1,181.500005538941,6|0,1:2|1:0,0:0:0:0:
483,174,222410,38,0,P|441:171|402:159,1,82.5,0|0,1:0|0:0,0:0:0:0:
483,174,222785,1,0,1:0:0:0:
245,259,223160,6,0,B|194:248|144:319|71:296,2,165,8|8|8,0:0|0:0|0:0,0:0:0:0:
75,288,224285,1,8,0:0:0:0:
147,95,224472,37,0,0:0:0:0:
147,95,224566,1,0,0:0:0:0:
147,95,224660,2,0,B|143:138|143:138|155:188,1,82.5,6|0,1:2|0:0,0:0:0:0:
253,43,225035,2,0,L|236:-21,2,44,0|0|0,1:0|1:0|1:0,0:0:0:0:
321,83,225410,2,0,L|455:52,1,123.75,0|0,1:0|0:0,0:0:0:0:
441,55,225785,6,0,B|418:190|557:143|525:304|450:345|381:289|390:220|427:194,1,371.249988670349,12|0,1:2|0:0,0:0:0:0:
428,197,226910,38,0,L|461:204,2,20.625,2|0|2,0:0|0:0|0:0,0:0:0:0:
343,177,227285,1,2,0:0:0:0:
30,122,227660,85,2,0:0:0:0:
141,325,229160,5,2,0:0:0:0:
343,177,230660,101,2,0:0:0:0:
160,215,232066,6,0,L|143:218,3,10.3125,0|0|0|2,0:0|0:0|0:0|0:0,0:0:0:0:
216,10,233660,101,2,0:0:0:0:
141,325,235097,6,0,L|146:302,2,13.75,0|0|2,0:0|0:0|0:0,0:0:0:0:
212,115,236660,101,2,0:0:0:0:
314,53,237035,1,2,0:0:0:0:
316,172,237410,1,2,0:0:0:0:
216,10,238160,5,2,0:0:0:0:
404,234,239660,102,0,P|395:177|388:120,1,115.49999647522,2|0,0:0|0:0,0:0:0:0:
493,281,240410,2,0,P|462:328|398:337,1,115.49999647522,2|2,0:0|0:0,0:0:0:0:
180,172,241160,6,0,P|237:180|294:187,1,115.49999647522,2|0,0:0|0:0,0:0:0:0:
138,270,241910,2,0,P|91:239|82:175,1,115.49999647522,2|2,0:0|0:0,0:0:0:0:
164,57,242660,102,0,P|172:114|179:171,1,115.49999647522,2|2,0:0|0:0,0:0:0:0:
364,325,243410,2,0,P|355:267|348:210,1,115.49999647522,2|2,0:0|0:0,0:0:0:0:
180,171,244160,6,0,B|343:191|273:67|441:87,1,288.74999118805,2|0,0:0|0:0,0:0:0:0:
216,35,246410,2,0,P|220:63|225:91,2,41.25,2|2|2,0:0|0:0|0:0,0:0:0:0:
346,208,247160,102,0,P|366:260|337:317,1,115.49999647522,2|2,0:0|0:0,0:0:0:0:
158,179,247910,2,0,P|192:134|257:131,1,115.49999647522,2|2,0:0|0:0,0:0:0:0:
228,356,248660,2,0,P|172:347|137:293,1,115.49999647522,2|0,0:0|0:0,0:0:0:0:
353,80,249410,6,0,P|348:108|344:137,1,57.7499982376099,2|2,0:0|0:0,0:0:0:0:
239,185,249785,2,0,P|243:156|247:127,1,57.7499982376099,2|2,0:0|0:0,0:0:0:0:
333,258,250160,2,0,P|298:302|233:305,1,115.49999647522,2|0,0:0|0:0,0:0:0:0:
66,146,250722,101,2,0:0:0:0:
66,146,250910,2,0,P|94:150|123:154,1,57.7499982376099,2|2,0:0|0:0,0:0:0:0:
168,69,251285,2,0,P|139:64|110:60,1,57.7499982376099,2|2,0:0|0:0,0:0:0:0:
0,245,251660,6,0,B|80:224|86:274|172:252,1,173.24999471283,2|0,0:0|0:0,0:0:0:0:
290,92,252410,2,0,P|285:120|281:149,1,57.7499982376099,2|2,0:0|0:0,0:0:0:0:
410,307,252785,2,0,P|414:278|418:249,1,57.7499982376099,2|2,0:0|0:0,0:0:0:0:
254,330,253160,101,6,0:0:0:0:
268,240,253347,1,0,1:0:0:0:
282,150,253535,1,0,1:0:0:0:
296,60,253722,5,0,1:0:0:0:
296,60,253816,1,0,1:0:0:0:
296,60,253910,1,2,1:2:0:0:
372,164,254097,1,0,1:0:0:0:
268,240,254285,1,0,1:0:0:0:
192,136,254472,1,0,1:0:0:0:
385,71,254660,22,0,P|457:117|466:195,1,165,6|0,1:2|3:0,0:0:0:0:
254,330,255222,1,0,3:0:0:0:
234,327,255316,1,0,3:0:0:0:
214,324,255410,2,0,P|132:311|50:300,1,165,0|0,1:0|3:0,0:0:0:0:
158,150,255972,53,0,3:0:0:0:
161,130,256066,1,0,3:0:0:0:
164,108,256160,1,0,1:0:0:0:
164,108,256535,2,0,P|157:153|150:190,1,82.5,2|0,3:2|3:0,0:0:0:0:
132,311,256910,101,8,1:2:0:0:
273,208,257097,1,8,1:2:0:0:
151,189,257285,1,8,1:2:0:0:
254,330,257472,1,8,1:2:0:0:
339,133,257660,86,0,B|419:112|428:165|508:141,1,165,6|0,1:2|3:0,0:0:0:0:
458,49,258222,1,2,0:0:0:0:
458,49,258316,1,0,3:0:0:0:
458,49,258410,2,0,P|376:37|294:25,1,165,2|0,1:2|3:0,0:0:0:0:
98,97,258972,5,2,0:0:0:0:
98,97,259066,1,0,3:0:0:0:
98,97,259160,2,0,P|54:143|60:239,1,165,2|2,1:2|3:2,0:0:0:0:
151,189,259722,69,0,3:0:0:0:
151,189,259816,1,0,3:0:0:0:
151,189,259910,1,8,1:2:0:0:
45,5,260097,1,8,1:2:0:0:
204,97,260285,5,8,1:2:0:0:
257,5,260472,1,10,1:2:0:0:
310,96,260660,54,0,P|318:150|295:196,1,82.5,6|2,1:2|0:0,0:0:0:0:
48,115,261035,2,0,P|78:87|118:76,1,82.5,2|2,3:2|0:0,0:0:0:0:
197,332,261410,2,0,P|146:311|117:269,1,82.5,2|2,1:2|0:0,0:0:0:0:
179,182,261785,1,2,3:2:0:0:
297,290,261972,1,0,3:0:0:0:
274,123,262160,102,0,P|228:79|132:85,1,165,2|2,1:2|3:2,0:0:0:0:
382,83,262722,1,0,3:0:0:0:
382,83,262816,1,0,3:0:0:0:
382,83,262910,2,0,P|376:124|370:165,1,82.5,8|8,1:2|1:2,0:0:0:0:
378,278,263285,2,0,P|337:284|296:290,1,82.5,8|10,1:2|1:2,0:0:0:0:
97,170,263660,86,0,P|138:176|179:182,1,82.5,6|2,1:2|0:0,0:0:0:0:
34,246,264035,2,0,P|9:217|4:163,1,82.5,2|2,3:2|0:0,0:0:0:0:
285,41,264410,2,0,P|279:82|273:123,1,82.5,2|2,1:2|0:0,0:0:0:0:
50,73,264785,5,2,3:2:0:0:
50,73,264879,1,0,3:0:0:0:
50,73,264973,1,0,3:0:0:0:
50,73,265066,1,0,3:0:0:0:
50,73,265160,2,0,P|91:79|132:85,1,82.5,2|0,1:2|0:0,0:0:0:0:
249,285,265535,1,6,3:2:0:0:
249,285,265910,70,0,P|229:251|230:222,2,55,8|0|8,1:2|1:2|0:3,0:0:0:0:
317,228,266285,2,0,P|316:188|332:163,2,55,8|0|4,1:2|1:2|0:3,0:0:0:0:
375,314,266660,6,0,P|425:251|413:172,1,165,6|0,1:2|3:0,0:0:0:0:
302,63,267222,1,0,3:0:0:0:
302,63,267316,1,0,3:0:0:0:
302,63,267410,2,0,P|296:105|291:144,1,82.5,0|0,1:0|0:0,0:0:0:0:
215,309,267785,2,0,P|209:268|204:227,1,82.5,0|0,3:0|3:0,0:0:0:0:
183,101,268160,54,0,P|120:50|41:62,1,165,0|2,1:0|3:2,0:0:0:0:
81,234,268722,1,2,3:2:0:0:
81,234,268816,1,0,3:0:0:0:
81,234,268910,2,0,P|86:191|91:152,1,82.5,8|8,1:2|1:2,0:0:0:0:
172,19,269285,2,0,P|177:61|182:100,1,82.5,8|8,1:2|1:2,0:0:0:0:
215,309,269660,102,0,B|287:288|299:339|376:320,1,165,6|0,1:2|3:0,0:0:0:0:
324,156,270222,1,2,0:0:0:0:
324,156,270316,1,0,3:0:0:0:
324,156,270410,2,0,P|329:196|334:237,1,82.5,2|0,1:2|0:0,0:0:0:0:
454,375,270785,2,0,P|471:338|467:297,1,82.5,0|2,3:0|0:0,0:0:0:0:
179,160,271160,2,0,P|201:193|239:210,1,82.5,2|0,1:2|0:0,0:0:0:0:
408,4,271535,85,6,1:2:0:0:
408,4,271910,1,8,1:2:0:0:
441,121,272097,1,8,1:2:0:0:
324,156,272285,1,8,1:2:0:0:
289,37,272472,1,10,1:2:0:0:
441,121,272660,6,0,P|446:161|451:202,1,82.5,6|0,1:2|0:0,0:0:0:0:
300,341,273035,2,0,P|305:300|310:259,1,82.5,2|0,1:2|1:0,0:0:0:0:
230,122,273410,70,0,P|191:131|162:160,1,82.5,14|0,0:0|1:0,0:0:0:0:
324,156,273785,2,0,P|335:117|325:78,1,82.5,2|8,0:0|0:0,0:0:0:0:
210,285,274160,6,0,P|220:203|230:121,1,165,6|2,1:2|1:2,0:0:0:0:
230,121,274722,1,0,0:0:0:0:
48,41,274910,2,0,P|53:81|58:122,1,82.5,10|2,0:0|1:2,0:0:0:0:
126,251,275285,2,0,P|131:210|136:169,1,82.5,8|2,0:3|0:0,0:0:0:0:
205,37,275660,54,0,P|302:51|329:139,1,165,6|0,1:2|1:0,0:0:0:0:
379,191,276222,1,8,0:0:0:0:
379,191,276316,1,8,0:0:0:0:
379,191,276410,2,0,P|410:164|421:123,1,82.5,2|2,1:2|1:2,0:0:0:0:
205,37,276785,2,0,P|236:63|247:105,1,82.5,2|2,1:2|1:2,0:0:0:0:
192,240,277160,102,0,B|191:222|211:200|243:188|275:190|311:209|334:307|253:279|235:365|235:365|169:307|125:384|79:293|91:255|117:231|149:221|169:230,1,536.249975452424,4|0,0:0|0:0,0:0:0:0:
354,373,279222,86,0,P|380:369|405:365,1,51.5625,8|8,0:0|0:0,0:0:0:0:
426,379,279410,2,0,P|420:338|414:297,1,82.5,14|0,1:2|1:0,0:0:0:0:
212,54,279785,5,0,1:0:0:0:
212,54,280160,2,0,P|159:109|161:178,1,123.75,6|0,1:2|0:0,0:0:0:0:
268,193,280535,2,0,P|264:166|261:139,2,55,2|2|2,3:2|3:2|3:2,0:0:0:0:
353,150,280910,70,0,B|420:128|427:175|498:157,1,148.49999546814,0|0,3:0|0:0,0:0:0:0:
508,141,281285,2,0,P|504:113|500:86,2,55,2|2|2,3:2|3:2|3:2,0:0:0:0:
486,294,281660,6,0,P|426:288|388:241,1,123.750004720688,0|8,3:0|3:2,0:0:0:0:
211,53,282410,2,0,P|151:59|113:106,1,123.750004720688,0|8,3:1|3:2,0:0:0:0:
247,351,283160,54,0,B|234:282|271:275|254:205,1,142.312502714396,6|0,1:2|0:0,0:0:0:0:
164,242,283535,2,0,P|136:238|109:234,2,55,2|2|2,3:2|3:2|3:2,0:0:0:0:
341,313,283910,102,0,P|414:302|487:291,1,148.49999546814,0|0,3:0|0:0,0:0:0:0:
504,289,284285,2,0,P|513:243|498:208,2,55,2|2|2,3:2|3:2|3:2,0:0:0:0:
247,351,284660,86,0,P|203:301|205:243,1,123.750004720688,0|8,3:0|3:2,0:0:0:0:
265,33,285410,2,0,P|309:83|307:141,1,123.750004720688,0|8,3:1|3:2,0:0:0:0:
124,346,286160,6,0,P|63:337|2:328,1,123.750004720688,6|2,1:2|3:2,0:0:0:0:
301,240,286910,2,0,P|362:248|423:257,1,123.750004720688,0|2,3:0|3:2,0:0:0:0:
206,147,287660,2,0,P|144:138|83:129,1,123.750004720688,0|8,3:0|3:2,0:0:0:0:
377,23,288410,2,0,P|438:31|499:40,1,123.750004720688,0|8,3:1|3:2,0:0:0:0:
499,40,288972,1,0,0:0:0:0:
206,147,289160,70,0,B|150:131|143:166|83:153,1,123.750004720688,6|2,1:2|3:2,0:0:0:0:
301,240,289910,2,0,B|358:239|356:274|416:277,1,123.750004720688,0|2,3:0|3:2,0:0:0:0:
112,306,290660,5,0,3:0:0:0:
30,319,290847,1,0,3:1:0:0:
179,355,291035,54,0,P|205:315|197:226,1,123.750004720688,12|0,3:2|3:1,0:0:0:0:
302,148,291597,1,0,3:1:0:0:
302,148,291785,2,0,P|290:108|266:80,1,61.875002360344,0|0,3:1|3:1,0:0:0:0:
104,14,292160,102,0,P|94:83|83:154,1,140.250002675056,6|0,1:2|1:0,0:0:0:0:
83,152,292722,1,0,1:0:0:0:
204,240,292910,2,0,B|266:222|274:261|342:246,1,140.250002675056,10|0,0:0|0:0,0:0:0:0:
112,306,293472,1,2,0:0:0:0:
112,306,293566,1,2,0:0:0:0:
112,306,293660,86,0,P|77:301|42:295,1,70.1250013375282,2|0,1:2|1:0,0:0:0:0:
202,74,294035,2,0,P|259:82|301:162,1,140.250002675056,2|10,1:2|0:0,0:0:0:0:
341,246,294597,1,0,1:0:0:0:
341,246,294785,2,0,P|367:223|383:192,1,70.1250013375282,0|2,1:0|1:2,0:0:0:0:
204,240,295160,6,0,P|214:309|224:380,1,140.250002675056,6|2,1:2|1:2,0:0:0:0:
465,147,295910,2,0,P|455:78|444:6,1,140.250002675056,14|0,1:2|0:0,0:0:0:0:
301,147,296660,70,0,P|266:142|231:136,1,70.1250013375282,6|0,1:2|1:0,0:0:0:0:
341,246,297035,2,0,P|375:251|410:256,1,70.1250013375282,0|0,1:0|0:0,0:0:0:0:
431,262,297316,1,0,0:0:0:0:
431,262,297410,1,8,0:0:0:0:
281,55,297597,1,0,1:0:0:0:
111,224,297785,2,0,P|128:198|134:140,2,47.4375009047985,2|0|0,1:2|0:0|0:0,0:0:0:0:
37,154,298160,6,0,P|4:102|5:41,1,123.750004720688,2|2,0:0|0:0,0:0:0:0:
213,229,298910,2,0,P|214:291|182:343,1,123.750004720688,2|2,0:0|0:0,0:0:0:0:
8,323,299660,54,0,P|13:286|19:243,1,74.2499977340699,2|0,0:0|0:0,0:0:0:0:
157,79,300222,1,2,0:0:0:0:
157,79,300410,2,0,P|162:42|168:6,1,74.2499977340699,2|2,0:0|0:0,0:0:0:0:
312,173,301160,102,0,P|253:183|214:229,1,123.750004720688,2|2,0:0|0:0,0:0:0:0:
403,326,301910,2,0,P|364:280|305:271,1,123.750004720688,2|2,0:0|0:0,0:0:0:0:
129,309,302660,85,2,0:0:0:0:
409,199,303410,2,0,P|410:138|370:92,1,123.750004720688,2|2,0:0|0:0,0:0:0:0:
168,5,304160,6,0,P|177:66|186:127,2,123.750004720688,2|2|2,0:0|0:0|0:0,0:0:0:0:
207,249,305597,70,0,P|204:234|201:220,2,20.6250007867813,0|0|2,0:0|0:0|0:0,0:0:0:0:
117,190,306035,6,0,P|76:196|35:202,1,82.5,0|2,0:0|0:0,0:0:0:0:
273,158,306972,1,2,0:0:0:0:
273,158,307160,2,0,P|283:124|275:66,2,82.5,2|2|2,0:0|0:0|0:0,0:0:0:0:
168,340,308285,1,2,0:0:0:0:
19,89,308660,54,0,P|59:95|100:101,1,82.5,2|2,0:0|0:0,0:0:0:0:
311,256,309410,2,0,P|351:261|392:268,1,82.5,2|2,0:0|0:0,0:0:0:0:
168,340,310097,101,2,0:0:0:0:
168,340,310160,1,2,0:0:0:0:
168,340,310222,2,0,B|100:320|92:362|19:347,1,151.25,2|2,0:0|0:0,0:0:0:0:
194,167,311660,2,0,P|200:207|206:248,2,82.5,2|2|2,0:0|0:0|0:0,0:0:0:0:
349,309,313113,86,0,P|341:309|332:311,1,10.3125,2|2,0:0|0:0,0:0:0:0:
321,323,313206,2,0,P|314:287|306:247,1,72.1875,2|2,0:0|0:0,0:0:0:0:
117,222,313910,2,0,P|74:229|33:235,1,82.5,2|2,0:0|0:0,0:0:0:0:
197,77,314660,6,0,P|235:80|274:116,2,82.5,2|2|2,0:0|0:0|0:0,0:0:0:0:
321,323,316097,2,0,P|322:311|324:301,2,13.75,2|2|2,0:0|0:0|0:0,0:0:0:0:
419,238,317660,70,0,P|352:226|287:216,1,123.75,2|0,0:0|0:0,0:0:0:0:
209,200,318410,1,2,0:0:0:0:
209,200,318972,6,0,P|181:204|153:209,1,49.5,2|2,0:0|0:0,0:0:0:0:
