osu file format v14

[General]
AudioFilename: 01. Ao To Natsu.mp3
AudioLeadIn: 0
PreviewTime: 46155
Countdown: 0
SampleSet: Normal
StackLeniency: 0.4
Mode: 1
LetterboxInBreaks: 0
EpilepsyWarning: 1
WidescreenStoryboard: 1

[Editor]
DistanceSpacing: 1.4
BeatDivisor: 4
GridSize: 4
TimelineZoom: 1.300002

[Metadata]
Title:Ao to Natsu
TitleUnicode:青と夏
Artist:Mrs. GREEN APPLE
ArtistUnicode:Mrs. GREEN APPLE
Creator:gokugohan12468
Version:Raytoly's Oni
Source:青夏 きみに恋した30日
Tags:blue and summer 30 days in love with you ost original soundtrack movie ao natsu: kimi ni koi shita 30 nichi theme song ミセスグリーンアップル motoki omori 大森元貴 hiroto wakai 若井滉斗 ayaka yamanaka 山中綾華 ryoka fujisawa 藤澤涼架 kiyokatsu takano 髙野清宗 FunnyA KittyAdventure ulfanirahmi Raytoly Rhytoly short cut ver version size Attitude jpop pop japanese ohmori
BeatmapID:2371224
BeatmapSetID:992659

[Difficulty]
HPDrainRate:5.5
CircleSize:4
OverallDifficulty:5.5
ApproachRate:9.3
SliderMultiplier:1.4
SliderTickRate:2

[Events]
//Background and Video events
0,0,"1dee453148920d75578a6478faea55a6.jpg",0,0
//Break Periods
//Storyboard Layer 0 (Background)
//Storyboard Layer 1 (Fail)
//Storyboard Layer 2 (Pass)
//Storyboard Layer 3 (Foreground)
//Storyboard Layer 4 (Overlay)
//Storyboard Sound Samples

[TimingPoints]
1804,324.324324324324,4,1,0,100,1,0
12182,-100,4,1,0,100,0,1
22560,-100,4,1,0,100,0,0
45912,324.324324324324,4,1,0,100,1,8
46560,324.324324324324,4,1,0,100,1,1
67316,-100,4,1,0,100,0,0
72505,-100,4,1,0,100,0,1
91965,-100,4,1,0,100,0,0

[Colours]
Combo1 : 65,155,200
Combo2 : 255,128,255
Combo3 : 255,0,255
Combo4 : 255,128,192
Combo5 : 128,128,192
Combo6 : 91,102,196
Combo7 : 68,183,200
Combo8 : 124,151,200

[HitObjects]
292,222,1641,5,0,0:0:0:0:
292,222,1722,1,0,0:0:0:0:
292,222,1804,1,8,0:0:0:0:
253,194,2128,1,0,0:0:0:0:
268,196,2290,1,8,0:0:0:0:
259,199,2452,1,0,0:0:0:0:
257,199,2614,1,0,0:0:0:0:
253,194,2776,1,8,0:0:0:0:
258,197,2939,1,8,0:0:0:0:
259,197,3101,1,0,0:0:0:0:
250,192,3425,1,8,0:0:0:0:
250,192,3587,1,0,0:0:0:0:
253,194,3749,1,8,0:0:0:0:
250,192,3912,1,8,0:0:0:0:
251,192,4074,1,0,0:0:0:0:
251,193,4236,1,8,0:0:0:0:
250,192,4398,1,4,0:0:0:0:
234,168,4722,5,8,0:0:0:0:
250,192,4885,1,8,0:0:0:0:
235,172,5047,1,0,0:0:0:0:
235,172,5209,1,8,0:0:0:0:
235,172,5371,1,0,0:0:0:0:
234,168,5533,1,0,0:0:0:0:
256,191,5695,1,8,0:0:0:0:
241,174,6020,1,8,0:0:0:0:
244,179,6182,1,8,0:0:0:0:
252,187,6344,1,0,0:0:0:0:
255,192,6506,1,12,0:0:0:0:
224,179,6831,5,8,0:0:0:0:
224,179,6993,1,4,0:0:0:0:
235,180,7317,1,0,0:0:0:0:
235,180,7479,1,0,0:0:0:0:
235,180,7641,1,8,0:0:0:0:
235,180,7803,1,0,0:0:0:0:
235,180,7966,1,8,0:0:0:0:
235,180,8128,1,8,0:0:0:0:
235,180,8290,1,0,0:0:0:0:
235,180,8614,1,8,0:0:0:0:
235,180,8776,1,0,0:0:0:0:
235,180,8939,1,8,0:0:0:0:
235,180,9101,1,8,0:0:0:0:
235,180,9263,1,0,0:0:0:0:
235,180,9425,1,8,0:0:0:0:
235,180,9587,1,4,0:0:0:0:
235,180,9912,1,0,0:0:0:0:
235,180,10074,1,0,0:0:0:0:
235,180,10236,1,8,0:0:0:0:
235,180,10398,1,0,0:0:0:0:
235,180,10560,1,12,0:0:0:0:
248,176,10885,1,0,0:0:0:0:
184,32,11047,1,0,0:0:0:0:
251,175,11209,1,0,0:0:0:0:
176,80,11290,1,0,0:0:0:0:
251,175,11371,1,0,0:0:0:0:
251,175,11452,1,0,0:0:0:0:
251,175,11533,1,8,0:0:0:0:
233,231,12182,1,4,0:0:0:0:
223,192,12506,1,8,0:0:0:0:
227,207,12668,1,0,0:0:0:0:
227,207,12749,1,0,0:0:0:0:
227,207,12831,1,8,0:0:0:0:
227,207,12993,1,0,0:0:0:0:
227,207,13155,1,8,0:0:0:0:
227,207,13317,1,8,0:0:0:0:
227,207,13479,1,0,0:0:0:0:
251,175,13803,1,8,0:0:0:0:
258,170,13966,1,0,0:0:0:0:
258,170,14047,1,0,0:0:0:0:
258,170,14128,1,8,0:0:0:0:
257,171,14290,1,0,0:0:0:0:
257,171,14452,1,8,0:0:0:0:
257,171,14614,1,8,0:0:0:0:
242,161,14695,1,8,0:0:0:0:
257,171,14776,1,0,0:0:0:0:
246,176,15101,1,8,0:0:0:0:
224,149,15263,1,0,0:0:0:0:
262,177,15425,1,0,0:0:0:0:
262,177,15506,1,0,0:0:0:0:
262,177,15587,1,0,0:0:0:0:
262,177,15749,1,8,0:0:0:0:
248,164,15912,1,8,0:0:0:0:
248,164,16074,1,0,0:0:0:0:
248,164,16398,1,0,0:0:0:0:
248,164,16560,1,8,0:0:0:0:
248,164,16641,1,0,0:0:0:0:
248,164,16722,1,8,0:0:0:0:
248,164,16803,1,8,0:0:0:0:
250,159,16885,1,0,0:0:0:0:
244,145,17047,1,8,0:0:0:0:
244,145,17209,1,8,0:0:0:0:
231,141,17371,1,4,0:0:0:0:
224,148,17695,1,8,0:0:0:0:
227,168,17858,1,0,0:0:0:0:
246,166,18020,1,8,0:0:0:0:
246,166,18182,1,0,0:0:0:0:
246,166,18263,1,0,0:0:0:0:
246,166,18344,1,8,0:0:0:0:
246,166,18506,1,8,0:0:0:0:
246,166,18668,1,0,0:0:0:0:
246,166,18993,1,8,0:0:0:0:
246,166,19155,1,0,0:0:0:0:
246,166,19317,1,8,0:0:0:0:
246,166,19398,1,8,0:0:0:0:
246,166,19479,1,0,0:0:0:0:
239,144,19560,1,0,0:0:0:0:
246,166,19641,1,8,0:0:0:0:
246,166,19803,1,0,0:0:0:0:
246,166,19966,1,8,0:0:0:0:
257,181,20047,1,0,0:0:0:0:
266,183,20128,1,8,0:0:0:0:
266,183,20290,1,0,0:0:0:0:
196,184,20452,1,8,0:0:0:0:
263,200,20614,1,8,0:0:0:0:
323,164,20695,1,8,0:0:0:0:
323,164,20776,1,0,0:0:0:0:
323,164,20939,1,0,0:0:0:0:
323,164,21101,1,8,0:0:0:0:
232,141,21182,1,8,0:0:0:0:
281,159,21263,1,8,0:0:0:0:
302,167,21587,1,12,0:0:0:0:
222,169,21912,1,0,0:0:0:0:
222,169,22074,1,0,0:0:0:0:
222,169,22236,1,8,0:0:0:0:
222,169,22398,1,8,0:0:0:0:
262,164,22560,1,4,0:0:0:0:
249,182,22885,1,0,0:0:0:0:
249,182,23209,1,8,0:0:0:0:
246,184,23533,1,8,0:0:0:0:
249,182,23695,1,8,0:0:0:0:
249,182,23858,1,0,0:0:0:0:
249,182,24182,1,8,0:0:0:0:
246,184,24506,1,0,0:0:0:0:
249,182,25155,1,8,0:0:0:0:
246,184,25479,1,0,0:0:0:0:
249,182,25803,1,0,0:0:0:0:
249,182,26128,1,8,0:0:0:0:
246,184,26290,1,8,0:0:0:0:
246,184,26452,1,0,0:0:0:0:
249,182,26776,1,8,0:0:0:0:
249,182,27101,1,12,0:0:0:0:
239,165,27344,1,12,0:0:0:0:
239,165,27587,1,12,0:0:0:0:
239,165,27749,1,4,0:0:0:0:
233,170,28074,1,0,0:0:0:0:
233,170,28398,1,8,0:0:0:0:
230,168,28722,1,8,0:0:0:0:
233,170,28885,1,0,0:0:0:0:
233,170,29047,1,8,0:0:0:0:
244,173,29371,1,0,0:0:0:0:
244,173,29695,1,0,0:0:0:0:
244,173,30020,1,8,0:0:0:0:
244,173,30344,1,0,0:0:0:0:
244,173,30668,1,0,0:0:0:0:
244,173,30993,1,8,0:0:0:0:
244,173,31317,1,8,0:0:0:0:
244,173,31641,1,0,0:0:0:0:
244,173,31966,1,8,0:0:0:0:
244,173,32290,1,8,0:0:0:0:
244,173,32452,1,8,0:0:0:0:
244,173,32614,1,8,0:0:0:0:
244,173,32776,1,8,0:0:0:0:
244,173,32939,1,4,0:0:0:0:
203,164,33263,1,8,0:0:0:0:
269,126,33587,1,0,0:0:0:0:
232,168,33749,1,0,0:0:0:0:
203,164,33912,1,8,0:0:0:0:
229,153,34074,1,0,0:0:0:0:
203,164,34236,1,8,0:0:0:0:
178,127,34398,1,8,0:0:0:0:
203,164,34560,1,0,0:0:0:0:
203,164,34885,1,8,0:0:0:0:
203,164,35047,1,8,0:0:0:0:
203,164,35209,1,0,0:0:0:0:
224,161,35533,1,0,0:0:0:0:
273,148,35695,1,0,0:0:0:0:
240,154,35858,1,8,0:0:0:0:
229,175,36182,1,8,0:0:0:0:
216,154,36344,1,0,0:0:0:0:
216,154,36506,1,8,0:0:0:0:
216,154,36668,1,8,0:0:0:0:
216,154,36831,1,0,0:0:0:0:
261,151,36993,1,8,0:0:0:0:
216,154,37155,1,0,0:0:0:0:
216,154,37479,1,0,0:0:0:0:
216,154,37641,1,0,0:0:0:0:
216,154,37803,1,12,0:0:0:0:
216,154,38128,1,0,0:0:0:0:
241,137,38290,1,0,0:0:0:0:
228,162,38452,1,8,0:0:0:0:
228,162,38776,1,8,0:0:0:0:
228,162,38939,1,8,0:0:0:0:
228,162,39101,1,0,0:0:0:0:
228,162,39263,1,8,0:0:0:0:
228,162,39425,1,0,0:0:0:0:
241,137,39587,1,0,0:0:0:0:
228,162,39749,1,8,0:0:0:0:
241,137,39912,1,8,0:0:0:0:
228,162,40074,1,0,0:0:0:0:
249,168,40398,1,0,0:0:0:0:
249,168,40722,1,12,0:0:0:0:
235,193,41047,1,0,0:0:0:0:
237,193,41209,1,0,0:0:0:0:
237,193,41371,1,8,0:0:0:0:
222,183,41533,1,0,0:0:0:0:
222,183,41695,1,8,0:0:0:0:
235,167,41858,1,8,0:0:0:0:
236,167,42020,1,0,0:0:0:0:
226,199,42344,1,8,0:0:0:0:
257,155,42506,1,0,0:0:0:0:
257,155,42668,1,8,0:0:0:0:
257,155,42831,1,8,0:0:0:0:
257,155,42912,1,8,0:0:0:0:
257,155,42993,1,0,0:0:0:0:
238,159,43155,1,0,0:0:0:0:
238,159,43317,1,12,0:0:0:0:
208,168,43641,1,8,0:0:0:0:
228,167,43803,1,0,0:0:0:0:
228,167,43966,1,8,0:0:0:0:
228,167,44128,1,0,0:0:0:0:
228,167,44290,1,8,0:0:0:0:
228,167,44452,1,0,0:0:0:0:
228,167,44614,1,12,0:0:0:0:
228,194,44939,1,8,0:0:0:0:
228,194,45101,1,0,0:0:0:0:
228,194,45263,1,8,0:0:0:0:
228,194,45344,1,8,0:0:0:0:
228,194,45425,1,8,0:0:0:0:
228,194,45506,1,8,0:0:0:0:
228,194,45587,1,0,0:0:0:0:
223,195,45668,1,0,0:0:0:0:
223,195,45749,1,0,0:0:0:0:
223,195,45831,1,0,0:0:0:0:
227,183,45912,1,8,0:0:0:0:
252,197,46236,1,8,0:0:0:0:
237,198,46398,1,0,0:0:0:0:
237,198,46479,1,0,0:0:0:0:
258,189,46560,1,0,0:0:0:0:
250,172,46722,1,0,0:0:0:0:
226,174,46884,1,8,0:0:0:0:
221,161,47046,1,0,0:0:0:0:
229,162,47127,1,0,0:0:0:0:
233,162,47208,1,8,0:0:0:0:
233,162,47289,1,8,0:0:0:0:
233,162,47370,1,0,0:0:0:0:
233,162,47532,1,8,0:0:0:0:
252,126,47695,1,0,0:0:0:0:
244,152,47776,1,0,0:0:0:0:
244,152,47857,1,8,0:0:0:0:
244,152,48181,1,0,0:0:0:0:
244,152,48343,1,0,0:0:0:0:
244,152,48424,1,0,0:0:0:0:
244,152,48505,1,8,0:0:0:0:
237,157,48668,1,0,0:0:0:0:
237,157,48830,1,8,0:0:0:0:
237,157,48911,1,8,0:0:0:0:
237,157,48992,1,8,0:0:0:0:
237,157,49073,1,8,0:0:0:0:
237,157,49154,1,0,0:0:0:0:
224,141,49316,1,0,0:0:0:0:
237,157,49478,1,8,0:0:0:0:
237,157,49641,1,0,0:0:0:0:
237,157,49722,1,0,0:0:0:0:
237,157,49803,1,8,0:0:0:0:
237,157,49965,1,0,0:0:0:0:
238,159,50127,1,8,0:0:0:0:
237,157,50208,1,0,0:0:0:0:
298,170,50289,1,0,0:0:0:0:
244,123,50370,1,0,0:0:0:0:
253,200,50451,1,8,0:0:0:0:
253,200,50776,1,8,0:0:0:0:
253,200,50938,1,8,0:0:0:0:
253,200,51019,1,8,0:0:0:0:
253,200,51100,1,0,0:0:0:0:
253,200,51262,1,0,0:0:0:0:
253,200,51424,1,8,0:0:0:0:
285,162,51505,1,8,0:0:0:0:
253,200,51587,1,8,0:0:0:0:
270,172,51668,1,8,0:0:0:0:
251,179,51749,1,0,0:0:0:0:
300,191,51911,1,0,0:0:0:0:
300,191,52073,1,8,0:0:0:0:
300,191,52235,1,0,0:0:0:0:
300,191,52316,1,0,0:0:0:0:
300,191,52397,1,8,0:0:0:0:
300,191,52559,1,8,0:0:0:0:
300,191,52722,1,0,0:0:0:0:
300,191,52803,1,0,0:0:0:0:
300,191,52884,1,0,0:0:0:0:
282,186,52965,1,0,0:0:0:0:
277,152,53046,1,8,0:0:0:0:
282,186,53370,1,0,0:0:0:0:
282,185,53532,1,0,0:0:0:0:
281,175,53614,1,0,0:0:0:0:
227,152,53695,1,8,0:0:0:0:
276,181,53857,1,0,0:0:0:0:
278,179,54019,1,8,0:0:0:0:
278,179,54100,1,8,0:0:0:0:
278,179,54181,1,0,0:0:0:0:
278,179,54343,1,8,0:0:0:0:
278,179,54505,1,0,0:0:0:0:
267,183,54587,1,0,0:0:0:0:
267,183,54668,1,8,0:0:0:0:
267,183,54749,1,8,0:0:0:0:
267,183,54830,1,0,0:0:0:0:
267,183,54992,1,8,0:0:0:0:
267,183,55154,1,0,0:0:0:0:
267,183,55316,1,8,0:0:0:0:
267,183,55397,1,0,0:0:0:0:
267,183,55478,1,0,0:0:0:0:
267,183,55559,1,0,0:0:0:0:
267,183,55641,1,8,0:0:0:0:
260,182,55965,1,12,0:0:0:0:
251,198,56289,1,0,0:0:0:0:
150,162,56370,1,0,0:0:0:0:
167,165,56451,1,0,0:0:0:0:
182,169,56532,1,0,0:0:0:0:
251,198,56614,1,8,0:0:0:0:
251,198,56776,1,0,0:0:0:0:
251,198,56857,1,0,0:0:0:0:
250,198,56938,1,0,0:0:0:0:
242,182,57100,1,0,0:0:0:0:
242,181,57262,1,8,0:0:0:0:
242,181,57424,1,0,0:0:0:0:
242,181,57505,1,0,0:0:0:0:
271,205,57587,1,8,0:0:0:0:
249,129,57749,1,0,0:0:0:0:
249,129,57911,1,8,0:0:0:0:
249,129,57992,1,0,0:0:0:0:
249,129,58073,1,0,0:0:0:0:
249,129,58154,1,0,0:0:0:0:
249,129,58235,1,8,0:0:0:0:
150,159,58559,1,8,0:0:0:0:
250,177,58722,1,0,0:0:0:0:
244,175,58803,1,0,0:0:0:0:
244,175,58884,1,8,0:0:0:0:
244,175,59046,1,0,0:0:0:0:
237,208,59208,1,8,0:0:0:0:
244,175,59289,1,0,0:0:0:0:
236,202,59370,1,0,0:0:0:0:
244,175,59451,1,0,0:0:0:0:
239,200,59532,1,8,0:0:0:0:
221,185,59695,1,0,0:0:0:0:
222,185,59776,1,0,0:0:0:0:
222,185,59857,1,8,0:0:0:0:
223,185,60019,1,0,0:0:0:0:
225,185,60181,1,8,0:0:0:0:
237,146,60262,1,8,0:0:0:0:
231,185,60343,1,0,0:0:0:0:
231,185,60424,1,0,0:0:0:0:
231,185,60505,1,8,0:0:0:0:
231,185,60668,1,0,0:0:0:0:
231,185,60830,1,8,0:0:0:0:
242,198,61154,1,8,0:0:0:0:
242,198,61316,1,0,0:0:0:0:
242,198,61478,1,8,0:0:0:0:
242,198,61559,1,8,0:0:0:0:
227,198,61641,1,8,0:0:0:0:
179,198,61722,1,8,0:0:0:0:
158,194,61803,1,0,0:0:0:0:
256,207,62127,1,8,0:0:0:0:
256,208,62289,1,0,0:0:0:0:
256,208,62370,1,0,0:0:0:0:
256,208,62451,1,8,0:0:0:0:
256,207,62614,1,0,0:0:0:0:
256,207,62695,1,0,0:0:0:0:
256,207,62776,1,8,0:0:0:0:
256,207,62938,1,0,0:0:0:0:
256,207,63019,1,0,0:0:0:0:
256,207,63100,1,8,0:0:0:0:
256,208,63262,1,0,0:0:0:0:
256,208,63343,1,0,0:0:0:0:
256,208,63424,1,8,0:0:0:0:
196,135,63587,1,0,0:0:0:0:
265,149,63749,1,8,0:0:0:0:
265,149,63911,1,0,0:0:0:0:
174,121,63992,1,0,0:0:0:0:
265,149,64073,1,8,0:0:0:0:
265,149,64154,1,8,0:0:0:0:
265,149,64235,1,0,0:0:0:0:
265,149,64397,1,8,0:0:0:0:
265,149,64559,1,0,0:0:0:0:
265,149,64722,1,8,0:0:0:0:
265,149,64803,1,8,0:0:0:0:
265,149,64884,1,0,0:0:0:0:
265,149,65046,1,8,0:0:0:0:
266,157,65127,1,8,0:0:0:0:
266,157,65208,1,0,0:0:0:0:
266,157,65370,1,8,0:0:0:0:
266,157,65451,1,8,0:0:0:0:
266,157,65532,1,0,0:0:0:0:
266,157,65695,1,8,0:0:0:0:
266,157,65776,1,8,0:0:0:0:
266,157,65857,1,0,0:0:0:0:
266,157,66019,1,8,0:0:0:0:
319,168,66181,5,0,0:0:0:0:
319,168,66262,1,0,0:0:0:0:
264,174,66343,1,8,0:0:0:0:
264,174,66505,1,0,0:0:0:0:
264,174,66668,1,8,0:0:0:0:
264,174,66749,1,8,0:0:0:0:
264,174,66830,1,8,0:0:0:0:
264,174,66911,1,8,0:0:0:0:
265,175,66992,1,0,0:0:0:0:
272,171,67316,1,12,0:0:0:0:
273,192,67641,1,0,0:0:0:0:
272,189,67965,1,8,0:0:0:0:
272,189,68289,1,8,0:0:0:0:
273,192,68614,1,4,0:0:0:0:
236,175,69100,1,8,0:0:0:0:
267,181,69181,1,8,0:0:0:0:
229,171,69262,1,0,0:0:0:0:
240,171,69587,1,0,0:0:0:0:
240,171,69911,1,12,0:0:0:0:
245,161,70235,1,8,0:0:0:0:
245,161,70559,1,4,0:0:0:0:
245,161,70884,1,0,0:0:0:0:
245,161,71208,1,8,0:0:0:0:
255,167,71370,1,0,0:0:0:0:
255,167,71451,1,0,0:0:0:0:
255,167,71532,1,8,0:0:0:0:
234,139,71695,1,0,0:0:0:0:
234,139,71857,1,8,0:0:0:0:
235,170,72505,1,4,0:0:0:0:
257,152,72830,1,8,0:0:0:0:
229,132,72992,1,0,0:0:0:0:
236,149,73073,1,0,0:0:0:0:
236,150,73154,1,8,0:0:0:0:
236,150,73316,1,0,0:0:0:0:
230,151,73478,1,8,0:0:0:0:
231,153,73641,1,8,0:0:0:0:
231,153,73803,1,0,0:0:0:0:
231,153,74127,1,8,0:0:0:0:
258,158,74289,1,0,0:0:0:0:
230,151,74451,1,8,0:0:0:0:
230,151,74532,1,8,0:0:0:0:
231,153,74614,1,0,0:0:0:0:
231,153,74695,1,0,0:0:0:0:
231,153,74776,1,8,0:0:0:0:
231,153,74938,1,0,0:0:0:0:
231,153,75100,1,8,0:0:0:0:
248,186,75424,1,8,0:0:0:0:
248,186,75587,1,0,0:0:0:0:
248,186,75749,1,8,0:0:0:0:
248,186,75830,1,8,0:0:0:0:
248,186,75911,1,0,0:0:0:0:
248,186,76073,1,8,0:0:0:0:
248,186,76235,1,8,0:0:0:0:
248,186,76397,1,0,0:0:0:0:
248,186,76722,1,8,0:0:0:0:
248,186,76884,1,0,0:0:0:0:
302,209,76965,1,0,0:0:0:0:
266,194,77046,1,8,0:0:0:0:
263,199,77127,1,8,0:0:0:0:
244,197,77208,1,0,0:0:0:0:
239,196,77370,1,0,0:0:0:0:
239,196,77532,1,8,0:0:0:0:
239,196,77695,1,4,0:0:0:0:
228,171,78019,1,8,0:0:0:0:
225,157,78181,1,0,0:0:0:0:
225,157,78343,1,8,0:0:0:0:
225,157,78505,1,0,0:0:0:0:
220,153,78587,1,0,0:0:0:0:
210,149,78668,1,8,0:0:0:0:
244,185,78830,1,8,0:0:0:0:
256,142,78992,1,0,0:0:0:0:
256,142,79316,1,8,0:0:0:0:
271,161,79478,1,8,0:0:0:0:
242,135,79559,1,8,0:0:0:0:
271,161,79641,1,0,0:0:0:0:
271,161,79803,1,8,0:0:0:0:
257,174,79965,1,0,0:0:0:0:
256,173,80127,1,0,0:0:0:0:
195,160,80208,1,0,0:0:0:0:
254,173,80289,1,8,0:0:0:0:
238,194,80614,1,12,0:0:0:0:
238,194,80938,1,0,0:0:0:0:
211,142,81019,1,0,0:0:0:0:
238,194,81100,1,0,0:0:0:0:
238,194,81262,1,8,0:0:0:0:
211,142,81343,1,8,0:0:0:0:
238,194,81424,1,8,0:0:0:0:
238,194,81505,1,8,0:0:0:0:
238,194,81587,1,0,0:0:0:0:
243,175,81749,1,0,0:0:0:0:
246,176,81911,1,12,0:0:0:0:
266,185,82235,1,0,0:0:0:0:
206,112,82316,1,0,0:0:0:0:
206,112,82397,1,0,0:0:0:0:
206,112,82478,1,0,0:0:0:0:
206,112,82559,1,8,0:0:0:0:
266,185,82641,1,8,0:0:0:0:
266,185,82722,1,8,0:0:0:0:
266,185,82803,1,8,0:0:0:0:
264,184,82884,1,0,0:0:0:0:
276,200,83208,1,12,0:0:0:0:
243,171,83532,1,8,0:0:0:0:
240,172,83695,1,0,0:0:0:0:
240,172,83776,1,0,0:0:0:0:
240,172,83857,1,8,0:0:0:0:
243,171,84019,1,8,0:0:0:0:
243,171,84181,1,0,0:0:0:0:
243,171,84505,1,8,0:0:0:0:
240,172,84668,1,0,0:0:0:0:
240,172,84830,1,8,0:0:0:0:
195,148,84911,1,8,0:0:0:0:
243,171,84992,1,0,0:0:0:0:
243,171,85073,1,0,0:0:0:0:
195,148,85154,1,8,0:0:0:0:
201,148,85316,1,0,0:0:0:0:
243,171,85478,1,8,0:0:0:0:
243,177,85803,1,8,0:0:0:0:
243,177,85965,1,0,0:0:0:0:
245,158,86127,1,0,0:0:0:0:
245,158,86208,1,0,0:0:0:0:
245,158,86289,1,0,0:0:0:0:
244,157,86451,1,8,0:0:0:0:
241,157,86614,1,0,0:0:0:0:
241,157,86776,1,8,0:0:0:0:
245,158,87100,1,8,0:0:0:0:
267,147,87262,1,0,0:0:0:0:
267,147,87343,1,0,0:0:0:0:
267,147,87424,1,8,0:0:0:0:
267,147,87505,1,8,0:0:0:0:
267,147,87587,1,0,0:0:0:0:
265,147,87749,1,8,0:0:0:0:
263,147,87911,1,8,0:0:0:0:
271,144,88073,1,4,0:0:0:0:
265,178,88397,1,8,0:0:0:0:
265,178,88559,1,0,0:0:0:0:
265,178,88641,1,0,0:0:0:0:
273,182,88722,1,8,0:0:0:0:
273,182,88884,1,0,0:0:0:0:
273,182,88965,1,0,0:0:0:0:
273,182,89046,1,8,0:0:0:0:
273,182,89208,1,0,0:0:0:0:
273,182,89370,1,8,0:0:0:0:
273,182,89451,1,8,0:0:0:0:
273,182,89532,1,0,0:0:0:0:
273,182,89695,1,8,0:0:0:0:
273,182,89776,1,8,0:0:0:0:
273,182,89857,1,0,0:0:0:0:
273,182,90019,1,8,0:0:0:0:
273,182,90100,1,8,0:0:0:0:
280,179,90181,1,0,0:0:0:0:
285,171,90343,1,8,0:0:0:0:
251,153,90668,1,8,0:0:0:0:
108,142,90830,1,8,0:0:0:0:
265,153,90992,1,0,0:0:0:0:
227,155,91154,1,0,0:0:0:0:
265,153,91235,1,0,0:0:0:0:
227,155,91316,1,8,0:0:0:0:
227,155,91478,1,8,0:0:0:0:
265,153,91641,1,0,0:0:0:0:
328,177,91803,1,8,0:0:0:0:
161,147,91884,1,8,0:0:0:0:
328,177,91965,1,8,0:0:0:0:
256,192,92127,12,0,97154,0:0:0:0:
