osu file format v14

[General]
AudioFilename: 01. Ao To Natsu.mp3
AudioLeadIn: 0
PreviewTime: 46155
Countdown: 0
SampleSet: Soft
StackLeniency: 0.2
Mode: 0
LetterboxInBreaks: 0
EpilepsyWarning: 1
WidescreenStoryboard: 1

[Editor]
DistanceSpacing: 1
BeatDivisor: 4
GridSize: 4
TimelineZoom: 4

[Metadata]
Title:Ao to Natsu
TitleUnicode:青と夏
Artist:Mrs. GREEN APPLE
ArtistUnicode:Mrs. GREEN APPLE
Creator:gokugohan12468
Version:Normal
Source:青夏 きみに恋した30日
Tags:blue and summer 30 days in love with you ost original soundtrack movie ao natsu: kimi ni koi shita 30 nichi theme song ミセスグリーンアップル motoki omori 大森元貴 hiroto wakai 若井滉斗 ayaka yamanaka 山中綾華 ryoka fujisawa 藤澤涼架 kiyokatsu takano 髙野清宗 FunnyA KittyAdventure ulfanirahmi Raytoly Rhytoly short cut ver version size Attitude jpop pop japanese ohmori
BeatmapID:2075845
BeatmapSetID:992659

[Difficulty]
HPDrainRate:3
CircleSize:3.2
OverallDifficulty:4
ApproachRate:5
SliderMultiplier:1.1
SliderTickRate:1

[Events]
//Background and Video events
0,0,"1dee453148920d75578a6478faea55a6.jpg",0,0
//Break Periods
//Storyboard Layer 0 (Background)
//Storyboard Layer 1 (Fail)
//Storyboard Layer 2 (Pass)
//Storyboard Layer 3 (Foreground)
//Storyboard Layer 4 (Overlay)
//Storyboard Sound Samples

[TimingPoints]
1804,324.324324324324,4,2,1,50,1,0
12182,-100,4,2,1,70,0,1
22560,-100,4,2,1,50,0,0
40074,-100,4,2,1,50,0,0
40722,-100,4,2,1,60,0,0
45912,324.324324324324,4,2,1,50,1,8
45912,-100,4,2,1,50,0,0
46560,324.324324324324,4,2,2,70,1,1
46884,-100,4,2,1,70,0,1
56614,-100,4,2,1,50,0,0
56938,-100,4,2,1,70,0,1
61803,-100,4,2,1,50,0,0
62127,-100,4,2,1,70,0,1
71857,-100,4,2,1,50,0,0
72505,-100,4,2,2,70,0,1
72830,-100,4,2,1,70,0,1
82803,-100,4,2,1,70,0,0
82884,-100,4,2,1,70,0,1
91884,-100,4,2,1,70,0,0
91965,-100,4,2,2,70,0,1
97154,-100,4,2,2,5,0,0

[Colours]
Combo1 : 65,155,200
Combo2 : 255,128,255
Combo3 : 255,0,255
Combo4 : 255,128,192
Combo5 : 128,128,192
Combo6 : 91,102,196
Combo7 : 68,183,200
Combo8 : 124,151,200

[HitObjects]
84,117,1641,5,8,2:1:0:0:
84,117,1804,6,0,L|201:112,1,110,4|0,1:1|1:0,0:0:0:0:
228,147,2290,1,0,1:0:0:0:
228,147,2452,2,0,L|345:142,1,110,0|0,1:0|1:0,0:0:0:0:
423,93,3101,6,0,P|461:132|460:204,1,110,0|0,1:0|1:0,0:0:0:0:
454,232,3587,1,0,1:0:0:0:
454,232,3749,2,0,L|388:234,1,55,0|0,1:0|1:0,0:0:0:0:
368,273,4074,1,0,1:0:0:0:
277,308,4398,6,0,L|274:191,1,110,4|0,1:1|1:0,0:0:0:0:
235,166,4885,1,0,1:0:0:0:
235,166,5047,2,0,P|179:149|127:177,1,110,0|0,1:0|1:0,0:0:0:0:
86,157,5533,2,0,P|114:191|116:258,2,110,0|0|0,1:0|1:0|1:0,0:0:0:0:
62,60,6506,2,0,L|172:64,1,110,8|8,2:1|2:1,0:0:0:0:
208,30,6993,6,0,P|242:59|307:64,1,110,4|0,1:1|1:0,0:0:0:0:
350,45,7479,1,0,1:0:0:0:
350,45,7641,2,0,L|341:166,1,110,0|0,1:0|1:0,0:0:0:0:
420,215,8290,6,0,B|436:268|436:268|421:323,1,110,0|0,1:0|1:0,0:0:0:0:
391,359,8776,1,0,1:0:0:0:
391,359,8939,2,0,L|328:350,1,55,0|0,1:0|1:0,0:0:0:0:
306,311,9263,1,0,1:0:0:0:
208,342,9587,6,0,L|222:221,1,110,4|0,1:1|1:0,0:0:0:0:
195,189,10074,1,0,1:0:0:0:
195,189,10236,2,0,P|153:214|90:208,1,110,0|12,1:0|2:1,0:0:0:0:
28,135,10885,6,0,P|50:55|121:33,1,165,0|0,3:0|3:0,0:0:0:0:
158,66,11533,1,8,3:1:0:0:
158,66,11695,2,0,L|219:61,1,55,2|2,2:2|2:2,0:0:0:0:
307,30,12182,6,0,L|298:150,1,110,4|8,1:1|2:1,0:0:0:0:
368,209,12831,2,0,P|394:189|405:162,2,55,0|0|8,1:0|1:0|2:1,0:0:0:0:
296,272,13479,2,0,P|272:235|201:228,1,110,0|8,1:0|2:1,0:0:0:0:
126,277,14128,2,0,L|134:340,2,55,0|0|8,1:0|1:0|2:1,0:0:0:0:
42,223,14776,6,0,B|26:167|26:167|48:112,1,110,4|8,1:1|2:1,0:0:0:0:
124,59,15425,2,0,L|188:56,2,55,0|0|8,1:0|1:0|2:1,0:0:0:0:
143,156,16074,2,0,L|252:149,1,110,0|8,1:0|2:1,0:0:0:0:
291,118,16560,1,2,2:2:0:0:
291,118,16722,2,0,L|348:115,2,55,0|0|8,1:0|1:0|2:1,0:0:0:0:
332,28,17371,6,0,P|379:31|429:84,1,110,4|8,1:1|2:1,0:0:0:0:
489,146,18020,2,0,P|462:173|456:192,1,55,0|0,1:0|1:0,0:0:0:0:
462,241,18344,2,0,P|422:218|401:219,1,55,8|0,2:1|2:0,0:0:0:0:
365,224,18668,2,0,P|334:264|333:335,1,110,0|8,1:0|2:1,0:0:0:0:
245,374,19317,2,0,P|222:370|190:349,1,55,0|0,1:0|1:0,0:0:0:0:
163,315,19641,1,8,2:1:0:0:
220,234,19966,5,12,2:1:0:0:
220,234,20128,2,0,P|174:204|107:220,1,110,0|2,1:0|2:2,0:0:0:0:
74,194,20614,2,0,L|84:266,1,55,0|2,1:0|2:2,0:0:0:0:
49,342,21101,1,2,2:2:0:0:
85,366,21263,6,0,L|195:353,1,110,4|12,1:1|2:1,0:0:0:0:
263,280,21912,2,0,L|317:288,1,55,0|0,1:0|1:0,0:0:0:0:
353,323,22236,2,0,L|407:314,1,55,4|0,2:3|0:0,0:0:0:0:
451,335,22560,6,0,L|441:221,1,110,4|0,1:1|1:0,0:0:0:0:
506,152,23209,2,0,P|476:121|405:114,1,110,0|0,1:0|1:0,0:0:0:0:
370,138,23695,1,0,2:0:0:0:
370,138,23858,1,0,1:0:0:0:
293,200,24182,2,0,L|158:190,1,110,0|0,1:0|1:0,0:0:0:0:
133,106,24831,2,0,L|74:101,1,55,0|0,1:0|2:0,0:0:0:0:
32,81,25155,6,0,B|53:114|53:114|42:196,1,110,0|0,1:0|1:0,0:0:0:0:
115,252,25803,2,0,P|162:281|219:272,1,110,0|0,1:0|1:0,0:0:0:0:
263,252,26290,1,0,2:0:0:0:
263,252,26452,1,0,1:0:0:0:
301,160,26776,1,0,1:0:0:0:
339,68,27101,2,0,P|391:64|426:85,2,82.5,10|2|2,2:3|2:3|2:3,0:3:0:0:
292,51,27749,6,0,P|229:62|189:39,1,110,4|0,1:1|1:0,0:0:0:0:
92,28,28398,2,0,L|104:146,1,110,0|0,1:0|1:0,0:0:0:0:
118,187,28885,1,0,2:0:0:0:
118,187,29047,1,0,1:0:0:0:
48,256,29371,2,0,P|81:284|162:284,1,110,0|0,1:0|1:0,0:0:0:0:
235,248,30020,1,0,1:0:0:0:
248,345,30344,6,0,L|359:338,1,110,0|0,1:0|1:0,0:0:0:0:
359,288,30831,1,0,2:0:0:0:
356,238,30993,2,0,L|465:231,1,110,0|0,1:0|1:0,0:0:0:0:
504,140,31641,2,0,P|481:95|423:81,1,110,0|0,1:0|1:0,0:0:0:0:
340,34,32290,2,0,P|325:64|306:78,1,55,8|8,2:1|2:1,0:0:0:0:
258,77,32614,2,0,P|228:62|214:43,1,55,8|8,2:1|2:1,0:0:0:0:
170,24,32939,6,0,L|56:32,1,110,4|8,1:1|2:1,0:0:0:0:
10,117,33587,2,0,P|23:158|81:197,1,110,0|0,1:0|2:0,0:0:0:0:
125,199,34074,1,8,2:1:0:0:
125,199,34236,2,0,P|92:247|96:308,1,110,2|8,2:2|2:1,0:0:0:0:
169,359,34885,2,0,L|279:348,1,110,0|8,1:0|2:1,0:0:0:0:
328,262,35533,6,0,B|379:284|379:284|437:261,2,110,0|8|0,1:0|2:1|1:0,0:0:0:0:
262,187,36506,2,0,L|201:196,1,55,0|8,2:0|2:1,0:0:0:0:
158,203,36831,2,0,L|184:92,1,110,2|8,2:2|2:1,0:0:0:0:
255,28,37479,2,0,P|291:29|315:44,1,55,0|0,1:0|1:0,0:0:0:0:
343,71,37803,1,8,2:1:0:0:
436,105,38128,6,0,P|414:135|411:161,1,55,0|0,1:0|1:0,0:0:0:0:
407,201,38452,2,0,P|366:174|298:191,2,110,8|0|0,2:1|1:0|2:0,0:0:0:0:
416,250,39263,1,8,2:1:0:0:
416,250,39425,2,0,L|410:371,1,110,2|8,2:2|2:1,0:0:0:0:
320,317,40074,1,2,2:2:0:0:
233,365,40398,1,0,2:0:0:0:
171,287,40722,6,0,L|63:303,1,110,4|8,1:1|2:1,0:0:0:0:
85,206,41371,2,0,L|145:196,1,55,0|0,1:0|1:0,0:0:0:0:
171,159,41695,1,8,2:1:0:0:
237,85,42020,2,0,L|297:95,2,55,0|0|8,1:0|1:0|2:1,0:0:0:0:
154,30,42668,2,0,P|116:62|42:61,1,110,0|8,1:0|2:1,0:0:0:0:
19,158,43317,5,12,2:1:0:0:
256,192,43479,12,10,45912,2:2:0:0:
106,87,46560,6,0,P|152:92|193:154,1,110,6|8,2:2|2:1,0:0:0:0:
258,211,47208,2,0,L|383:206,1,110,0|8,1:0|2:1,0:0:0:0:
411,183,47695,1,0,2:0:0:0:
411,183,47857,2,0,P|389:232|410:298,1,110,0|8,1:0|2:1,0:0:0:0:
325,349,48505,2,0,P|279:324|214:334,1,110,0|8,1:0|2:1,0:0:0:0:
127,357,49154,6,0,L|134:246,1,110,0|8,1:0|2:1,0:0:0:0:
52,190,49803,2,0,P|76:145|134:129,1,110,0|8,1:0|2:1,0:0:0:0:
178,137,50289,1,0,2:0:0:0:
178,137,50451,1,0,1:0:0:0:
259,80,50776,2,0,L|318:91,1,55,8|0,2:1|2:0,0:0:0:0:
351,59,51100,1,0,1:0:0:0:
399,145,51424,1,8,2:1:0:0:
438,235,51749,6,0,P|413:282|358:309,1,110,4|8,1:1|2:1,0:0:0:0:
277,354,52397,2,0,P|254:308|197:289,1,110,0|8,1:0|2:1,0:0:0:0:
107,255,53046,2,0,B|128:207|128:207|111:144,1,110,0|8,1:0|2:1,0:0:0:0:
89,107,53532,1,0,2:0:0:0:
89,107,53695,2,0,P|133:132|197:121,1,110,0|8,1:0|2:1,0:0:0:0:
266,61,54343,6,0,L|387:67,1,110,0|8,1:0|2:1,0:0:0:0:
410,160,54992,2,0,L|300:154,1,110,0|8,1:0|2:1,0:0:0:0:
276,250,55641,1,8,2:1:0:0:
184,286,55965,1,8,2:1:0:0:
88,260,56289,2,0,P|65:224|74:147,1,110,8|8,2:1|2:1,0:0:0:0:
40,63,56938,6,0,L|151:72,1,110,4|8,1:1|2:1,0:0:0:0:
190,163,57587,2,0,L|246:158,1,55,0|0,1:0|1:0,0:0:0:0:
293,152,57911,1,8,2:1:0:0:
359,78,58235,2,0,B|412:76|412:76|453:124,1,110,0|8,1:0|2:1,0:0:0:0:
429,216,58884,2,0,B|376:214|376:214|335:262,1,110,0|8,1:0|2:1,0:0:0:0:
279,332,59532,6,0,P|246:305|177:308,2,110,0|8|0,1:0|2:1|1:0,0:0:0:0:
373,360,60505,1,8,2:1:0:0:
455,304,60830,2,0,P|472:247|453:194,1,110,0|8,1:0|2:1,0:0:0:0:
376,143,61478,2,0,L|312:147,1,55,0|0,1:0|1:0,0:0:0:0:
280,117,61803,1,8,2:1:0:0:
196,169,62127,6,0,P|159:141|92:141,1,110,12|8,2:1|2:1,0:0:0:0:
121,235,62776,1,8,2:1:0:0:
66,317,63100,1,8,2:1:0:0:
164,326,63424,2,0,P|191:359|270:365,1,110,8|8,2:1|2:1,0:0:0:0:
249,271,64073,1,8,2:1:0:0:
329,213,64397,1,8,2:1:0:0:
238,172,64722,6,0,P|220:128|153:100,1,110,12|8,2:1|2:1,0:0:0:0:
142,195,65370,1,8,2:1:0:0:
93,281,65695,1,8,2:1:0:0:
191,284,66019,2,0,P|214:323|285:336,1,110,8|8,2:1|2:1,0:0:0:0:
368,367,66668,2,0,L|372:306,1,55,8|0,2:1|1:0,0:0:0:0:
404,275,66992,1,8,2:1:0:0:
468,200,67316,6,0,P|447:144|287:109,1,220,4|4,1:1|2:3,0:0:0:0:
271,193,68289,1,0,2:0:0:0:
223,279,68614,2,0,B|116:345|114:233|10:293,1,220,4|2,1:1|2:2,0:0:0:0:
68,373,69587,1,0,2:0:0:0:
256,192,69911,12,2,71857,2:2:0:0:
36,95,72505,6,0,P|76:52|132:50,1,110,6|8,2:2|2:1,0:0:0:0:
190,122,73154,2,0,L|186:193,2,55,0|0|8,1:0|1:0|2:1,0:0:0:0:
266,59,73803,2,0,B|312:86|312:86|374:67,1,110,0|8,1:0|2:1,0:0:0:0:
460,99,74451,2,0,L|465:45,2,55,0|0|8,1:0|1:0|2:1,0:0:0:0:
385,164,75100,6,0,L|397:277,1,110,4|8,1:1|2:1,0:0:0:0:
307,317,75749,2,0,L|295:207,1,110,0|8,1:0|2:1,0:0:0:0:
217,147,76397,2,0,P|177:190|119:198,1,110,0|8,1:0|2:1,0:0:0:0:
81,183,76884,1,0,2:0:0:0:
43,150,77046,2,0,P|38:126|46:90,2,55,0|0|8,1:0|1:0|2:1,0:0:0:0:
4,241,77695,6,0,P|46:273|55:352,1,110,4|8,1:1|2:1,0:0:0:0:
158,336,78343,2,0,P|172:305|188:291,2,55,0|0|8,1:0|1:0|2:1,0:0:0:0:
252,366,78992,2,0,L|373:352,1,110,0|8,1:0|2:1,0:0:0:0:
421,275,79641,2,0,P|445:300|455:334,2,55,0|0|8,1:0|1:0|2:1,0:0:0:0:
353,203,80289,6,0,P|326:232|247:241,1,110,12|8,2:1|2:1,0:0:0:0:
198,166,80938,1,4,3:3:0:0:
152,146,81100,1,0,2:0:0:0:
104,131,81262,2,0,L|112:190,1,55,8|0,2:1|1:0,0:0:0:0:
81,225,81587,6,0,L|64:333,1,110,12|12,2:1|2:1,0:0:0:0:
107,357,82073,1,0,1:0:0:0:
107,357,82235,2,0,L|180:349,1,55,4|0,2:3|1:0,0:0:0:0:
205,374,82559,2,0,L|278:366,1,55,4|2,2:3|2:2,0:0:0:0:
293,331,82884,6,0,P|330:292|384:288,1,110,4|8,1:1|2:1,0:0:0:0:
461,227,83532,2,0,L|456:169,2,55,0|0|8,1:0|1:0|2:1,0:0:0:0:
367,193,84181,2,0,L|357:76,1,110,0|8,1:0|2:1,0:0:0:0:
272,35,84830,1,0,1:0:0:0:
241,73,84992,1,0,1:0:0:0:
192,82,85154,2,0,L|129:78,1,55,8|0,2:1|2:0,0:0:0:0:
95,51,85478,6,0,L|86:181,1,110,4|8,1:1|2:1,0:0:0:0:
31,242,86127,2,0,P|28:281|35:301,1,55,0|0,1:0|1:0,0:0:0:0:
64,333,86451,1,8,2:1:0:0:
155,294,86776,2,0,P|195:264|255:263,1,110,0|8,1:0|2:1,0:0:0:0:
295,236,87262,1,2,2:2:0:0:
295,236,87424,2,0,L|291:182,1,55,0|0,1:0|1:0,0:0:0:0:
336,161,87749,2,0,L|340:107,1,55,8|0,2:1|2:0,0:0:0:0:
314,63,88073,6,0,P|366:77|427:51,2,110,12|8|8,2:1|2:1|2:1,0:0:0:0:
218,89,89046,1,8,2:1:0:0:
123,116,89370,2,0,L|0:107,2,110,8|8|8,2:1|2:1|2:1,0:0:0:0:
166,205,90343,1,8,2:1:0:0:
209,294,90668,6,0,P|263:301|310:275,1,110,12|4,2:1|2:3,0:0:0:0:
335,232,91154,1,0,1:0:0:0:
335,232,91316,2,0,L|331:167,1,55,4|0,2:3|1:0,0:0:0:0:
406,111,91803,1,2,2:2:0:0:
406,111,91965,5,6,2:2:0:0:
256,192,92127,12,0,97154,2:0:0:0:
