osu file format v14

[General]
AudioFilename: 01. Ao To Natsu.mp3
AudioLeadIn: 0
PreviewTime: 46155
Countdown: 0
SampleSet: Soft
StackLeniency: 0.7
Mode: 0
LetterboxInBreaks: 0
EpilepsyWarning: 1
WidescreenStoryboard: 1

[Editor]
DistanceSpacing: 1
BeatDivisor: 4
GridSize: 4
TimelineZoom: 4

[Metadata]
Title:Ao to Natsu
TitleUnicode:青と夏
Artist:Mrs. GREEN APPLE
ArtistUnicode:Mrs. GREEN APPLE
Creator:gokugohan12468
Version:Extra
Source:青夏 きみに恋した30日
Tags:blue and summer 30 days in love with you ost original soundtrack movie ao natsu: kimi ni koi shita 30 nichi theme song ミセスグリーンアップル motoki omori 大森元貴 hiroto wakai 若井滉斗 ayaka yamanaka 山中綾華 ryoka fujisawa 藤澤涼架 kiyokatsu takano 髙野清宗 FunnyA KittyAdventure ulfanirahmi Raytoly Rhytoly short cut ver version size Attitude jpop pop japanese ohmori
BeatmapID:2076881
BeatmapSetID:992659

[Difficulty]
HPDrainRate:6.8
CircleSize:4.2
OverallDifficulty:8
ApproachRate:9
SliderMultiplier:1.6
SliderTickRate:2

[Events]
//Background and Video events
0,0,"1dee453148920d75578a6478faea55a6.jpg",0,0
//Break Periods
//Storyboard Layer 0 (Background)
//Storyboard Layer 1 (Fail)
//Storyboard Layer 2 (Pass)
//Storyboard Layer 3 (Foreground)
//Storyboard Layer 4 (Overlay)
//Storyboard Sound Samples

[TimingPoints]
1804,324.324324324324,4,2,1,50,1,0
11858,-303.030303030303,4,2,1,50,0,0
12101,-303.030303030303,4,2,1,5,0,0
12182,-74.0740740740741,4,2,1,70,0,1
12425,-74.0740740740741,4,2,1,5,0,1
12506,-100,4,2,1,70,0,1
13722,-100,4,2,1,5,0,1
13803,-100,4,2,1,70,0,1
15020,-100,4,2,1,5,0,1
15101,-100,4,2,1,70,0,1
15668,-100,4,2,1,5,0,1
15749,-100,4,2,1,70,0,1
16317,-100,4,2,1,5,0,1
16398,-100,4,2,1,70,0,1
17614,-100,4,2,1,5,0,1
17695,-100,4,2,1,70,0,1
19641,-100,4,2,1,70,0,1
19885,-100,4,2,1,5,0,1
19966,-100,4,2,1,70,0,1
20614,-66.6666666666667,4,2,1,70,0,1
20776,-100,4,2,1,70,0,1
22560,-133.333333333333,4,2,1,50,0,0
27101,-66.6666666666667,4,2,1,50,0,0
27506,-66.6666666666667,4,2,1,5,0,0
27587,-66.6666666666667,4,2,1,50,0,0
27749,-133.333333333333,4,2,1,50,0,0
32939,-117.647058823529,4,2,1,50,0,0
34479,-117.647058823529,4,2,1,5,0,0
34560,-117.647058823529,4,2,1,50,0,0
35209,-117.647058823529,4,2,1,50,0,0
40074,-117.647058823529,4,2,1,50,0,0
40722,-100,4,2,1,60,0,0
45912,324.324324324324,4,2,1,50,1,8
45912,-100,4,2,1,50,0,0
46236,-200,4,2,1,50,0,0
46478,-200,4,2,1,5,0,0
46560,324.324324324324,4,2,2,70,1,1
46884,-100,4,2,1,70,0,1
48100,-100,4,2,1,5,0,1
48181,-100,4,2,1,70,0,1
50776,-100,4,2,1,70,0,1
50938,-100,4,2,1,70,0,1
51100,-100,4,2,1,70,0,1
55722,-100,4,2,1,5,0,1
55803,-100,4,2,1,70,0,1
56046,-100,4,2,1,5,0,1
56127,-100,4,2,1,70,0,1
56370,-66.6666666666667,4,2,1,70,0,1
56614,-200,4,2,1,50,0,0
56938,-100,4,2,1,70,0,1
61803,-200,4,2,1,50,0,0
62046,-200,4,2,1,5,0,0
62127,-90.9090909090909,4,2,1,70,0,1
62370,-90.9090909090909,4,2,1,5,0,1
62451,-90.9090909090909,4,2,1,70,0,1
67316,-133.333333333333,4,2,1,70,0,1
67965,-133.333333333333,4,2,1,70,0,1
68614,-133.333333333333,4,2,1,70,0,1
69262,-133.333333333333,4,2,1,70,0,1
69911,-133.333333333333,4,2,1,70,0,1
70559,-133.333333333333,4,2,1,70,0,1
71208,-66.6666666666667,4,2,1,70,0,1
71289,-66.6666666666667,4,2,1,5,0,1
71370,-66.6666666666667,4,2,1,70,0,1
71614,-66.6666666666667,4,2,1,5,0,1
71695,-66.6666666666667,4,2,1,70,0,1
71857,-133.333333333333,4,2,1,50,0,0
71877,-133.333333333333,4,2,1,30,0,0
72127,-66.6666666666667,4,2,1,30,0,0
72181,-66.6666666666667,4,2,1,30,0,0
72505,-100,4,2,2,70,0,1
72830,-100,4,2,1,70,0,1
74046,-100,4,2,1,5,0,1
74127,-100,4,2,1,70,0,1
78019,-100,4,2,1,70,0,1
79235,-100,4,2,1,5,0,1
79316,-100,4,2,1,70,0,1
80532,-100,4,2,1,5,0,1
80614,-100,4,2,1,70,0,1
81587,-100,4,2,1,70,0,1
82235,-100,4,2,1,70,0,1
82316,-100,4,2,1,70,0,1
82397,-100,4,2,1,70,0,1
82478,-100,4,2,1,70,0,1
82559,-100,4,2,1,70,0,1
82641,-100,4,2,1,70,0,1
82722,-100,4,2,1,70,0,1
82803,-100,4,2,1,70,0,0
82884,-90.9090909090909,4,2,1,70,0,1
83127,-90.9090909090909,4,2,1,5,0,1
83208,-90.9090909090909,4,2,1,70,0,1
84424,-90.9090909090909,4,2,1,5,0,1
84505,-90.9090909090909,4,2,1,70,0,1
88316,-90.9090909090909,4,2,1,5,0,1
88397,-90.9090909090909,4,2,1,70,0,1
90668,-90.9090909090909,4,2,1,70,0,1
90830,-90.9090909090909,4,2,1,70,0,1
91154,-90.9090909090909,4,2,1,70,0,1
91884,-90.9090909090909,4,2,1,70,0,0
91965,-181.818181818182,4,2,2,70,0,1
97154,-192.307692307692,4,2,2,5,0,0

[Colours]
Combo1 : 65,155,200
Combo2 : 255,128,255
Combo3 : 255,0,255
Combo4 : 255,128,192
Combo5 : 128,128,192
Combo6 : 91,102,196
Combo7 : 68,183,200
Combo8 : 124,151,200

[HitObjects]
101,126,1641,5,8,2:1:0:0:
92,98,1722,1,8,2:1:0:0:
65,78,1804,6,0,B|131:70|130:110|128:144|206:137,1,160,4|0,1:1|1:0,0:0:0:0:
322,81,2290,1,0,1:0:0:0:
301,181,2452,2,0,P|311:137|340:107,1,80,0|0,1:0|1:0,0:0:0:0:
218,225,2776,2,0,P|208:181|179:151,1,80,0|0,1:0|1:0,0:0:0:0:
300,271,3101,6,0,B|357:263|357:263|391:281|391:281|461:273,1,160,0|0,1:0|1:0,0:0:0:0:
410,200,3587,1,0,1:0:0:0:
505,170,3749,2,0,L|426:179,1,80,0|0,1:0|1:0,0:0:0:0:
322,81,4074,2,0,L|401:90,1,80,0|0,1:0|1:0,0:0:0:0:
256,14,4398,6,0,P|217:52|226:156,1,160,4|0,1:1|1:0,0:0:0:0:
222,151,4885,1,0,1:0:0:0:
322,81,5047,2,0,L|401:90,1,80,0|0,1:0|1:0,0:0:0:0:
222,151,5371,2,0,L|143:142,1,80,0|0,1:0|1:0,0:0:0:0:
330,195,5695,6,0,L|321:274,1,80,0|0,1:0|1:0,0:0:0:0:
215,345,6020,2,0,L|224:266,1,80,0|0,1:0|1:0,0:0:0:0:
224,265,6344,1,0,1:0:0:0:
362,361,6506,2,0,P|406:337|424:306,1,80,8|0,2:1|1:0,0:0:0:0:
320,274,6831,1,8,2:1:0:0:
508,293,6993,6,0,P|479:222|384:205,1,160,4|0,1:1|1:0,0:0:0:0:
305,165,7479,1,0,1:0:0:0:
385,100,7641,2,0,L|379:18,1,80,0|0,1:0|1:0,0:0:0:0:
284,0,7966,2,0,B|269:40|269:40|281:81,1,80,0|0,1:0|1:0,0:0:0:0:
305,165,8290,6,0,B|231:136|218:213|149:186,1,160,0|0,1:0|1:0,0:0:0:0:
176,106,8776,1,0,1:0:0:0:
277,249,8939,2,0,P|287:303|282:328,1,80,0|0,1:0|1:0,0:0:0:0:
176,106,9263,2,0,P|165:67|170:28,1,80,0|0,1:0|1:0,0:0:0:0:
62,189,9587,6,0,P|114:203|147:309,1,160,4|0,1:1|1:0,0:0:0:0:
88,363,10074,1,0,1:0:0:0:
277,249,10236,2,0,L|369:261,1,80,0|0,1:0|1:0,0:0:0:0:
354,103,10560,2,0,L|274:92,1,80,12|0,2:1|2:0,0:0:0:0:
379,345,10885,5,0,3:0:0:0:
400,347,10966,1,0,3:0:0:0:
422,345,11047,1,0,3:0:0:0:
443,338,11128,1,0,3:0:0:0:
461,325,11209,1,0,3:0:0:0:
476,309,11290,1,0,3:0:0:0:
486,290,11371,1,0,3:0:0:0:
491,269,11452,1,0,3:0:0:0:
492,247,11533,5,8,3:1:0:0:
354,103,11695,1,2,2:2:0:0:
356,259,11858,2,0,L|312:265,1,39.5999998791504,2|0,2:2|2:0,0:0:0:0:
262,328,12182,6,0,B|175:308|190:378|100:348,1,162.000000617981,4|0,1:1|2:0,0:0:0:0:
139,274,12506,2,0,P|144:228|126:179,1,80,8|0,2:1|2:0,0:0:0:0:
31,88,12831,1,0,1:0:0:0:
62,239,12993,1,0,1:0:0:0:
93,28,13155,2,0,L|187:42,1,80,8|0,2:1|2:0,0:0:0:0:
135,195,13479,6,0,L|261:181,1,120,0|0,1:0|2:0,0:0:0:0:
345,155,13803,2,0,L|332:236,1,80,8|0,2:1|2:0,0:0:0:0:
257,22,14128,1,0,1:0:0:0:
431,117,14290,1,0,1:0:0:0:
172,39,14452,2,0,B|159:80|159:80|168:117,1,80,8|0,2:1|2:0,0:0:0:0:
254,181,14776,6,0,P|211:186|182:268,1,120,4|0,1:1|2:0,0:0:0:0:
220,325,15101,2,0,L|325:314,1,80,8|0,2:1|2:0,0:0:0:0:
133,325,15425,6,0,L|13:338,1,120,0|0,1:0|2:0,0:0:0:0:
0,257,15749,2,0,L|105:246,1,80,8|0,2:1|2:0,0:0:0:0:
62,87,16074,6,0,P|107:122|172:113,1,120,0|0,1:0|2:0,0:0:0:0:
277,87,16398,2,0,P|251:123|251:166,1,80,8|2,2:1|2:2,0:0:0:0:
258,183,16641,1,2,2:2:0:0:
258,183,16722,1,0,1:0:0:0:
456,163,16885,1,0,1:0:0:0:
299,259,17047,2,0,P|339:278|379:272,1,80,8|0,2:1|2:0,0:0:0:0:
201,371,17371,6,0,P|206:307|167:240,1,120,4|0,1:1|2:0,0:0:0:0:
108,224,17695,2,0,P|66:224|28:251,1,80,8|0,2:1|2:0,0:0:0:0:
181,176,18020,1,0,1:0:0:0:
168,15,18182,1,0,1:0:0:0:
253,217,18344,2,0,L|336:208,1,80,8|0,2:1|2:0,0:0:0:0:
321,48,18668,6,0,L|241:56,1,80,0|0,1:0|2:0,0:0:0:0:
389,109,18993,2,0,L|469:101,1,80,8|0,2:1|2:0,0:0:0:0:
480,261,19317,2,0,L|401:270,1,80,0|0,1:0|1:0,0:0:0:0:
249,142,19641,2,0,P|305:156|332:208,1,120,8|0,2:1|2:0,0:0:0:0:
258,217,19966,5,12,2:1:0:0:
293,363,20128,1,0,1:0:0:0:
184,190,20290,2,0,P|154:217|111:224,1,80,8|2,2:1|2:2,0:0:0:0:
45,184,20533,1,0,2:0:0:0:
45,184,20614,2,0,L|56:115,1,60.0000022888184,0|0,1:0|0:1,0:0:0:0:
153,30,20776,2,0,L|138:120,1,80,2|8,2:2|2:1,0:0:0:0:
81,326,21101,1,2,2:2:0:0:
60,359,21182,1,2,2:2:0:0:
98,363,21263,6,0,B|188:331|166:388|257:353,1,160,4|12,1:1|2:1,0:0:0:0:
209,282,21749,1,0,2:0:0:0:
311,203,21912,2,0,L|294:293,1,80,0|0,1:0|1:0,0:0:0:0:
212,118,22236,2,0,L|229:208,1,80,4|0,2:3|0:0,0:0:0:0:
130,110,22560,6,0,P|138:77|168:50,1,60.0000022888184,4|0,1:1|2:0,0:0:0:0:
142,186,22885,2,0,P|108:186|74:164,1,60.0000022888184,0|0,1:0|2:0,0:0:0:0:
20,0,23209,2,0,P|47:37|41:108,1,120.000004577637,0|0,1:0|1:0,0:0:0:0:
8,183,23695,1,0,2:0:0:0:
85,175,23858,6,0,L|80:240,1,60.0000022888184,0|0,1:0|2:0,0:0:0:0:
0,326,24182,2,0,L|4:266,1,60.0000022888184,0|0,1:0|2:0,0:0:0:0:
81,316,24506,2,0,P|132:316|176:262,1,120.000004577637,0|0,1:0|1:0,0:0:0:0:
238,209,24993,1,0,2:0:0:0:
255,288,25155,6,0,L|321:279,1,60.0000022888184,0|0,1:0|2:0,0:0:0:0:
238,209,25479,2,0,L|297:200,1,60.0000022888184,0|0,1:0|2:0,0:0:0:0:
376,224,25803,2,0,P|434:228|486:181,1,120.000004577637,0|0,1:0|1:0,0:0:0:0:
414,152,26290,1,0,2:0:0:0:
485,110,26452,6,0,L|494:51,1,60.0000022888184,0|0,1:0|2:0,0:0:0:0:
418,12,26776,2,0,L|409:71,1,60.0000022888184,0|0,1:0|2:0,0:0:0:0:
414,152,27101,6,0,P|379:110|306:130,1,120.000004577637,10|0,2:3|0:3,0:3:0:0:
292,197,27344,2,0,P|327:239|400:219,1,120.000004577637,2|0,2:3|2:0,0:3:0:0:
464,217,27587,2,0,P|489:217|516:239,1,60.0000022888184,2|0,2:3|0:3,0:3:0:0:
461,294,27749,6,0,P|452:328|458:357,1,60.0000022888184,4|0,1:1|2:0,0:0:0:0:
382,384,28074,2,0,P|361:362|334:350,1,60.0000022888184,0|0,1:0|2:0,0:0:0:0:
221,256,28398,2,0,P|252:320|246:380,1,120.000004577637,0|0,1:0|1:0,0:0:0:0:
159,325,28885,1,0,2:0:0:0:
133,242,29047,6,0,P|96:247|70:238,1,60.0000022888184,0|0,1:0|0:0,0:0:0:0:
80,158,29371,2,0,P|109:152|138:159,1,60.0000022888184,0|0,1:0|2:0,0:0:0:0:
188,87,29695,2,0,P|219:138|210:201,1,120.000004577637,0|0,1:0|1:0,0:0:0:0:
210,280,30182,1,0,2:0:0:0:
288,243,30344,6,0,P|321:252|351:246,1,60.0000022888184,0|0,1:0|2:0,0:0:0:0:
387,176,30668,2,0,P|358:167|328:171,1,60.0000022888184,0|0,1:0|2:0,0:0:0:0:
426,250,30993,2,0,L|419:318,1,60.0000022888184,0|0,1:0|2:0,0:0:0:0:
472,180,31317,2,0,L|478:120,1,60.0000022888184,0|0,1:0|2:0,0:0:0:0:
441,35,31641,6,0,P|416:63|325:54,1,120.000004577637,0|0,1:0|1:0,0:0:0:0:
263,22,32128,1,0,2:0:0:0:
290,184,32290,1,8,2:1:0:0:
191,74,32452,1,8,2:1:0:0:
247,261,32614,2,0,L|185:252,1,60.0000022888184,8|8,2:1|2:1,0:0:0:0:
133,143,32939,6,0,L|65:153,1,68.0000012969971,4|0,1:1|2:0,0:0:0:0:
121,263,33263,2,0,L|188:252,1,68.0000012969971,8|0,2:1|2:0,0:0:0:0:
191,74,33587,2,0,P|241:109|234:181,1,136.000002593994,0|0,1:0|2:0,0:0:0:0:
325,195,34074,1,8,2:1:0:0:
325,195,34236,6,0,B|377:210|377:210|423:191,1,102.000001945496,2|0,2:2|2:0,0:0:0:0:
483,250,34560,2,0,L|417:280,1,68.0000012969971,8|0,2:1|2:0,0:0:0:0:
374,123,34885,1,0,1:0:0:0:
512,128,35047,1,0,1:0:0:0:
462,11,35209,2,0,P|430:1|393:13,1,68.0000012969971,8|0,2:1|2:0,0:0:0:0:
260,50,35533,6,0,P|292:60|324:51,1,68.0000012969971,0|0,1:0|0:0,0:0:0:0:
170,30,35858,2,0,L|178:111,1,68.0000012969971,8|0,2:1|2:0,0:0:0:0:
264,281,36182,2,0,L|250:145,1,136.000002593994,0|0,1:0|2:0,0:0:0:0:
260,50,36668,1,8,2:1:0:0:
172,188,36831,6,0,P|144:175|107:177,1,68.0000012969971,2|0,2:2|1:0,0:0:0:0:
58,272,37155,2,0,P|86:259|123:261,1,68.0000012969971,8|0,2:1|2:0,0:0:0:0:
20,185,37479,1,0,1:0:0:0:
55,100,37641,1,0,1:0:0:0:
203,270,37803,2,0,L|193:350,1,68.0000012969971,8|0,2:1|2:0,0:0:0:0:
269,384,38128,6,0,L|277:316,1,68.0000012969971,0|0,1:0|1:0,0:0:0:0:
287,168,38452,2,0,L|278:235,1,68.0000012969971,8|0,2:1|2:0,0:0:0:0:
354,275,38776,2,0,B|426:243|410:300|487:267,1,136.000002593994,0|0,1:0|2:0,0:0:0:0:
451,195,39263,1,8,2:1:0:0:
496,124,39425,6,0,P|455:111|372:167,1,136.000002593994,2|8,2:2|2:1,0:0:0:0:
378,153,40074,6,0,L|242:143,1,136.000002593994,2|0,2:2|2:0,0:0:0:0:
128,22,40722,6,0,B|162:68|162:68|143:187,1,160,4|8,1:1|2:1,0:0:0:0:
0,145,41209,1,0,2:0:0:0:
145,169,41371,1,0,1:0:0:0:
77,93,41533,1,0,1:0:0:0:
145,255,41695,2,0,L|231:240,1,80,8|0,2:1|2:0,0:0:0:0:
60,215,42020,5,0,1:0:0:0:
185,80,42182,1,0,1:0:0:0:
70,300,42344,2,0,L|85:386,1,80,8|0,2:1|2:0,0:0:0:0:
230,160,42668,1,0,1:0:0:0:
165,340,42831,1,0,1:0:0:0:
300,205,42993,2,0,P|338:215|379:204,1,80,8|0,2:1|2:0,0:0:0:0:
350,55,43317,6,0,L|341:138,1,80,12|0,2:1|2:0,0:0:0:0:
254,384,43641,2,0,L|245:304,1,80,8|0,2:1|2:0,0:0:0:0:
230,160,43966,1,8,2:1:0:0:
340,370,44128,1,0,1:0:0:0:
300,205,44290,1,8,2:1:0:0:
164,332,44452,1,0,2:0:0:0:
308,122,44614,6,0,P|349:111|391:125,1,80,12|0,2:1|2:0,0:0:0:0:
270,290,44939,5,0,3:0:0:0:
245,304,45020,1,0,3:0:0:0:
218,311,45101,1,0,3:0:0:0:
190,310,45182,1,0,3:0:0:0:
164,302,45263,1,0,3:0:0:0:
140,287,45344,1,0,3:0:0:0:
122,266,45425,1,0,3:0:0:0:
109,241,45506,1,0,3:0:0:0:
104,216,45587,6,0,L|56:223,1,40,0|0,3:0|3:0,0:0:0:0:
170,160,45749,2,0,L|209:154,1,40,0|0,3:0|3:0,0:0:0:0:
90,135,45912,5,10,2:2:0:0:
87,103,45993,1,2,2:2:0:0:
84,71,46074,1,2,2:2:0:0:
81,39,46155,1,2,2:2:0:0:
78,7,46236,6,0,P|111:20|142:12,1,60,2|0,2:2|2:0,0:0:0:0:
234,1,46560,6,0,P|213:35|211:77,1,80,6|0,2:2|2:0,0:0:0:0:
359,93,46884,2,0,P|326:66|284:63,1,80,8|0,2:1|2:0,0:0:0:0:
307,222,47208,2,0,L|298:142,1,80,0|0,1:0|1:0,0:0:0:0:
445,56,47532,2,0,L|436:136,1,80,8|0,2:1|2:0,0:0:0:0:
251,285,47857,6,0,P|306:304|362:284,1,120,0|0,1:0|2:0,0:0:0:0:
423,337,48181,2,0,P|441:299|434:252,1,80,8|0,2:1|2:0,0:0:0:0:
500,174,48505,2,0,P|472:144|434:135,1,80,0|0,1:0|1:0,0:0:0:0:
289,61,48830,1,8,2:1:0:0:
307,222,48992,1,0,2:0:0:0:
225,5,49154,6,0,P|205:47|208:83,1,80,0|0,1:0|1:0,0:0:0:0:
170,170,49478,2,0,L|263:156,1,80,8|0,2:1|2:0,0:0:0:0:
361,51,49803,2,0,B|320:40|320:40|289:61,1,80,0|0,1:0|1:0,0:0:0:0:
335,130,50127,2,0,L|347:222,1,80,8|0,2:1|2:0,0:0:0:0:
145,255,50451,6,0,P|92:201|103:120,1,160,0|8,1:0|2:1,0:0:0:0:
170,170,50938,1,0,2:0:0:0:
185,325,51100,2,0,P|149:338|96:321,1,80,0|0,1:0|1:0,0:0:0:0:
170,170,51424,2,0,P|207:156|245:165,1,80,8|0,2:1|2:0,0:0:0:0:
268,371,51749,6,0,L|281:288,1,80,4|0,1:1|1:0,0:0:0:0:
323,109,52073,2,0,L|335:188,1,80,8|0,2:1|2:0,0:0:0:0:
466,297,52397,2,0,P|428:304|387:291,1,80,0|0,1:0|1:0,0:0:0:0:
436,187,52722,2,0,P|475:180|512:191,1,80,8|0,2:1|2:0,0:0:0:0:
335,188,53046,6,0,L|345:20,1,160,0|8,1:0|2:1,0:0:0:0:
344,28,53532,1,0,2:0:0:0:
249,231,53695,2,0,L|237:140,1,80,0|0,1:0|1:0,0:0:0:0:
329,276,54019,1,8,2:1:0:0:
238,151,54181,1,0,2:0:0:0:
250,321,54343,6,0,P|222:346|174:351,1,80,0|0,1:0|1:0,0:0:0:0:
329,276,54668,2,0,P|365:287|396:321,1,80,8|0,2:1|2:0,0:0:0:0:
106,313,54992,2,0,P|95:275|111:221,1,80,0|0,1:0|1:0,0:0:0:0:
238,151,55316,2,0,L|225:251,1,80,8|0,2:1|2:0,0:0:0:0:
39,185,55641,6,0,L|31:121,1,40,8|0,2:1|0:0,0:0:0:0:
23,67,55803,1,0,1:0:0:0:
238,151,55965,6,0,L|246:87,1,40,8|0,2:1|0:0,0:0:0:0:
254,33,56127,1,0,2:0:0:0:
124,124,56289,5,8,2:1:0:0:
124,124,56370,2,0,L|109:5,1,120.000004577637,8|8,2:1|2:1,0:0:0:0:
238,151,56614,6,0,L|246:87,1,40,8|0,2:1|1:0,0:0:0:0:
154,242,56938,6,0,B|137:281|137:281|151:323,1,80,4|0,1:1|2:0,0:0:0:0:
238,151,57262,2,0,B|255:112|255:112|241:70,1,80,8|0,2:1|2:0,0:0:0:0:
150,148,57587,2,0,B|111:131|111:131|69:145,1,80,0|0,1:0|1:0,0:0:0:0:
244,243,57911,2,0,B|283:260|283:260|325:246,1,80,8|0,2:1|2:0,0:0:0:0:
442,151,58235,6,0,B|407:183|407:183|419:298,1,160,0|8,1:0|2:1,0:0:0:0:
492,220,58722,1,0,2:0:0:0:
399,74,58884,2,0,L|333:132,1,80,0|0,1:0|1:0,0:0:0:0:
358,347,59208,2,0,L|418:294,1,80,8|0,2:1|2:0,0:0:0:0:
274,77,59532,6,0,P|256:128|265:162,1,80,0|0,1:0|1:0,0:0:0:0:
149,311,59857,2,0,P|202:301|227:276,1,80,8|0,2:1|2:0,0:0:0:0:
418,294,60181,2,0,P|382:252|348:243,1,80,0|0,1:0|1:0,0:0:0:0:
175,160,60505,2,0,P|156:208|163:240,1,80,8|0,2:1|2:0,0:0:0:0:
272,351,60830,6,0,P|323:342|347:320,1,80,0|0,1:0|1:0,0:0:0:0:
204,67,61154,2,0,L|116:76,1,80,8|0,2:1|2:0,0:0:0:0:
286,271,61478,1,0,1:0:0:0:
300,55,61641,1,0,1:0:0:0:
364,244,61803,6,0,P|390:247|425:233,1,60,8|0,2:1|2:0,0:0:0:0:
500,189,62127,6,0,L|490:336,1,132.00000402832,12|0,2:1|2:0,0:0:0:0:
421,363,62451,1,8,2:1:0:0:
425,150,62614,1,0,2:0:0:0:
333,361,62776,1,8,2:1:0:0:
340,132,62938,1,0,1:0:0:0:
247,356,63100,1,8,2:1:0:0:
257,111,63262,1,0,1:0:0:0:
161,355,63424,6,0,L|152:265,1,88.000002685547,8|0,2:1|2:0,0:0:0:0:
176,8,63749,2,0,L|167:95,1,88.000002685547,8|0,2:1|2:0,0:0:0:0:
248,266,64073,1,8,2:1:0:0:
82,87,64235,1,0,1:0:0:0:
66,275,64397,2,0,L|74:362,1,88.000002685547,8|0,2:1|1:0,0:0:0:0:
257,111,64722,6,0,L|265:23,1,88.000002685547,12|0,2:1|2:0,0:0:0:0:
333,361,65046,1,8,2:1:0:0:
339,132,65208,1,0,2:0:0:0:
247,356,65370,1,8,2:1:0:0:
425,151,65532,1,0,1:0:0:0:
161,355,65695,2,0,L|152:265,1,88.000002685547,8|0,2:1|1:0,0:0:0:0:
199,45,66019,6,0,P|229:97|201:214,1,176.000005371094,8|8,2:1|2:1,0:0:0:0:
131,186,66505,1,0,2:0:0:0:
355,46,66668,5,8,2:1:0:0:
235,286,66830,1,0,1:0:0:0:
339,132,66992,2,0,L|438:122,1,88.000002685547,8|0,2:1|0:0,0:0:0:0:
313,358,67316,6,0,P|330:302|311:245,1,120.000004577637,4|0,1:1|2:0,0:0:0:0:
199,45,67965,2,0,P|182:101|201:158,1,120.000004577637,4|0,2:3|2:0,0:0:0:0:
329,152,68614,2,0,L|461:138,1,120.000004577637,4|0,1:1|2:0,0:0:0:0:
197,263,69100,1,0,2:0:0:0:
197,263,69181,1,0,2:0:0:0:
197,263,69262,2,0,L|77:275,1,120.000004577637,2|0,2:2|2:0,0:0:0:0:
196,12,69911,6,0,B|191:54|191:54|201:82|201:82|196:133,1,120.000004577637,4|0,1:1|2:0,0:0:0:0:
299,375,70559,2,0,B|303:327|303:327|293:299|293:299|298:257,1,120.000004577637,4|0,1:1|2:0,0:0:0:0:
113,166,71208,6,0,L|119:107,1,60.0000022888184,8|0,2:1|0:0,0:0:0:0:
274,44,71370,1,0,1:0:0:0:
382,226,71532,6,0,L|376:285,1,60.0000022888184,8|2,2:1|0:1,0:0:0:0:
221,348,71694,1,0,1:0:0:0:
113,166,71857,6,0,L|150:170,1,30.0000011444092,2|0,2:2|2:0,0:0:0:0:
139,334,72127,5,2,2:2:0:0:
139,334,72181,2,0,L|59:323,1,80.0000030517579,2|0,2:2|2:0,0:0:0:0:
221,124,72505,6,0,P|237:164|226:204,1,80,6|0,2:2|0:0,0:0:0:0:
100,250,72830,2,0,L|14:240,1,80,8|0,2:1|2:0,0:0:0:0:
145,44,73154,1,0,1:0:0:0:
335,69,73316,1,0,1:0:0:0:
78,0,73478,2,0,P|65:45|71:77,1,80,8|0,2:1|2:0,0:0:0:0:
20,240,73803,6,0,P|57:180|108:171,1,120,0|0,1:0|2:0,0:0:0:0:
195,155,74127,2,0,L|182:254,1,80,8|0,2:1|2:0,0:0:0:0:
288,384,74451,2,0,L|298:304,1,80,0|0,1:0|1:0,0:0:0:0:
393,139,74776,2,0,L|380:238,1,80,8|0,2:1|2:0,0:0:0:0:
455,377,75100,6,0,P|486:342|492:305,1,80,4|0,1:1|2:0,0:0:0:0:
348,65,75424,2,0,P|317:100|311:137,1,80,8|0,2:1|2:0,0:0:0:0:
382,218,75749,2,0,L|480:206,1,80,0|0,1:0|1:0,0:0:0:0:
298,304,76073,2,0,L|200:292,1,80,8|0,2:1|2:0,0:0:0:0:
173,208,76397,6,0,B|91:183|103:252|9:217,1,160,0|8,1:0|2:1,0:0:0:0:
18,220,76884,1,0,2:0:0:0:
55,63,77046,2,0,P|66:102|55:147,1,80,0|0,1:0|1:0,0:0:0:0:
142,283,77370,2,0,P|116:315|73:329,1,80,8|0,2:1|2:0,0:0:0:0:
231,135,77695,6,0,L|312:145,1,80,4|0,1:1|0:0,0:0:0:0:
512,31,78019,2,0,L|432:40,1,80,8|0,2:1|2:0,0:0:0:0:
417,218,78343,2,0,P|430:178|420:140,1,80,0|0,1:0|1:0,0:0:0:0:
363,0,78668,2,0,P|350:40|360:78,1,80,8|0,2:1|2:0,0:0:0:0:
510,273,78992,6,0,P|474:226|417:218,1,120,0|0,1:0|2:0,0:0:0:0:
338,237,79316,2,0,L|346:328,1,80,8|0,2:1|2:0,0:0:0:0:
196,384,79641,2,0,B|186:348|186:348|202:306,1,80,0|0,1:0|1:0,0:0:0:0:
152,175,79965,2,0,B|185:150|185:150|227:157,1,80,8|0,2:1|2:0,0:0:0:0:
63,288,80289,6,0,P|36:240|47:171,1,120,12|0,2:1|2:0,0:0:0:0:
21,67,80614,2,0,P|55:88|97:86,1,80,8|0,2:1|2:0,0:0:0:0:
280,58,80938,1,4,3:3:0:0:
264,32,81019,1,0,3:0:0:0:
240,15,81100,1,0,2:0:0:0:
210,10,81181,1,0,3:0:0:0:
181,17,81262,2,0,L|191:102,1,80,8|0,2:1|1:0,0:0:0:0:
249,235,81587,5,12,2:1:0:0:
93,86,81749,1,0,1:0:0:0:
318,159,81911,1,12,2:1:0:0:
43,177,82073,1,0,1:0:0:0:
259,377,82235,5,4,2:3:0:0:
292,356,82316,1,0,2:0:0:0:
310,321,82397,1,0,1:0:0:0:
308,282,82478,1,2,2:2:0:0:
285,250,82559,1,4,2:3:0:0:
248,234,82641,1,2,2:2:0:0:
209,234,82722,2,0,L|214:283,1,40,2|2,2:2|2:2,0:0:0:0:
154,145,82884,6,0,B|226:169|215:117|283:135,1,132.00000402832,4|0,1:1|2:0,0:0:0:0:
357,87,83208,2,0,P|346:50|376:0,1,88.000002685547,8|0,2:1|2:0,0:0:0:0:
507,96,83532,2,0,P|468:130|428:126,1,88.000002685547,0|0,1:0|1:0,0:0:0:0:
281,134,83857,2,0,P|242:98|241:63,1,88.000002685547,8|0,2:1|2:0,0:0:0:0:
356,187,84181,6,0,B|332:221|332:221|344:316,1,132.00000402832,0|0,1:0|2:0,0:0:0:0:
431,337,84505,2,0,L|419:242,1,88.000002685547,8|0,2:1|2:0,0:0:0:0:
260,368,84830,1,0,1:0:0:0:
212,200,84992,1,0,1:0:0:0:
125,383,85154,1,8,2:1:0:0:
73,195,85316,1,0,2:0:0:0:
5,145,85478,6,0,P|41:85|147:78,1,176.000005371094,4|8,1:1|2:1,0:0:0:0:
216,35,85965,1,0,2:0:0:0:
216,115,86127,2,0,P|203:158|213:202,1,88.000002685547,0|0,1:0|1:0,0:0:0:0:
281,336,86451,2,0,P|294:293|284:249,1,88.000002685547,8|0,2:1|2:0,0:0:0:0:
69,242,86776,6,0,P|113:295|217:289,1,176.000005371094,0|8,1:0|2:1,0:0:0:0:
287,116,87262,2,0,L|285:160,1,44.0000013427735,2|2,2:2|2:2,0:0:0:0:
281,336,87424,1,0,1:0:0:0:
367,121,87587,1,0,1:0:0:0:
361,373,87749,2,0,P|416:371|443:350,1,88.000002685547,8|0,2:1|2:0,0:0:0:0:
436,190,88073,6,0,P|388:232|385:296,1,132.00000402832,12|0,2:1|2:0,0:0:0:0:
462,271,88397,1,8,2:1:0:0:
448,81,88559,1,0,2:0:0:0:
441,352,88722,1,8,2:1:0:0:
367,121,88884,1,0,1:0:0:0:
361,373,89046,1,8,2:1:0:0:
285,160,89208,1,0,1:0:0:0:
304,314,89370,6,0,P|265:331|223:322,1,88.000002685547,8|0,2:1|2:0,0:0:0:0:
292,70,89695,1,8,2:1:0:0:
385,297,89857,1,0,2:0:0:0:
285,160,90019,1,8,2:1:0:0:
223,323,90181,1,0,1:0:0:0:
366,121,90343,2,0,P|375:163|364:205,1,88.000002685547,8|0,2:1|1:0,0:0:0:0:
125,35,90668,6,0,L|231:23,1,88.000002685547,12|0,2:1|1:0,0:0:0:0:
210,110,90992,1,4,2:3:0:0:
35,110,91154,1,0,1:0:0:0:
65,190,91316,2,0,L|115:182,1,44.0000013427735,4|0,2:3|2:0,0:0:0:0:
364,206,91478,2,0,L|321:213,1,44.0000013427735,0|0,1:0|2:0,0:0:0:0:
100,275,91641,2,0,L|150:267,1,44.0000013427735,4|0,2:3|2:0,0:0:0:0:
380,300,91803,2,0,L|337:307,1,44.0000013427735,2|2,2:2|2:2,0:0:0:0:
145,355,91965,5,6,2:2:0:0:
256,192,92046,12,0,97154,2:0:0:0:
