osu file format v14

[General]
AudioFilename: 01. Ao To Natsu.mp3
AudioLeadIn: 0
PreviewTime: 46155
Countdown: 0
SampleSet: Soft
StackLeniency: 0.4
Mode: 0
LetterboxInBreaks: 0
EpilepsyWarning: 1
WidescreenStoryboard: 1

[Editor]
DistanceSpacing: 1
BeatDivisor: 4
GridSize: 32
TimelineZoom: 4

[Metadata]
Title:Ao to Natsu
TitleUnicode:青と夏
Artist:Mrs. GREEN APPLE
ArtistUnicode:Mrs. GREEN APPLE
Creator:gokugohan12468
Version:Daisuki
Source:青夏 きみに恋した30日
Tags:blue and summer 30 days in love with you ost original soundtrack movie ao natsu: kimi ni koi shita 30 nichi theme song ミセスグリーンアップル motoki omori 大森元貴 hiroto wakai 若井滉斗 ayaka yamanaka 山中綾華 ryoka fujisawa 藤澤涼架 kiyokatsu takano 髙野清宗 FunnyA KittyAdventure ulfanirahmi Raytoly Rhytoly short cut ver version size Attitude jpop pop japanese ohmori
BeatmapID:2075847
BeatmapSetID:992659

[Difficulty]
HPDrainRate:5
CircleSize:3.7
OverallDifficulty:9
ApproachRate:9.3
SliderMultiplier:1.7
SliderTickRate:2

[Events]
//Background and Video events
0,0,"1dee453148920d75578a6478faea55a6.jpg",0,0
//Break Periods
//Storyboard Layer 0 (Background)
//Storyboard Layer 1 (Fail)
//Storyboard Layer 2 (Pass)
//Storyboard Layer 3 (Foreground)
//Storyboard Layer 4 (Overlay)
//Storyboard Sound Samples

[TimingPoints]
1804,324.324324324324,4,2,1,50,1,0
11858,-200,4,2,1,50,0,0
12182,-100,4,2,1,70,0,1
12425,-100,4,2,1,5,0,1
12506,-100,4,2,1,70,0,1
13722,-100,4,2,1,5,0,1
13803,-100,4,2,1,70,0,1
15020,-100,4,2,1,5,0,1
15101,-100,4,2,1,70,0,1
16317,-100,4,2,1,5,0,1
16398,-100,4,2,1,70,0,1
17614,-100,4,2,1,5,0,1
17695,-100,4,2,1,70,0,1
22479,-100,4,2,1,5,0,1
22560,-133.333333333333,4,2,1,50,0,0
32939,-117.647058823529,4,2,1,50,0,0
34479,-117.647058823529,4,2,1,5,0,0
34560,-117.647058823529,4,2,1,50,0,0
40074,-117.647058823529,4,2,1,50,0,0
40722,-100,4,2,1,60,0,0
45912,324.324324324324,4,2,1,50,1,8
45912,-100,4,2,1,50,0,0
46236,-200,4,2,1,50,0,0
46478,-200,4,2,1,5,0,0
46560,324.324324324324,4,2,2,70,1,1
46884,-100,4,2,1,70,0,1
50776,-100,4,2,1,70,0,1
50938,-100,4,2,1,70,0,1
51100,-100,4,2,1,70,0,1
56614,-266.666666666667,4,2,1,50,0,0
56938,-100,4,2,1,70,0,1
61803,-200,4,2,1,50,0,0
62127,-90.9090909090909,4,2,1,70,0,1
67316,-133.333333333333,4,2,1,70,0,1
67965,-133.333333333333,4,2,1,70,0,1
68614,-133.333333333333,4,2,1,70,0,1
69262,-133.333333333333,4,2,1,70,0,1
69911,-133.333333333333,4,2,1,70,0,1
70478,-133.333333333333,4,2,1,5,0,1
70559,-133.333333333333,4,2,1,70,0,1
71127,-133.333333333333,4,2,1,5,0,1
71208,-90.9090909090909,4,2,1,70,0,1
71857,-1000,4,2,1,50,0,0
71877,-1000,4,2,1,30,0,0
72505,-100,4,2,2,70,0,1
72749,-100,4,2,1,5,0,1
72830,-100,4,2,1,70,0,1
74046,-100,4,2,1,5,0,1
74127,-100,4,2,1,70,0,1
77938,-100,4,2,1,5,0,1
78019,-100,4,2,1,70,0,1
79235,-100,4,2,1,5,0,1
79316,-100,4,2,1,70,0,1
81587,-100,4,2,1,70,0,1
82235,-100,4,2,1,70,0,1
82316,-100,4,2,1,70,0,1
82397,-100,4,2,1,70,0,1
82478,-100,4,2,1,70,0,1
82559,-100,4,2,1,70,0,1
82641,-100,4,2,1,70,0,1
82722,-100,4,2,1,70,0,1
82803,-100,4,2,1,70,0,0
82884,-90.9090909090909,4,2,1,70,0,1
83127,-90.9090909090909,4,2,1,5,0,1
83208,-90.9090909090909,4,2,1,70,0,1
84424,-90.9090909090909,4,2,1,5,0,1
84505,-90.9090909090909,4,2,1,70,0,1
90668,-90.9090909090909,4,2,1,70,0,1
90830,-90.9090909090909,4,2,1,70,0,1
91154,-90.9090909090909,4,2,1,70,0,1
91884,-90.9090909090909,4,2,1,70,0,0
91965,-192.307692307692,4,2,2,70,0,1
91985,-192.307692307692,4,2,2,5,0,1
97154,-192.307692307692,4,2,2,5,0,0

[Colours]
Combo1 : 65,155,200
Combo2 : 255,128,255
Combo3 : 255,0,255
Combo4 : 255,128,192
Combo5 : 128,128,192
Combo6 : 91,102,196
Combo7 : 68,183,200
Combo8 : 124,151,200

[HitObjects]
151,62,1641,5,8,2:1:0:0:
151,62,1722,1,8,2:1:0:0:
151,62,1804,6,0,P|73:34|5:80,1,170,4|0,1:1|1:0,0:0:0:0:
20,229,2290,1,0,1:0:0:0:
214,277,2452,1,0,1:0:0:0:
86,126,2614,1,0,1:0:0:0:
101,326,2776,1,0,1:0:0:0:
205,155,2939,1,0,1:0:0:0:
314,336,3101,6,0,B|356:312|396:333|396:333|438:353|478:333,1,170,0|0,1:0|1:0,0:0:0:0:
378,182,3587,1,0,1:0:0:0:
440,255,3749,1,0,1:0:0:0:
285,215,3912,1,0,1:0:0:0:
400,90,4074,1,0,1:0:0:0:
355,270,4236,1,0,1:0:0:0:
300,115,4398,6,0,P|253:69|153:86,1,170,4|0,1:1|1:0,0:0:0:0:
60,135,4885,1,0,1:0:0:0:
185,310,5047,1,0,1:0:0:0:
157,83,5209,1,0,1:0:0:0:
41,344,5371,1,0,1:0:0:0:
185,310,5533,6,0,P|84:300|40:346,1,170,0|0,1:0|1:0,0:0:0:0:
125,377,6020,1,0,1:0:0:0:
262,359,6182,2,0,P|275:318|267:273,1,85,0|0,1:0|1:0,0:0:0:0:
250,175,6506,2,0,L|337:188,1,85,8|0,2:1|1:0,0:0:0:0:
170,240,6831,1,8,2:1:0:0:
220,75,6993,6,0,L|392:102,1,170,4|0,1:1|1:0,0:0:0:0:
510,115,7479,1,0,1:0:0:0:
443,197,7641,1,0,1:0:0:0:
388,101,7803,1,0,1:0:0:0:
485,275,7966,2,0,P|449:287|401:276,1,85,0|0,1:0|1:0,0:0:0:0:
298,249,8290,6,0,P|369:285|384:372,1,170,0|0,1:0|1:0,0:0:0:0:
296,341,8776,1,0,1:0:0:0:
205,195,8939,1,0,1:0:0:0:
208,383,9101,1,0,1:0:0:0:
300,134,9263,2,0,P|343:142|393:149,1,85,0|0,1:0|1:0,0:0:0:0:
249,33,9587,6,0,P|172:32|147:114,1,170,4|0,1:1|1:0,0:0:0:0:
300,134,10074,1,0,1:0:0:0:
114,239,10236,1,0,1:0:0:0:
329,230,10398,1,0,1:0:0:0:
145,110,10560,2,0,P|100:115|55:129,1,85,12|0,2:1|2:0,0:0:0:0:
22,327,10885,5,0,3:0:0:0:
22,327,10966,1,0,3:0:0:0:
22,327,11047,2,0,L|72:321,1,42.5,0|0,3:0|3:0,0:0:0:0:
122,247,11209,1,0,3:0:0:0:
122,247,11290,1,0,3:0:0:0:
122,246,11371,2,0,L|172:240,1,42.5,0|0,3:0|3:0,0:0:0:0:
220,165,11533,5,8,3:1:0:0:
145,110,11695,1,2,2:2:0:0:
230,75,11858,6,2,P|252:80|286:86,1,42.5,2|0,2:2|0:0,0:0:0:0:
410,84,12182,6,0,P|364:112|352:190,1,127.5,4|0,1:1|2:0,0:0:0:0:
405,244,12506,2,0,P|442:240|492:237,1,85,8|0,2:1|2:0,0:0:0:0:
321,358,12831,1,0,1:0:0:0:
349,180,12993,1,0,1:0:0:0:
252,282,13155,2,0,P|215:278|165:275,1,85,8|0,2:1|2:0,0:0:0:0:
238,182,13479,6,0,L|103:174,1,127.5,0|0,1:0|2:0,0:0:0:0:
61,107,13803,2,0,P|21:124|-1:158,1,85,8|0,2:1|2:0,0:0:0:0:
146,97,14128,1,0,1:0:0:0:
42,248,14290,1,0,1:0:0:0:
98,26,14452,2,0,P|141:12|183:20,1,85,8|0,2:1|2:0,0:0:0:0:
231,164,14776,6,0,P|172:154|146:94,1,127.5,4|0,1:1|2:0,0:0:0:0:
179,18,15101,2,0,P|225:21|270:23,1,85,8|0,2:1|2:0,0:0:0:0:
316,168,15425,2,0,P|274:167|232:164,1,85,0|0,1:0|1:0,0:0:0:0:
417,31,15749,1,8,2:1:0:0:
484,180,15912,1,0,2:0:0:0:
305,295,16074,6,0,P|309:231|316:168,1,127.5,0|0,1:0|2:0,0:0:0:0:
325,80,16398,1,8,2:1:0:0:
218,162,16560,2,0,P|220:141|222:120,2,42.5,2|2|0,2:2|2:2|1:0,0:0:0:0:
150,231,16885,1,0,1:0:0:0:
75,184,17047,2,0,P|80:132|86:90,1,85,8|0,2:1|2:0,0:0:0:0:
43,269,17371,6,0,P|72:234|154:233,1,127.5,4|0,1:1|2:0,0:0:0:0:
217,287,17695,2,0,P|211:329|207:371,1,85,8|0,2:1|2:0,0:0:0:0:
292,189,18020,1,0,1:0:0:0:
339,351,18182,1,0,1:0:0:0:
389,205,18344,1,8,2:1:0:0:
436,367,18506,1,0,2:0:0:0:
273,99,18668,6,0,P|226:120|207:149,1,85,0|0,1:0|2:0,0:0:0:0:
312,11,18993,2,0,L|219:5,1,85,8|0,2:1|2:0,0:0:0:0:
374,89,19317,2,0,L|458:94,1,85,0|0,1:0|1:0,0:0:0:0:
273,99,19641,1,8,2:1:0:0:
414,0,19803,1,0,2:0:0:0:
436,193,19966,5,12,2:1:0:0:
286,183,20128,2,0,L|273:99,1,85,0|8,1:0|2:1,0:0:0:0:
315,339,20452,6,0,L|360:334,1,42.5,2|0,2:2|2:0,0:0:0:0:
432,286,20614,2,0,L|483:292,3,42.5,0|0|2|8,1:0|0:0|2:2|2:1,0:0:0:0:
501,272,20939,1,8,2:1:0:0:
394,89,21101,1,2,2:2:0:0:
391,106,21182,1,2,2:2:0:0:
387,123,21263,6,0,P|425:108|469:115,1,85,4|0,1:1|1:0,0:0:0:0:
300,84,21587,2,0,L|294:-6,1,85,12|0,2:1|2:0,0:0:0:0:
217,131,21912,2,0,P|199:174|204:214,1,85,0|0,1:0|1:0,0:0:0:0:
202,42,22236,2,0,L|73:49,1,127.5,4|0,2:3|2:0,0:0:0:0:
47,32,22560,6,0,P|19:51|7:78,1,63.7500024318696,4|0,1:1|2:0,0:0:0:0:
63,153,22885,2,0,P|88:183|112:191,1,63.7500024318696,0|0,1:0|2:0,0:0:0:0:
37,262,23209,2,0,P|10:289|4:313,1,63.7500024318696,0|0,1:0|0:0,0:0:0:0:
63,376,23533,1,0,1:0:0:0:
63,376,23695,1,0,2:0:0:0:
99,262,23858,6,0,P|66:255|34:262,1,63.7500024318696,0|0,1:0|2:0,0:0:0:0:
170,319,24182,2,0,P|202:325|235:319,1,63.7500024318696,0|0,1:0|2:0,0:0:0:0:
125,148,24506,2,0,P|93:191|100:264,1,127.500004863739,0|0,1:0|1:0,0:0:0:0:
170,319,24993,1,0,2:0:0:0:
185,137,25155,6,0,P|156:134|120:152,1,63.7500024318696,0|0,1:0|2:0,0:0:0:0:
270,80,25479,2,0,L|263:15,1,63.7500024318696,0|0,1:0|2:0,0:0:0:0:
277,179,25803,2,0,L|270:242,1,63.7500024318696,0|0,1:0|0:0,0:0:0:0:
369,128,26128,1,0,1:0:0:0:
369,128,26290,1,0,2:0:0:0:
474,174,26452,6,0,P|443:136|368:128,1,127.500004863739,0|0,1:0|1:0,0:0:0:0:
277,179,26939,1,0,2:0:0:0:
356,240,27101,6,0,L|351:343,2,95.6250036478044,10|2|2,2:3|2:3|2:3,0:0:0:0:
277,179,27749,6,0,P|266:225|266:253,1,63.7500024318696,4|0,1:1|2:0,0:0:0:0:
301,83,28074,2,0,P|254:82|221:95,1,63.7500024318696,0|0,1:0|2:0,0:0:0:0:
397,97,28398,2,0,P|408:51|408:23,1,63.7500024318696,0|0,1:0|2:0,0:0:0:0:
373,193,28722,1,0,1:0:0:0:
488,115,28885,1,0,2:0:0:0:
301,83,29047,6,0,P|254:82|221:95,1,63.7500024318696,0|0,1:0|0:0,0:0:0:0:
373,193,29371,2,0,P|420:194|453:181,1,63.7500024318696,0|0,1:0|2:0,0:0:0:0:
277,179,29695,2,0,P|266:225|271:306,1,127.500004863739,0|0,1:0|1:0,0:0:0:0:
370,361,30182,1,0,2:0:0:0:
282,325,30344,6,0,P|246:313|211:314,1,63.7500024318696,0|0,1:0|2:0,0:0:0:0:
128,326,30668,1,0,1:0:0:0:
73,252,30831,1,0,2:0:0:0:
166,240,30993,2,0,P|173:202|169:170,1,63.7500024318696,0|0,1:0|2:0,0:0:0:0:
220,312,31317,2,0,P|245:333|282:340,1,63.7500024318696,0|0,1:0|2:0,0:0:0:0:
166,240,31641,6,0,P|105:217|46:241,1,127.500004863739,0|0,1:0|1:0,0:0:0:0:
49,238,32290,1,8,2:1:0:0:
88,49,32452,1,8,2:1:0:0:
166,240,32614,1,8,2:1:0:0:
205,51,32776,1,8,2:1:0:0:
285,240,32939,6,0,P|294:169|305:93,1,144.500002756119,4|8,1:1|2:1,0:0:0:0:
374,39,33425,1,0,2:0:0:0:
382,252,33587,2,0,P|388:213|395:175,1,72.2500013780594,0|0,1:0|0:0,0:0:0:0:
285,240,33912,2,0,P|278:275|273:311,1,72.2500013780594,0|8,2:0|2:1,0:0:0:0:
222,155,34236,6,0,P|162:162|134:208,1,108.375002067089,2|0,2:2|2:0,0:0:0:0:
110,281,34560,2,0,P|71:273|33:283,1,72.2500013780594,8|0,2:1|2:0,0:0:0:0:
214,238,34885,2,0,P|249:246|285:240,1,72.2500013780594,0|0,1:0|1:0,0:0:0:0:
197,349,35209,1,8,2:1:0:0:
197,349,35533,6,0,P|236:341|274:351,1,72.2500013780594,0|0,1:0|0:0,0:0:0:0:
378,262,35858,2,0,P|339:270|301:260,1,72.2500013780594,8|0,2:1|2:0,0:0:0:0:
479,208,36182,2,0,L|469:357,1,144.500002756119,0|0,1:0|2:0,0:0:0:0:
469,352,36668,1,8,2:1:0:0:
378,262,36831,6,0,P|347:291|338:326,1,72.2500013780594,2|0,2:2|1:0,0:0:0:0:
249,150,37155,2,0,P|265:189|291:208,1,72.2500013780594,8|0,2:1|2:0,0:0:0:0:
371,44,37479,1,0,1:0:0:0:
330,132,37641,1,0,1:0:0:0:
256,17,37803,2,0,L|185:23,1,72.2500013780594,8|0,2:1|2:0,0:0:0:0:
78,72,38128,6,0,P|117:93|130:118,1,72.2500013780594,0|0,1:0|1:0,0:0:0:0:
197,185,38452,2,0,P|172:207|134:215,1,72.2500013780594,8|0,2:1|2:0,0:0:0:0:
49,302,38776,2,0,L|54:144,1,144.500002756119,0|0,1:0|2:0,0:0:0:0:
53,157,39263,1,8,2:1:0:0:
49,303,39425,6,0,P|91:300|121:320,1,72.2500013780594,2|0,2:2|1:0,0:0:0:0:
221,272,39749,2,0,P|232:308|228:343,1,72.2500013780594,8|0,2:1|2:0,0:0:0:0:
145,197,40074,6,0,P|191:155|272:167,1,144.500002756119,2|0,2:2|2:0,0:0:0:0:
284,184,40722,6,0,L|368:176,1,85,4|0,1:1|2:0,0:0:0:0:
259,20,41047,1,8,2:1:0:0:
284,184,41209,1,0,2:0:0:0:
108,39,41371,6,0,L|24:47,1,85,0|0,1:0|1:0,0:0:0:0:
123,203,41696,1,8,2:1:0:0:
108,39,41858,1,0,2:0:0:0:
194,114,42020,5,0,1:0:0:0:
8,202,42182,1,0,1:0:0:0:
167,315,42344,2,0,L|252:309,1,85,8|0,2:1|2:0,0:0:0:0:
65,284,42668,2,0,L|46:371,1,85,0|0,1:0|1:0,0:0:0:0:
141,209,42993,2,0,L|111:121,1,85,8|0,2:1|2:0,0:0:0:0:
260,35,43317,5,12,2:1:0:0:
141,209,43479,1,0,2:0:0:0:
335,85,43641,5,8,2:1:0:0:
220,260,43803,1,0,2:0:0:0:
410,135,43966,5,8,2:1:0:0:
300,310,44128,1,0,1:0:0:0:
485,185,44290,5,8,2:1:0:0:
380,355,44452,1,0,2:0:0:0:
335,85,44614,6,0,L|363:4,1,85,12|0,2:1|2:0,0:0:0:0:
410,135,44939,2,0,L|396:176,3,42.5,0|0|0|0,3:0|3:0|3:0|3:0,0:0:0:0:
319,221,45263,1,0,3:0:0:0:
319,221,45344,1,0,3:0:0:0:
319,221,45425,2,0,L|326:262,1,42.5,0|0,3:0|3:0,0:0:0:0:
224,241,45587,2,0,L|216:196,3,42.5,0|0|0|0,3:0|3:0|3:0|3:0,0:0:0:0:
160,125,45912,5,10,2:2:0:0:
158,112,45993,1,2,2:2:0:0:
156,99,46074,1,2,2:2:0:0:
154,87,46155,1,2,2:2:0:0:
151,74,46236,6,0,L|85:81,1,63.75,2|0,2:2|2:0,0:0:0:0:
10,38,46560,6,0,B|-7:82|-7:82|8:120,1,85,6|0,2:2|2:0,0:0:0:0:
79,251,46884,2,0,B|96:211|96:211|81:169,1,85,8|0,2:1|2:0,0:0:0:0:
7,311,47208,2,0,P|41:338|85:343,1,85,0|0,1:0|1:0,0:0:0:0:
232,254,47532,2,0,P|175:275|161:298,1,85,8|0,2:1|2:0,0:0:0:0:
308,321,47857,6,0,B|333:268|333:268|309:159,1,170,0|8,1:0|2:1,0:0:0:0:
230,146,48505,2,0,P|269:165|312:158,1,85,0|0,1:0|1:0,0:0:0:0:
142,70,48830,2,0,P|100:64|62:83,1,85,8|0,2:1|2:0,0:0:0:0:
249,31,49154,6,0,P|291:25|329:44,1,85,0|0,1:0|1:0,0:0:0:0:
127,249,49478,1,8,2:1:0:0:
115,150,49640,1,0,2:0:0:0:
265,272,49803,2,0,L|256:356,1,85,0|0,1:0|1:0,0:0:0:0:
239,178,50127,2,0,P|280:172|318:191,1,85,8|0,2:1|2:0,0:0:0:0:
139,348,50451,6,0,L|51:341,1,85,0|0,1:0|1:0,0:0:0:0:
265,272,50776,1,8,2:1:0:0:
256,356,50938,1,0,2:0:0:0:
127,249,51100,2,0,L|39:242,1,85,0|0,1:0|1:0,0:0:0:0:
239,178,51424,2,0,P|273:146|316:140,1,85,8|0,2:1|2:0,0:0:0:0:
139,118,51749,6,0,P|130:73|142:34,1,85,4|0,1:1|1:0,0:0:0:0:
239,178,52073,2,0,P|248:223|236:262,1,85,8|0,2:1|2:0,0:0:0:0:
226,78,52397,2,0,L|311:83,1,85,0|0,1:0|1:0,0:0:0:0:
158,217,52722,2,0,L|73:212,1,85,8|0,2:1|2:0,0:0:0:0:
326,183,53046,6,0,P|248:156|226:78,1,170,0|8,1:0|2:1,0:0:0:0:
425,148,53532,1,0,2:0:0:0:
427,256,53695,2,0,L|414:339,1,85,0|0,1:0|1:0,0:0:0:0:
313,100,54019,1,8,2:1:0:0:
427,256,54181,1,0,2:0:0:0:
313,100,54343,6,0,L|326:183,1,85,0|0,1:0|1:0,0:0:0:0:
224,44,54668,2,0,L|211:127,1,85,8|0,2:1|2:0,0:0:0:0:
107,110,54992,2,0,L|120:193,1,85,0|0,1:0|1:0,0:0:0:0:
21,42,55316,2,0,L|8:125,1,85,8|0,2:1|2:0,0:0:0:0:
15,325,55641,5,8,2:1:0:0:
120,193,55803,1,0,1:0:0:0:
110,384,55965,1,8,2:1:0:0:
197,251,56127,1,0,2:0:0:0:
15,325,56289,5,8,2:1:0:0:
15,325,56370,2,0,L|10:238,1,85,8|8,2:1|2:1,0:0:0:0:
110,384,56614,6,0,L|108:352,1,31.8750012159348,8|0,2:1|1:0,0:0:0:0:
90,185,56938,6,0,L|96:269,1,85,4|0,1:1|2:0,0:0:0:0:
181,85,57262,2,0,L|176:0,1,85,8|0,2:1|2:0,0:0:0:0:
85,85,57587,2,0,L|0:90,1,85,0|0,1:0|1:0,0:0:0:0:
186,178,57911,2,0,L|271:173,1,85,8|0,2:1|2:0,0:0:0:0:
85,85,58235,6,0,P|50:159|80:237,1,170,0|8,1:0|2:1,0:0:0:0:
80,237,58884,2,0,P|34:239|2:263,1,85,0|0,1:0|1:0,0:0:0:0:
155,333,59208,2,0,P|201:335|233:359,1,85,8|0,2:1|2:0,0:0:0:0:
189,227,59532,6,0,L|183:142,1,85,0|0,1:0|1:0,0:0:0:0:
297,50,59857,2,0,L|302:134,1,85,8|0,2:1|2:0,0:0:0:0:
180,50,60181,2,0,P|120:44|97:58,1,85,0|0,1:0|1:0,0:0:0:0:
311,230,60505,2,0,P|371:236|394:222,1,85,8|0,2:1|2:0,0:0:0:0:
297,50,60830,5,0,1:0:0:0:
311,230,60992,1,0,1:0:0:0:
180,50,61154,1,8,2:1:0:0:
189,227,61316,1,0,2:0:0:0:
302,135,61478,5,0,1:0:0:0:
68,208,61641,1,0,1:0:0:0:
231,357,61803,1,8,2:1:0:0:
47,308,62127,5,12,2:1:0:0:
82,113,62289,1,0,2:0:0:0:
139,334,62451,5,8,2:1:0:0:
179,139,62613,1,0,2:0:0:0:
231,357,62776,5,8,2:1:0:0:
277,164,62938,1,0,1:0:0:0:
333,381,63100,5,8,2:1:0:0:
372,184,63262,1,0,1:0:0:0:
196,44,63424,5,8,2:1:0:0:
160,229,63586,1,0,2:0:0:0:
333,381,63749,5,8,2:1:0:0:
372,184,63911,1,0,2:0:0:0:
160,229,64073,6,0,L|150:322,1,93.5000028533936,8|0,2:1|1:0,0:0:0:0:
284,160,64397,2,0,L|295:67,1,93.5000028533936,8|0,2:1|1:0,0:0:0:0:
98,156,64722,6,0,P|41:151|7:169,1,93.5000028533936,12|0,2:1|2:0,0:0:0:0:
150,322,65046,5,8,2:1:0:0:
179,92,65208,1,0,2:0:0:0:
251,344,65370,5,8,2:1:0:0:
284,160,65532,1,0,1:0:0:0:
352,366,65695,5,8,2:1:0:0:
389,228,65857,1,0,1:0:0:0:
508,292,66019,6,0,L|494:384,1,93.5000028533936,8|0,2:1|2:0,0:0:0:0:
251,344,66343,2,0,L|265:251,1,93.5000028533936,8|0,2:1|2:0,0:0:0:0:
466,110,66668,5,8,2:1:0:0:
389,228,66830,1,0,1:0:0:0:
508,292,66992,5,8,2:1:0:0:
481,204,67154,1,0,0:0:0:0:
389,228,67316,6,0,P|273:206|278:89,1,255.000009727478,4|4,1:1|2:3,0:0:0:0:
277,90,68614,6,0,B|213:129|152:96|152:96|93:65|35:100,1,255.000009727478,4|2,1:1|2:2,0:0:0:0:
35,100,69911,6,0,P|108:158|23:196,1,223.125008511544,4|0,1:1|2:0,0:0:0:0:
23,196,70559,6,0,B|65:222|65:222|34:285|49:331|49:331|90:332|103:355,1,223.125008511544,4|0,1:1|2:0,0:0:0:0:
103,354,71208,6,0,P|140:313|138:246,1,93.5000028533936,8|0,2:1|1:0,0:0:0:0:
255,30,71532,1,8,2:1:0:0:
103,354,71857,6,0,L|125:353,1,22.6666666666667,2|0,2:2|2:0,0:0:0:0:
126,353,72505,6,0,P|188:326|241:346,1,127.5,6|0,2:2|2:0,0:0:0:0:
325,325,72830,2,0,L|317:241,1,85,8|0,2:1|2:0,0:0:0:0:
431,162,73154,2,0,L|423:246,1,85,0|0,1:0|1:0,0:0:0:0:
231,190,73478,2,0,P|259:153|294:143,1,85,8|0,2:1|2:0,0:0:0:0:
172,263,73803,6,0,L|32:250,1,127.5,0|0,1:0|2:0,0:0:0:0:
6,157,74127,2,0,L|92:165,1,85,8|0,2:1|2:0,0:0:0:0:
214,364,74451,2,0,L|129:356,1,85,0|0,1:0|1:0,0:0:0:0:
229,186,74776,1,8,2:1:0:0:
214,364,74938,1,0,2:0:0:0:
339,264,75100,6,0,P|381:299|390:328,1,85,4|0,1:1|2:0,0:0:0:0:
229,186,75424,1,8,2:1:0:0:
409,134,75587,1,0,2:0:0:0:
304,38,75749,2,0,P|257:28|220:38,1,85,0|0,1:0|1:0,0:0:0:0:
427,10,76073,1,8,2:1:0:0:
409,134,76235,1,0,2:0:0:0:
123,13,76397,6,0,L|135:107,1,85,0|0,1:0|0:1,0:0:0:0:
229,186,76722,2,0,L|217:280,1,85,8|0,2:1|2:0,0:0:0:0:
14,384,77046,1,0,1:0:0:0:
30,184,77208,1,0,1:0:0:0:
203,370,77370,2,0,L|291:361,1,85,8|0,2:1|2:0,0:0:0:0:
121,312,77695,6,0,P|73:272|11:276,1,127.5,4|0,1:1|2:0,0:0:0:0:
30,184,78019,2,0,L|42:99,1,85,8|0,2:1|2:0,0:0:0:0:
184,36,78343,1,0,1:0:0:0:
30,184,78505,1,0,1:0:0:0:
250,240,78668,2,0,P|290:253|335:247,1,85,8|0,2:1|2:0,0:0:0:0:
165,137,78992,6,0,L|153:266,1,127.5,0|0,1:0|2:0,0:0:0:0:
91,335,79316,2,0,P|49:322|3:338,1,85,8|0,2:1|2:0,0:0:0:0:
225,344,79641,2,0,P|265:357|310:351,1,85,0|0,1:0|1:0,0:0:0:0:
424,251,79965,1,8,2:1:0:0:
275,138,80127,1,0,2:0:0:0:
153,264,80289,5,12,2:1:0:0:
221,53,80451,1,0,1:0:0:0:
225,344,80614,5,8,2:1:0:0:
165,137,80776,1,0,2:0:0:0:
91,335,80938,6,0,L|46:328,1,42.5,4|0,3:3|3:0,0:0:0:0:
263,247,81100,2,0,L|308:240,1,42.5,0|0,2:0|3:0,0:0:0:0:
79,91,81262,2,0,B|61:131|61:131|75:170,1,85,8|0,2:1|1:0,0:0:0:0:
225,344,81587,5,12,2:1:0:0:
165,137,81749,1,0,1:0:0:0:
331,335,81911,5,12,2:1:0:0:
334,106,82073,1,0,1:0:0:0:
437,326,82235,5,4,2:3:0:0:
437,326,82316,1,0,2:0:0:0:
437,326,82397,2,0,P|462:319|483:302,1,42.5,0|2,1:0|2:2,0:0:0:0:
476,222,82559,1,4,2:3:0:0:
476,222,82641,1,2,2:2:0:0:
476,222,82722,2,0,P|453:202|430:196,1,42.5,2|2,2:2|2:2,0:0:0:0:
346,192,82884,6,0,P|397:167|416:89,1,140.25000428009,4|0,1:1|2:0,0:0:0:0:
360,25,83208,2,0,L|251:17,1,93.5000028533936,8|0,2:1|2:0,0:0:0:0:
72,86,83532,1,0,1:0:0:0:
167,53,83695,1,0,1:0:0:0:
142,241,83857,2,0,P|157:209|145:149,1,93.5000028533936,8|0,2:1|2:0,0:0:0:0:
54,276,84181,6,0,B|97:329|97:329|176:334,1,140.25000428009,0|0,1:0|2:0,0:0:0:0:
263,351,84505,2,0,P|253:303|266:260,1,93.5000028533936,8|0,2:1|2:0,0:0:0:0:
374,112,84830,1,0,1:0:0:0:
340,307,84992,1,0,1:0:0:0:
490,135,85154,1,8,2:1:0:0:
456,330,85316,1,0,2:0:0:0:
374,112,85478,6,0,L|281:94,1,93.5000028533936,4|0,1:1|2:0,0:0:0:0:
249,290,85803,2,0,L|340:307,1,93.5000028533936,8|0,2:1|2:0,0:0:0:0:
203,168,86127,2,0,L|111:150,1,93.5000028533936,0|0,1:0|1:0,0:0:0:0:
77,345,86452,2,0,L|168:362,1,93.5000028533936,8|0,2:1|2:0,0:0:0:0:
111,150,86776,6,0,B|93:194|93:194|110:241,1,93.5000028533936,0|0,1:0|0:1,0:0:0:0:
320,210,87100,2,0,L|411:227,1,93.5000028533936,8|2,2:1|2:2,0:0:0:0:
442,206,87343,1,2,2:2:0:0:
442,206,87424,1,0,1:0:0:0:
248,289,87587,1,0,1:0:0:0:
143,57,87749,2,0,L|235:43,1,93.5000028533936,8|0,2:1|2:0,0:0:0:0:
47,76,88073,5,12,2:1:0:0:
144,298,88235,1,0,2:0:0:0:
143,57,88397,5,8,2:1:0:0:
248,289,88559,1,0,2:0:0:0:
111,150,88722,5,8,2:1:0:0:
75,370,88884,1,0,1:0:0:0:
207,133,89046,5,8,2:1:0:0:
319,355,89208,1,0,1:0:0:0:
236,43,89370,5,8,2:1:0:0:
144,298,89532,1,0,2:0:0:0:
298,111,89695,5,8,2:1:0:0:
410,349,89857,1,0,2:0:0:0:
385,90,90019,5,8,2:1:0:0:
319,355,90181,1,0,1:0:0:0:
264,287,90343,2,0,P|309:267|353:276,1,93.5000028533936,8|0,2:1|1:0,0:0:0:0:
111,150,90668,5,12,2:1:0:0:
264,287,90830,1,0,1:0:0:0:
144,298,90992,5,4,2:3:0:0:
231,139,91154,1,0,1:0:0:0:
400,195,91316,6,0,L|445:209,3,46.7500014266968,4|0|0|0,2:3|2:0|1:0|2:0,0:0:0:0:
511,325,91641,2,0,L|459:309,1,46.7500014266968,4|0,2:3|2:0,0:3:0:0:
369,350,91803,2,0,P|347:367|350:393,1,46.7500014266968,2|2,2:2|2:2,0:0:0:0:
260,380,91965,6,0,B|271:308|295:224|399:300|515:224|435:176|595:120|507:32|431:-44|307:-56|258:119|258:119|215:-56|87:-44|11:32|-77:120|83:180|-5:228|111:296|219:224|243:297|249:353,1,1414.39999136719,6|0,2:2|2:0,0:0:0:0:
