osu file format v14

[General]
AudioFilename: 01. Ao To Natsu.mp3
AudioLeadIn: 0
PreviewTime: 46155
Countdown: 0
SampleSet: Soft
StackLeniency: 0.2
Mode: 0
LetterboxInBreaks: 0
EpilepsyWarning: 1
WidescreenStoryboard: 1

[Editor]
DistanceSpacing: 1
BeatDivisor: 4
GridSize: 32
TimelineZoom: 4

[Metadata]
Title:Ao to Natsu
TitleUnicode:青と夏
Artist:Mrs. GREEN APPLE
ArtistUnicode:Mrs. GREEN APPLE
Creator:gokugohan12468
Version:Another
Source:青夏 きみに恋した30日
Tags:blue and summer 30 days in love with you ost original soundtrack movie ao natsu: kimi ni koi shita 30 nichi theme song ミセスグリーンアップル motoki omori 大森元貴 hiroto wakai 若井滉斗 ayaka yamanaka 山中綾華 ryoka fujisawa 藤澤涼架 kiyokatsu takano 髙野清宗 FunnyA KittyAdventure ulfanirahmi Raytoly Rhytoly short cut ver version size Attitude jpop pop japanese ohmori
BeatmapID:2437060
BeatmapSetID:992659

[Difficulty]
HPDrainRate:5.4
CircleSize:3.8
OverallDifficulty:8
ApproachRate:8.8
SliderMultiplier:1.6
SliderTickRate:2

[Events]
//Background and Video events
0,0,"1dee453148920d75578a6478faea55a6.jpg",0,0
//Break Periods
//Storyboard Layer 0 (Background)
//Storyboard Layer 1 (Fail)
//Storyboard Layer 2 (Pass)
//Storyboard Layer 3 (Foreground)
//Storyboard Layer 4 (Overlay)
//Storyboard Sound Samples

[TimingPoints]
1804,324.324324324324,4,2,1,50,1,0
11858,-200,4,2,1,50,0,0
12101,-200,4,2,1,5,0,0
12182,-100,4,2,1,70,0,1
22479,-100,4,2,1,5,0,1
22560,-133.333333333333,4,2,1,50,0,0
32939,-133.333333333333,4,2,1,50,0,0
40074,-133.333333333333,4,2,1,50,0,0
40722,-100,4,2,1,60,0,0
45912,324.324324324324,4,2,1,50,1,8
45912,-100,4,2,1,50,0,0
46236,-200,4,2,1,50,0,0
46478,-200,4,2,1,5,0,0
46560,324.324324324324,4,2,2,70,1,1
46560,-95.2380952380952,4,2,2,70,0,1
46884,-95.2380952380952,4,2,1,70,0,1
56614,-133.333333333333,4,2,1,50,0,0
56938,-95.2380952380952,4,2,1,70,0,1
61803,-200,4,2,1,50,0,0
62127,-95.2380952380952,4,2,1,70,0,1
67316,-133.333333333333,4,2,1,70,0,1
70559,-133.333333333333,4,2,1,70,0,1
71208,-133.333333333333,4,2,1,70,0,1
71857,-133.333333333333,4,2,1,50,0,0
72505,-95.2380952380952,4,2,2,70,0,1
72829,-95.2380952380952,4,2,1,70,0,1
76559,-95.2380952380952,4,2,2,70,0,1
76722,-95.2380952380952,4,2,1,70,0,1
82803,-95.2380952380952,4,2,1,70,0,0
82884,-95.2380952380952,4,2,1,70,0,1
91884,-95.2380952380952,4,2,1,70,0,0
91965,-212.765957446809,4,2,2,70,0,1
91985,-212.765957446809,4,2,2,5,0,1
97154,-212.765957446809,4,2,2,5,0,0

[Colours]
Combo1 : 65,155,200
Combo2 : 255,128,255
Combo3 : 255,0,255
Combo4 : 255,128,192
Combo5 : 128,128,192
Combo6 : 91,102,196
Combo7 : 68,183,200
Combo8 : 124,151,200

[HitObjects]
35,95,1641,5,8,2:1:0:0:
35,95,1722,1,8,2:1:0:0:
35,95,1804,6,0,B|111:92|111:92|115:97|115:97|192:95,1,160,4|0,1:1|1:0,0:0:0:0:
278,143,2290,1,0,1:0:0:0:
194,267,2452,2,0,P|185:229|195:191,1,80,0|0,1:0|1:0,0:0:0:0:
278,47,2776,2,0,L|360:53,1,80,0|0,1:0|1:0,0:0:0:0:
352,238,3101,6,0,L|272:232,1,80,0|0,1:0|0:0,0:0:0:0:
433,201,3425,2,0,P|442:239|432:277,1,80,0|0,1:0|1:0,0:0:0:0:
270,325,3749,1,0,1:0:0:0:
278,143,3912,1,0,1:0:0:0:
100,135,4074,1,0,1:0:0:0:
92,317,4237,1,0,1:0:0:0:
272,232,4398,6,0,P|344:204|364:130,1,160,4|0,1:1|1:0,0:0:0:0:
193,95,4885,1,0,1:0:0:0:
47,223,5047,1,0,1:0:0:0:
180,375,5209,1,0,1:0:0:0:
272,232,5371,2,0,L|352:238,1,80,0|0,1:0|1:0,0:0:0:0:
415,45,5695,6,0,L|335:39,1,80,0|0,1:0|1:0,0:0:0:0:
410,305,6020,2,0,P|432:272|438:233,1,80,0|0,1:0|1:0,0:0:0:0:
278,143,6344,1,0,1:0:0:0:
245,315,6506,2,0,L|325:321,1,80,8|0,2:1|1:0,0:0:0:0:
390,160,6831,1,8,2:1:0:0:
175,225,6993,6,0,B|133:208|87:227|106:249|68:264|24:250,1,160,4|0,1:1|1:0,0:0:0:0:
50,170,7479,1,0,1:0:0:0:
148,302,7641,2,0,L|135:381,1,80,0|0,1:0|1:0,0:0:0:0:
300,220,7966,2,0,L|287:141,1,80,0|0,1:0|1:0,0:0:0:0:
63,91,8290,6,0,L|50:170,1,80,0|0,1:0|0:0,0:0:0:0:
148,302,8614,1,0,1:0:0:0:
179,123,8776,1,0,1:0:0:0:
304,308,8939,2,0,P|342:299|369:271,1,80,0|0,1:0|1:0,0:0:0:0:
179,123,9263,2,0,L|166:202,1,80,0|0,1:0|1:0,0:0:0:0:
255,25,9587,6,0,B|343:36|299:94|384:106,1,160,4|0,1:1|1:0,0:0:0:0:
450,180,10074,1,0,1:0:0:0:
369,270,10236,2,0,P|353:242|356:193,1,80,0|0,1:0|1:0,0:0:0:0:
266,342,10560,2,0,P|300:361|340:359,1,80,12|0,2:1|2:0,0:0:0:0:
266,155,10885,5,0,3:0:0:0:
228,163,10966,1,0,3:0:0:0:
195,186,11047,1,0,3:0:0:0:
175,220,11128,1,0,3:0:0:0:
170,260,11209,2,0,L|174:299,3,40,0|0|0|0,3:0|3:0|3:0|3:0,0:0:0:0:
158,328,11533,5,8,3:1:0:0:
53,360,11695,1,2,2:2:0:0:
22,262,11858,2,0,P|20:232|3:208,1,60,2|0,2:2|2:0,0:0:0:0:
3,208,12182,6,0,B|88:231|57:156|151:177,1,160,4|8,1:1|2:1,0:0:0:0:
225,120,12668,1,0,2:0:0:0:
196,34,12831,2,0,P|162:55|143:90,1,80,0|0,1:0|1:0,0:0:0:0:
258,202,13155,2,0,P|291:180|310:145,1,80,8|0,2:1|2:0,0:0:0:0:
190,255,13479,6,0,L|197:338,1,80,0|0,1:0|0:0,0:0:0:0:
390,165,13803,2,0,P|393:124|376:88,1,80,8|0,2:1|2:0,0:0:0:0:
225,120,14128,1,0,1:0:0:0:
105,250,14290,1,0,1:0:0:0:
280,290,14452,2,0,L|287:373,1,80,8|0,2:1|2:0,0:0:0:0:
84,161,14776,6,0,P|45:178|23:209,1,80,4|0,1:1|0:0,0:0:0:0:
123,337,15101,2,0,P|162:320|184:289,1,80,8|0,2:1|2:0,0:0:0:0:
137,83,15425,1,0,1:0:0:0:
105,250,15587,1,0,1:0:0:0:
225,120,15749,2,0,L|305:127,1,80,8|0,2:1|2:0,0:0:0:0:
137,83,16074,6,0,P|68:50|1:86,1,160,0|8,1:0|2:1,0:0:0:0:
190,200,16560,2,0,L|193:239,1,40,2|2,2:2|2:2,0:0:0:0:
105,250,16722,2,0,L|98:166,1,80,0|0,1:0|1:0,0:0:0:0:
305,127,17047,2,0,L|311:206,1,80,8|0,2:1|2:0,0:0:0:0:
101,340,17371,6,0,P|62:330|31:305,1,80,4|0,1:1|0:0,0:0:0:0:
310,295,17695,2,0,P|348:285|379:260,1,80,8|0,2:1|2:0,0:0:0:0:
305,127,18020,1,0,1:0:0:0:
232,252,18182,1,0,1:0:0:0:
462,278,18344,2,0,P|462:238|445:202,1,80,8|0,2:1|2:0,0:0:0:0:
310,295,18668,6,0,L|305:378,1,80,0|0,1:0|2:0,0:0:0:0:
149,285,18993,2,0,P|141:246|153:209,1,80,8|0,2:1|2:0,0:0:0:0:
309,50,19317,2,0,P|317:89|305:127,1,80,0|0,1:0|1:0,0:0:0:0:
108,130,19641,2,0,L|25:125,1,80,8|0,2:1|2:0,0:0:0:0:
167,55,19966,5,12,2:1:0:0:
153,208,20128,1,0,1:0:0:0:
305,126,20290,2,0,L|388:121,1,80,8|2,2:1|2:2,0:0:0:0:
463,168,20533,1,0,2:0:0:0:
463,168,20614,2,0,P|474:205|466:244,1,80,0|2,1:0|2:2,0:0:0:0:
393,293,20858,1,8,2:1:0:0:
393,293,20939,1,8,2:1:0:0:
205,319,21101,2,0,L|208:272,1,40,2|2,2:2|2:2,0:0:0:0:
152,207,21263,6,0,P|114:201|77:217,1,80,4|0,1:1|1:0,0:0:0:0:
305,126,21587,2,0,P|343:132|380:116,1,80,12|0,2:1|2:0,0:0:0:0:
167,55,21912,1,0,1:0:0:0:
167,55,22074,1,0,1:0:0:0:
208,279,22236,2,0,L|327:269,1,120,4|0,2:3|2:0,0:0:0:0:
344,251,22560,6,0,P|368:304|353:360,2,120.000004577637,4|0|0,1:1|1:0|1:0,0:0:0:0:
264,206,23371,1,0,0:0:0:0:
305,126,23533,2,0,L|365:129,1,60.0000022888184,0|0,1:0|2:0,0:0:0:0:
369,43,23858,6,0,L|309:40,1,60.0000022888184,0|0,1:0|2:0,0:0:0:0:
155,120,24182,2,0,L|215:123,1,60.0000022888184,0|0,1:0|2:0,0:0:0:0:
330,285,24506,2,0,P|317:229|264:206,1,120.000004577637,0|0,1:0|1:0,0:0:0:0:
126,251,24993,1,0,2:0:0:0:
171,332,25155,6,0,P|194:313|208:286,1,60.0000022888184,0|0,1:0|2:0,0:0:0:0:
97,200,25479,2,0,P|117:222|125:250,1,60.0000022888184,0|0,1:0|2:0,0:0:0:0:
35,334,25803,2,0,L|40:274,1,60.0000022888184,0|0,1:0|0:0,0:0:0:0:
97,200,26128,1,0,1:0:0:0:
97,200,26290,1,0,2:0:0:0:
26,135,26452,6,0,P|16:108|19:78,1,60.0000022888184,0|0,1:0|2:0,0:0:0:0:
145,57,26776,2,0,P|118:70|101:95,1,60.0000022888184,0|0,1:0|2:0,0:0:0:0:
178,138,27101,2,0,P|222:136|258:162,2,90.0000034332277,10|2|2,2:3|2:3|2:3,0:0:0:0:
203,281,27749,6,0,L|196:215,1,60.0000022888184,4|0,1:1|2:0,0:0:0:0:
353,116,28074,2,0,L|346:175,1,60.0000022888184,0|0,1:0|2:0,0:0:0:0:
292,302,28398,2,0,L|285:236,1,60.0000022888184,0|0,1:0|2:0,0:0:0:0:
436,190,28722,1,0,1:0:0:0:
378,261,28885,1,0,2:0:0:0:
346,175,29047,6,0,L|353:116,1,60.0000022888184,0|0,1:0|0:0,0:0:0:0:
436,190,29371,2,0,L|443:131,1,60.0000022888184,0|0,1:0|2:0,0:0:0:0:
329,33,29695,2,0,P|296:49|279:72,1,60.0000022888184,0|0,1:0|2:0,0:0:0:0:
255,147,30020,2,0,P|222:131|205:108,1,60.0000022888184,0|0,1:0|2:0,0:0:0:0:
201,27,30344,6,0,P|147:48|121:101,2,120.000004577637,0|0|0,1:0|1:0|1:0,0:0:0:0:
208,113,31155,1,0,2:0:0:0:
155,183,31317,2,0,L|94:190,1,60.0000022888184,0|0,1:0|2:0,0:0:0:0:
201,256,31641,6,0,B|268:261|240:305|303:311,1,120.000004577637,0|0,1:0|1:0,0:0:0:0:
316,171,32290,1,8,2:1:0:0:
303,311,32452,1,8,2:1:0:0:
443,323,32614,1,8,2:1:0:0:
456,183,32776,1,8,2:1:0:0:
316,171,32939,6,0,P|288:160|258:163,1,60.0000022888184,4|0,1:1|2:0,0:0:0:0:
189,106,33263,2,0,P|173:131|169:161,1,60.0000022888184,8|0,2:1|2:0,0:0:0:0:
211,236,33587,2,0,P|162:206|105:221,1,120.000004577637,0|0,1:0|2:0,0:0:0:0:
28,272,34074,1,8,2:1:0:0:
107,309,34236,6,0,L|97:369,1,60.0000022888184,2|0,2:2|0:0,0:0:0:0:
211,236,34560,2,0,L|221:296,1,60.0000022888184,8|0,2:1|2:0,0:0:0:0:
318,354,34885,1,0,1:0:0:0:
318,354,35047,1,0,1:0:0:0:
416,293,35209,2,0,L|426:233,1,60.0000022888184,8|0,2:1|2:0,0:0:0:0:
278,170,35533,6,0,P|336:174|385:141,1,120.000004577637,0|8,1:0|2:1,0:0:0:0:
402,56,36020,1,0,2:0:0:0:
310,28,36182,2,0,L|316:87,1,60.0000022888184,0|0,1:0|2:0,0:0:0:0:
284,229,36506,2,0,L|278:170,1,60.0000022888184,0|8,2:0|2:1,0:0:0:0:
218,35,36831,6,0,L|224:94,1,60.0000022888184,2|0,2:2|1:0,0:0:0:0:
129,168,37155,2,0,P|158:166|185:179,1,60.0000022888184,8|0,2:1|2:0,0:0:0:0:
218,302,37479,1,0,1:0:0:0:
139,251,37641,1,0,1:0:0:0:
284,229,37803,2,0,L|343:222,1,60.0000022888184,8|0,2:1|2:0,0:0:0:0:
457,149,38128,6,0,P|427:143|399:150,1,60.0000022888184,0|0,1:0|1:0,0:0:0:0:
399,293,38452,2,0,P|428:299|457:292,1,60.0000022888184,8|0,2:1|2:0,0:0:0:0:
320,114,38776,2,0,P|312:172|343:222,1,120.000004577637,0|0,1:0|2:0,0:0:0:0:
399,150,39263,1,8,2:1:0:0:
266,44,39425,6,0,P|207:57|176:107,1,120.000004577637,2|8,2:2|2:1,0:0:0:0:
149,202,39912,1,0,2:0:0:0:
242,180,40074,2,0,L|236:299,1,120.000004577637,2|0,2:2|2:0,0:0:0:0:
148,202,40722,6,0,P|71:202|21:143,1,160,4|8,1:1|2:1,0:0:0:0:
110,123,41209,1,0,2:0:0:0:
44,286,41371,1,0,1:0:0:0:
110,123,41533,1,0,1:0:0:0:
162,318,41695,2,0,P|202:319|236:299,1,80,8|0,2:1|2:0,0:0:0:0:
331,192,42020,5,0,1:0:0:0:
311,383,42182,1,0,1:0:0:0:
331,192,42344,2,0,P|371:191|405:211,1,80,8|0,2:1|2:0,0:0:0:0:
235,299,42668,1,0,1:0:0:0:
264,105,42831,1,0,1:0:0:0:
483,170,42993,2,0,P|493:208|484:247,1,80,8|0,2:1|2:0,0:0:0:0:
197,172,43317,6,0,L|114:178,1,80,12|0,2:1|2:0,0:0:0:0:
337,33,43641,1,8,2:1:0:0:
347,159,43803,1,0,2:0:0:0:
187,45,43966,1,8,2:1:0:0:
197,172,44128,1,0,1:0:0:0:
337,33,44290,2,0,L|416:27,1,80,8|0,2:1|2:0,0:0:0:0:
355,245,44614,6,0,P|316:243|284:220,1,80,12|0,2:1|2:0,0:0:0:0:
437,113,44939,1,0,3:0:0:0:
423,137,45020,1,0,3:0:0:0:
401,154,45101,1,0,3:0:0:0:
375,162,45182,1,0,3:0:0:0:
347,159,45263,2,0,P|332:151|316:129,3,40,0|0|0|0,3:0|3:0|3:0|3:0,0:0:0:0:
242,88,45587,2,0,P|227:96|211:118,3,40,0|0|0|0,3:0|3:0|3:0|3:0,0:0:0:0:
160,184,45912,5,10,2:2:0:0:
140,181,45993,1,2,2:2:0:0:
120,178,46074,1,2,2:2:0:0:
101,174,46155,1,2,2:2:0:0:
84,161,46236,6,0,P|70:188|72:218,1,60,2|0,2:2|2:0,0:0:0:0:
62,241,46560,6,0,L|230:223,1,167.999994873047,6|8,2:2|2:1,0:0:0:0:
381,311,47046,1,0,2:0:0:0:
302,347,47208,2,0,P|293:306|305:266,1,83.9999974365235,0|0,1:0|1:0,0:0:0:0:
457,268,47532,2,0,P|469:307|460:348,1,83.9999974365235,8|0,2:1|2:0,0:0:0:0:
229,223,47857,6,0,P|297:181|371:214,1,167.999994873047,0|8,1:0|2:1,0:0:0:0:
305,266,48343,1,0,2:0:0:0:
146,262,48505,2,0,P|135:221|148:182,1,83.9999974365235,0|0,1:0|1:0,0:0:0:0:
258,89,48830,1,8,2:1:0:0:
305,266,48992,1,0,2:0:0:0:
70,143,49154,6,0,P|97:111|136:97,1,83.9999974365235,0|0,1:0|1:0,0:0:0:0:
223,302,49478,2,0,P|196:334|157:348,1,83.9999974365235,8|0,2:1|2:0,0:0:0:0:
280,175,49803,2,0,L|365:183,1,83.9999974365235,0|0,1:0|1:0,0:0:0:0:
146,262,50127,2,0,L|61:270,1,83.9999974365235,8|0,2:1|2:0,0:0:0:0:
258,89,50451,6,0,L|343:97,1,83.9999974365235,0|0,1:0|1:0,0:0:0:0:
146,262,50776,1,8,2:1:0:0:
136,97,50938,1,0,2:0:0:0:
280,175,51100,2,0,L|363:182,1,83.9999974365235,0|0,1:0|1:0,0:0:0:0:
76,186,51424,1,8,2:1:0:0:
195,20,51587,1,0,2:0:0:0:
364,182,51749,6,0,L|447:189,1,83.9999974365235,4|0,1:1|1:0,0:0:0:0:
230,254,52073,2,0,L|147:262,1,83.9999974365235,8|0,2:1|2:0,0:0:0:0:
342,96,52397,1,0,1:0:0:0:
324,274,52559,1,0,1:0:0:0:
76,186,52722,2,0,P|64:146|74:106,1,83.9999974365235,8|0,2:1|2:0,0:0:0:0:
364,190,53046,6,0,P|283:192|230:253,1,167.999994873047,0|8,1:0|2:1,0:0:0:0:
388,341,53532,1,0,2:0:0:0:
460,221,53695,2,0,L|454:138,1,83.9999974365235,0|0,1:0|1:0,0:0:0:0:
239,22,54019,2,0,L|233:105,1,83.9999974365235,8|0,2:1|2:0,0:0:0:0:
364,190,54343,6,0,L|358:107,1,83.9999974365235,0|0,1:0|1:0,0:0:0:0:
144,42,54668,2,0,L|138:125,1,83.9999974365235,8|0,2:1|2:0,0:0:0:0:
246,293,54992,2,0,P|287:294|324:274,1,83.9999974365235,0|0,1:0|1:0,0:0:0:0:
78,196,55316,2,0,P|36:194|0:214,1,83.9999974365235,8|0,2:1|2:0,0:0:0:0:
157,311,55641,5,8,2:1:0:0:
138,126,55803,1,0,1:0:0:0:
246,293,55965,5,8,2:1:0:0:
233,106,56127,1,0,2:0:0:0:
335,275,56289,5,8,2:1:0:0:
335,275,56370,2,0,L|430:289,1,83.9999974365235,8|8,2:1|2:1,0:0:0:0:
440,289,56614,6,0,P|450:262|446:232,1,60.0000022888184,8|0,2:1|1:0,0:0:0:0:
505,159,56938,6,0,P|440:111|361:130,1,167.999994873047,4|8,1:1|2:1,0:0:0:0:
280,189,57424,1,0,2:0:0:0:
232,105,57587,2,0,P|221:66|235:27,1,83.9999974365235,0|0,1:0|1:0,0:0:0:0:
280,189,57911,2,0,P|291:228|277:267,1,83.9999974365235,8|0,2:1|2:0,0:0:0:0:
24,169,58235,6,0,B|99:177|99:177|102:182|102:182|188:190,1,167.999994873047,0|8,1:0|2:1,0:0:0:0:
361,130,58722,1,0,2:0:0:0:
265,279,58884,2,0,L|181:285,1,83.9999974365235,0|0,1:0|1:0,0:0:0:0:
148,98,59208,2,0,L|232:105,1,83.9999974365235,8|0,2:1|2:0,0:0:0:0:
111,335,59532,6,0,P|95:296|102:255,1,83.9999974365235,0|0,1:0|1:0,0:0:0:0:
304,55,59857,2,0,P|319:93|312:134,1,83.9999974365235,8|0,2:1|2:0,0:0:0:0:
83,171,60181,2,0,L|0:177,1,83.9999974365235,0|0,1:0|1:0,0:0:0:0:
257,234,60505,2,0,L|340:240,1,83.9999974365235,8|0,2:1|2:0,0:0:0:0:
181,285,60830,5,0,1:0:0:0:
232,105,60992,1,0,1:0:0:0:
256,324,61154,2,0,P|231:357|193:372,1,83.9999974365235,8|0,2:1|2:0,0:0:0:0:
83,171,61478,5,0,1:0:0:0:
341,240,61641,1,0,1:0:0:0:
181,285,61803,1,8,2:1:0:0:
156,65,62127,5,12,2:1:0:0:
181,285,62289,1,0,2:0:0:0:
231,104,62451,1,8,2:1:0:0:
256,324,62614,1,0,2:0:0:0:
304,56,62776,2,0,L|389:63,1,83.9999974365235,8|0,2:1|1:0,0:0:0:0:
402,260,63100,2,0,L|318:266,1,83.9999974365235,8|0,2:1|1:0,0:0:0:0:
446,177,63424,6,0,P|477:203|489:243,1,83.9999974365235,8|0,2:1|2:0,0:0:0:0:
318,266,63749,2,0,P|349:239|360:199,1,83.9999974365235,8|0,2:1|2:0,0:0:0:0:
304,56,64073,1,8,2:1:0:0:
278,192,64235,1,0,1:0:0:0:
162,107,64397,2,0,P|122:100|84:117,1,83.9999974365235,8|0,2:1|1:0,0:0:0:0:
124,270,64722,6,0,L|132:185,1,83.9999974365235,12|0,2:1|2:0,0:0:0:0:
211,17,65046,1,8,2:1:0:0:
278,192,65208,1,0,2:0:0:0:
304,56,65370,1,8,2:1:0:0:
371,231,65532,1,0,1:0:0:0:
397,95,65695,2,0,L|389:10,1,83.9999974365235,8|0,2:1|1:0,0:0:0:0:
278,191,66019,6,0,P|267:232|276:273,1,83.9999974365235,8|0,2:1|2:0,0:0:0:0:
463,270,66343,2,0,P|473:229|465:188,1,83.9999974365235,8|0,2:1|2:0,0:0:0:0:
304,56,66668,1,8,2:1:0:0:
371,231,66830,1,0,1:0:0:0:
498,91,66992,2,0,L|490:6,1,83.9999974365235,8|0,2:1|0:0,0:0:0:0:
278,191,67316,6,0,P|225:165|167:178,1,120.000004577637,4|0,1:1|2:0,0:0:0:0:
0,243,67965,2,0,P|53:269|111:256,1,120.000004577637,4|0,2:3|2:0,0:0:0:0:
90,55,68614,2,0,P|64:108|77:166,1,120.000004577637,4|0,1:1|2:0,0:0:0:0:
205,267,69100,1,0,2:0:0:0:
205,267,69181,1,0,2:0:0:0:
205,267,69262,2,0,P|217:324|191:377,1,120.000004577637,2|0,2:2|2:0,0:0:0:0:
167,177,69911,6,0,B|238:162|214:201|284:186,1,120.000004577637,4|0,1:1|2:0,0:0:0:0:
195,10,70559,2,8,B|252:54|206:61|263:105,1,120.000004577637,4|0,1:1|2:0,0:0:0:0:
370,21,71208,6,0,P|340:20|312:32,1,60.0000022888184,8|0,2:1|1:0,0:0:0:0:
407,140,71532,2,0,P|389:116|362:104,1,60.0000022888184,8|0,2:1|1:0,0:0:0:0:
335,183,71857,5,2,2:2:0:0:
335,183,72505,6,0,B|319:220|294:232|294:232|311:343,1,167.999994873047,6|8,2:2|2:1,0:0:0:0:
389,266,72992,1,0,2:0:0:0:
253,149,73154,1,0,1:0:0:0:
192,307,73316,1,0,1:0:0:0:
335,183,73478,2,0,L|425:165,1,83.9999974365235,8|0,2:1|2:0,0:0:0:0:
256,60,73803,6,0,B|212:32|166:56|166:56|161:97|124:112,1,167.999994873047,0|8,1:0|2:1,0:0:0:0:
84,38,74289,1,0,2:0:0:0:
253,149,74451,2,0,P|212:174|204:214,1,83.9999974365235,0|0,1:0|1:0,0:0:0:0:
33,204,74776,2,0,P|81:205|107:235,1,83.9999974365235,8|0,2:1|2:0,0:0:0:0:
173,299,75100,6,0,L|160:384,1,83.9999974365235,4|0,1:1|2:0,0:0:0:0:
291,234,75424,2,0,L|304:319,1,83.9999974365235,8|0,2:1|2:0,0:0:0:0:
425,170,75749,1,0,1:0:0:0:
416,261,75911,1,0,1:0:0:0:
357,113,76073,2,0,P|389:87|430:81,1,83.9999974365235,8|0,2:1|2:0,0:0:0:0:
265,15,76397,6,0,P|252:54|263:94,1,83.9999974365235,0|0,1:0|0:0,0:0:0:0:
180,270,76722,2,0,P|221:272|256:250,1,83.9999974365235,8|0,2:1|2:0,0:0:0:0:
125,135,77046,2,0,P|156:162|197:163,1,83.9999974365235,0|0,1:0|1:0,0:0:0:0:
355,290,77370,2,0,P|364:249|348:211,1,83.9999974365235,8|0,2:1|2:0,0:0:0:0:
180,270,77695,6,0,B|84:288|141:343|51:364,1,167.999994873047,4|8,1:1|2:1,0:0:0:0:
13,227,78181,1,0,2:0:0:0:
125,135,78343,1,0,1:0:0:0:
180,270,78505,1,0,1:0:0:0:
54,76,78668,2,0,P|86:51|128:46,1,83.9999974365235,8|0,2:1|2:0,0:0:0:0:
291,114,78992,6,0,B|214:122|214:122|207:127|207:127|126:135,1,167.999994873047,0|8,1:0|2:1,0:0:0:0:
180,270,79478,1,0,2:0:0:0:
276,208,79641,2,0,L|358:221,1,83.9999974365235,0|0,1:0|1:0,0:0:0:0:
180,270,79965,2,0,L|97:283,1,83.9999974365235,8|0,2:1|2:0,0:0:0:0:
262,328,80289,5,12,2:1:0:0:
412,300,80451,1,0,1:0:0:0:
291,114,80614,2,0,L|374:102,1,83.9999974365235,8|0,2:1|2:0,0:0:0:0:
200,45,80938,1,4,3:3:0:0:
172,41,81019,1,0,3:0:0:0:
145,37,81100,1,0,2:0:0:0:
118,33,81181,1,0,3:0:0:0:
90,29,81262,2,0,P|72:66|78:107,1,83.9999974365235,8|0,2:1|1:0,0:0:0:0:
180,270,81587,5,12,2:1:0:0:
291,114,81749,1,0,1:0:0:0:
15,165,81911,2,0,P|48:189|89:191,1,83.9999974365235,12|0,2:1|1:0,0:0:0:0:
273,217,82235,1,4,2:3:0:0:
244,216,82316,1,0,2:0:0:0:
217,225,82397,1,0,1:0:0:0:
194,244,82478,1,2,2:2:0:0:
179,270,82559,2,0,L|184:320,3,41.9999987182618,4|2|2|2,2:3|2:2|2:2|2:2,0:0:0:0:
118,364,82884,6,0,B|208:383|182:312|276:331,1,167.999994873047,4|8,1:1|2:1,0:0:0:0:
430,273,83370,1,0,2:0:0:0:
328,110,83532,2,0,P|307:146|311:187,1,83.9999974365235,0|0,1:0|1:0,0:0:0:0:
405,65,83857,2,0,L|488:68,1,83.9999974365235,8|0,2:1|2:0,0:0:0:0:
330,18,84181,6,0,B|253:26|253:26|246:31|246:31|165:39,1,167.999994873047,0|8,1:0|2:1,0:0:0:0:
45,149,84668,1,0,2:0:0:0:
192,202,84830,1,0,1:0:0:0:
134,130,84992,1,0,1:0:0:0:
103,221,85154,1,8,2:1:0:0:
223,111,85316,1,0,2:0:0:0:
250,274,85478,6,0,P|285:296|329:295,1,83.9999974365235,4|0,1:1|2:0,0:0:0:0:
346,47,85803,2,0,P|340:88|315:121,1,83.9999974365235,8|0,2:1|2:0,0:0:0:0:
310,210,86127,2,0,P|350:203|381:175,1,83.9999974365235,0|0,1:0|1:0,0:0:0:0:
194,5,86451,2,0,P|233:19|259:52,1,83.9999974365235,8|0,2:1|2:0,0:0:0:0:
43,125,86776,6,0,B|88:102|96:63|96:63|119:93|171:91,1,167.999994873047,0|8,1:0|2:1,0:0:0:0:
120,255,87262,1,2,2:2:0:0:
120,255,87343,1,2,2:2:0:0:
120,255,87424,2,0,B|106:217|106:217|123:177,1,83.9999974365235,0|0,1:0|1:0,0:0:0:0:
84,341,87749,2,0,L|-4:351,1,83.9999974365235,8|0,2:1|2:0,0:0:0:0:
203,227,88073,6,0,B|279:193|279:193|346:245,1,167.999994873047,12|8,2:1|2:1,0:0:0:0:
266,300,88559,1,0,2:0:0:0:
292,107,88722,1,8,2:1:0:0:
440,242,88884,1,0,1:0:0:0:
477,71,89046,2,0,B|438:53|438:53|399:68,1,83.9999974365235,8|0,2:1|1:0,0:0:0:0:
185,146,89370,6,0,L|102:132,1,83.9999974365235,8|0,2:1|2:0,0:0:0:0:
266,300,89695,1,8,2:1:0:0:
292,107,89857,1,0,2:0:0:0:
128,325,90019,1,8,2:1:0:0:
102,132,90181,1,0,1:0:0:0:
341,216,90343,2,0,L|428:202,1,83.9999974365235,8|0,2:1|1:0,0:0:0:0:
316,9,90668,5,12,2:1:0:0:
207,41,90830,2,0,L|124:27,1,83.9999974365235,0|4,1:0|2:3,0:0:0:0:
292,107,91154,1,0,1:0:0:0:
102,132,91316,2,0,L|60:139,3,41.9999987182618,4|0|0|0,2:3|2:0|1:0|2:0,0:0:0:0:
78,223,91641,2,0,L|120:216,1,41.9999987182618,4|0,2:3|2:0,0:0:0:0:
205,260,91803,1,2,2:2:0:0:
205,260,91884,1,2,2:2:0:0:
205,260,91965,6,0,B|170:328|92:359|-13:341|-61:258|-61:140|29:87|132:87|172:143|172:143|132:87|128:53|143:9|182:-2|182:-2|214:-7|247:18|265:60|252:106|252:106|292:79|344:72|404:103|420:182|379:224|314:177|294:243|302:293,1,1203.19998164063,6|0,2:2|2:0,0:0:0:0:
