osu file format v14

[General]
AudioFilename: audio.mp3
AudioLeadIn: 0
PreviewTime: 46230
Countdown: 0
SampleSet: Soft
StackLeniency: 0.7
Mode: 0
LetterboxInBreaks: 1
WidescreenStoryboard: 0

[Editor]
DistanceSpacing: 0.9
BeatDivisor: 4
GridSize: 32
TimelineZoom: 4.299998

[Metadata]
Title:Ao to Natsu
TitleUnicode:青と夏
Artist:Mrs. GREEN APPLE
ArtistUnicode:Mrs. GREEN APPLE
Creator:Rosiie
Version:Reform's Summer
Source:青夏 きみに恋した30日
Tags:J pop Jpop J-Pop Japanese Pop cut short ver version Reform Kujinn Haruto haruto_aizawa Stixy blue and summer days in love with you ost original soundtrack ao natsu: kimi ni koi shita thirty nichi ミセスグリーンアップル motoki omori 大森元貴 hiroto wakai 若井滉斗 ayaka yamanaka 山中綾華 ryoka fujisawa 藤澤涼架 kiyokatsu kiyokazu takano 髙野清宗
BeatmapID:2530755
BeatmapSetID:1216255

[Difficulty]
HPDrainRate:5.5
CircleSize:3.8
OverallDifficulty:9.2
ApproachRate:9.3
SliderMultiplier:1.8
SliderTickRate:1

[Events]
//Background and Video events
0,0,"(1).jpg",0,0
//Break Periods
//Storyboard Layer 0 (Background)
//Storyboard Layer 1 (Fail)
//Storyboard Layer 2 (Pass)
//Storyboard Layer 3 (Foreground)
//Storyboard Layer 4 (Overlay)
//Storyboard Sound Samples

[TimingPoints]
1635,324.324324324324,4,2,1,65,1,0
1798,324.324324324324,4,2,1,65,1,0
1798,-117.647058823529,4,2,1,65,0,0
12176,-95.238095238095,4,2,1,75,0,0
22554,-117.647058823529,4,2,1,55,0,0
27095,-86.9565217391302,4,2,1,55,0,0
27743,-117.647058823529,4,2,1,55,0,0
32933,-105.263157894737,4,2,1,65,0,0
40068,-105.263157894737,4,2,1,45,0,0
40716,-95.2380952380954,4,2,1,75,0,0
46554,324.324324324324,4,2,1,85,1,0
46554,-86.9565217391304,4,2,1,85,0,1
56283,-86.9565217391303,4,2,1,85,0,0
56932,-86.9565217391303,4,2,1,85,0,1
61797,-100,4,2,1,85,0,0
62121,-100,4,2,1,85,0,1
67310,-125,4,2,1,70,0,0
70229,-125,4,2,1,70,0,0
70553,-125,4,2,1,70,0,0
70877,-125,4,2,1,70,0,0
71202,-125,4,2,1,70,0,0
71851,-125,4,2,2,70,0,0
72499,-100,4,2,1,75,0,0
78175,-100,4,2,1,75,0,0
78337,-100,4,2,1,75,0,0
91959,-500,4,2,1,75,0,0
92040,-500,4,2,1,5,0,0
96905,-100,4,2,1,30,0,0

[Colours]
Combo1 : 91,85,213
Combo2 : 236,193,249
Combo3 : 194,148,245
Combo4 : 241,135,236
Combo5 : 165,188,220

[HitObjects]
200,73,1635,5,8,0:0:0:0:
200,73,1716,1,8,0:0:0:0:
200,73,1798,2,0,P|221:119|243:250,1,153.000002918243,6|0,1:2|1:2,0:0:0:0:
290,45,2284,1,2,0:0:0:0:
362,160,2446,2,0,P|373:123|379:85,1,76.5000014591217,0|2,1:2|0:0,0:0:0:0:
301,259,2770,1,0,1:2:0:0:
244,125,2933,1,10,0:0:0:0:
207,262,3095,5,0,1:2:0:0:
348,117,3257,1,10,0:0:0:0:
192,276,3419,1,0,1:2:0:0:
418,256,3581,1,10,0:0:0:0:
197,127,3743,1,0,1:2:0:0:
309,346,3906,1,10,0:0:0:0:
385,118,4068,1,0,1:2:0:0:
183,257,4230,1,10,0:0:0:0:
450,184,4392,6,0,P|460:121|488:16,1,153.000002918243,6|0,1:2|1:2,0:0:0:0:
493,251,4879,1,2,0:0:0:0:
355,124,5041,2,0,P|346:80|326:25,1,76.5000014591217,0|2,1:2|0:0,0:0:0:0:
304,215,5365,1,0,1:2:0:0:
436,110,5527,1,10,0:0:0:0:
363,299,5689,5,0,1:2:0:0:
251,100,5852,1,10,0:0:0:0:
419,245,6014,1,0,1:2:0:0:
193,232,6176,1,10,0:0:0:0:
384,109,6338,1,0,1:2:0:0:
281,330,6500,1,10,0:0:0:0:
172,111,6662,1,0,1:2:0:0:
371,205,6825,1,10,0:0:0:0:
82,316,6987,6,0,P|47:282|47:166,1,153.000002918243,6|0,1:2|1:2,0:0:0:0:
181,256,7473,1,2,0:0:0:0:
99,117,7635,2,0,P|67:96|26:94,1,76.5000014591217,0|2,1:2|0:0,0:0:0:0:
210,105,7960,1,0,1:2:0:0:
58,196,8122,1,10,0:0:0:0:
301,165,8284,5,0,1:2:0:0:
116,77,8446,1,10,0:0:0:0:
307,194,8608,1,0,1:2:0:0:
266,5,8770,1,10,0:0:0:0:
177,231,8933,1,0,1:2:0:0:
403,103,9095,1,10,0:0:0:0:
153,126,9257,1,0,1:2:0:0:
322,297,9419,1,10,0:0:0:0:
281,101,9581,6,0,P|291:53|304:14,1,76.5000014591217,6|0,1:2|0:0,0:0:0:0:
407,227,9906,2,0,P|417:263|425:301,1,76.5000014591217,0|2,1:2|1:2,0:0:0:0:
239,181,10230,1,0,1:2:0:0:
406,108,10392,1,2,1:2:0:0:
283,293,10554,2,0,P|238:285|199:251,1,76.5000014591217,8|2,0:0|0:0,0:0:0:0:
37,158,10879,5,8,0:0:0:0:
37,158,10960,1,8,0:0:0:0:
37,158,11041,2,0,L|45:222,1,38.2500007295609,10|8,0:0|0:0,0:0:0:0:
157,73,11203,1,8,0:0:0:0:
157,73,11284,1,8,0:0:0:0:
157,73,11365,2,0,L|165:9,1,38.2500007295609,10|8,0:0|0:0,0:0:0:0:
259,208,11527,5,8,0:0:0:0:
336,95,11689,1,8,2:3:0:0:
347,280,11852,1,8,2:3:0:0:
240,136,12014,1,8,2:3:0:0:
152,306,12176,6,0,P|117:328|63:328,1,94.499997116089,6|0,1:2|0:0,0:0:0:0:
347,191,12500,2,0,P|384:195|429:230,1,94.499997116089,10|0,0:0|0:0,0:0:0:0:
154,206,12825,1,2,1:2:0:0:
289,342,12987,1,0,1:2:0:0:
233,151,13149,2,0,P|243:103|261:46,1,94.499997116089,10|0,0:0|0:0,0:0:0:0:
439,253,13473,6,0,P|452:298|462:344,1,94.499997116089,2|0,1:2|1:2,0:0:0:0:
274,271,13797,1,10,0:0:0:0:
388,145,13960,1,8,0:0:0:0:
388,145,14041,1,8,0:0:0:0:
388,145,14122,2,0,P|434:118|494:127,1,94.499997116089,2|0,1:2|1:2,0:0:0:0:
298,304,14446,2,0,P|251:303|212:277,1,94.499997116089,10|0,0:0|0:0,0:0:0:0:
48,115,14770,6,0,P|63:165|74:228,1,94.499997116089,2|0,1:2|1:2,0:0:0:0:
309,43,15095,2,0,P|294:93|283:156,1,94.499997116089,10|0,0:0|0:0,0:0:0:0:
134,52,15419,1,2,1:2:0:0:
217,229,15581,1,0,1:2:0:0:
110,70,15743,2,0,P|68:48|6:59,1,94.499997116089,10|0,0:0|0:0,0:0:0:0:
249,244,16068,6,0,P|310:262|400:151,1,188.999994232178,2|10,1:2|0:0,0:0:0:0:
214,102,16554,1,2,0:0:0:0:
214,102,16635,1,2,0:0:0:0:
214,102,16716,1,2,1:2:0:0:
140,237,16879,1,0,1:2:0:0:
327,134,17041,2,0,P|341:85|325:36,1,94.499997116089,10|0,0:0|0:0,0:0:0:0:
71,178,17365,6,0,P|91:235|112:362,2,188.999994232178,6|10|2,1:2|0:0|1:2,0:0:0:0:
269,284,18176,1,0,1:2:0:0:
183,130,18338,2,0,P|192:79|217:25,1,94.499997116089,10|0,0:0|0:0,0:0:0:0:
82,284,18662,6,0,P|44:307|-12:302,1,94.499997116089,2|0,1:2|1:2,0:0:0:0:
264,165,18987,2,0,P|310:162|350:186,1,94.499997116089,10|0,0:0|0:0,0:0:0:0:
174,359,19311,1,2,1:2:0:0:
102,182,19473,1,0,1:2:0:0:
292,322,19635,2,0,P|338:324|378:300,1,94.499997116089,10|0,0:0|0:0,0:0:0:0:
256,101,19960,5,2,1:2:0:0:
132,276,20122,1,2,1:2:0:0:
183,41,20284,1,10,0:0:0:0:
318,248,20446,1,2,0:0:0:0:
270,46,20608,2,0,L|280:-11,1,47.2499985580445,10|8,0:0|0:0,0:0:0:0:
207,248,20770,2,0,L|215:294,1,47.2499985580445,10|8,0:0|0:0,0:0:0:0:
100,85,20933,1,10,0:0:0:0:
330,189,21095,5,2,1:2:0:0:
330,189,21176,1,2,0:0:0:0:
330,189,21257,2,0,P|375:208|430:202,1,94.499997116089,6|0,1:2|1:2,0:0:0:0:
264,8,21581,2,0,P|217:5|174:24,1,94.499997116089,10|0,0:0|0:0,0:0:0:0:
234,248,21906,1,0,1:2:0:0:
345,75,22068,1,0,1:2:0:0:
292,326,22230,1,0,1:2:0:0:
196,101,22392,1,10,0:0:0:0:
107,363,22554,6,0,P|64:359|16:264,1,153.000002918243,6|2,1:2|1:2,0:0:0:0:
156,147,23203,2,0,P|202:168|310:169,1,153.000002918243,2|2,1:2|1:2,0:0:0:0:
379,118,23689,1,2,0:0:0:0:
425,197,23852,2,0,P|436:237|441:281,1,76.5000014591217,2|0,1:2|0:0,0:0:0:0:
295,136,24176,2,0,P|300:98|310:61,1,76.5000014591217,2|0,1:2|0:0,0:0:0:0:
352,266,24500,2,0,P|302:283|220:229,1,153.000002918243,2|0,1:2|1:2,0:0:0:0:
222,233,25149,6,0,P|201:283|182:380,1,153.000002918243,2|2,1:2|1:2,0:0:0:0:
91,151,25797,2,0,P|78:75|51:4,1,153.000002918243,2|2,1:2|1:2,0:0:0:0:
12,150,26284,1,2,0:0:0:0:
100,72,26446,2,0,P|134:52|181:45,1,76.5000014591217,2|0,1:2|0:0,0:0:0:0:
260,203,26770,2,0,P|222:195|189:175,1,76.5000014591217,2|0,1:2|0:0,0:0:0:0:
336,97,27095,6,0,P|383:127|373:234,2,155.250002961159,2|8|0,1:2|2:3|1:2,0:0:0:0:
260,203,27743,6,0,P|274:258|293:376,1,153.000002918243,6|2,1:2|1:2,0:0:0:0:
494,119,28392,2,0,P|480:174|461:292,1,153.000002918243,2|2,1:2|1:2,0:0:0:0:
399,130,28879,1,2,0:0:0:0:
330,195,29041,2,0,P|287:214|240:213,1,76.5000014591217,2|0,1:2|0:0,0:0:0:0:
182,98,29365,2,0,P|219:101|253:118,1,76.5000014591217,2|0,1:2|0:0,0:0:0:0:
190,271,29689,2,0,P|170:230|173:187,1,76.5000014591217,2|0,1:2|0:0,0:0:0:0:
301,302,30014,2,0,P|298:339|280:373,1,76.5000014591217,0|0,1:2|0:0,0:0:0:0:
99,353,30338,6,0,P|89:288|68:199,1,153.000002918243,2|2,1:2|1:2,0:0:0:0:
132,139,30825,1,2,0:0:0:0:
132,139,30987,2,0,P|138:90|150:44,1,76.5000014591217,2|0,1:2|0:0,0:0:0:0:
228,177,31311,2,0,P|236:214|240:252,1,76.5000014591217,2|0,1:2|0:0,0:0:0:0:
356,83,31635,6,0,P|317:60|258:57,1,76.5000014591217,2|0,1:2|0:0,0:0:0:0:
381,247,31960,2,0,P|418:238|450:218,1,76.5000014591217,0|0,1:2|0:0,0:0:0:0:
471,193,32203,1,8,0:0:0:0:
471,193,32284,1,0,1:2:0:0:
225,159,32446,1,8,0:0:0:0:
368,342,32608,1,0,1:2:0:0:
389,106,32770,1,8,0:0:0:0:
182,323,32933,6,0,B|84:350|113:260|-8:305,1,170.999995433807,6|10,1:2|0:0,0:0:0:0:
160,218,33419,1,0,0:0:0:0:
53,132,33581,2,0,P|35:176|40:235,1,85.4999977169037,2|0,1:2|0:0,0:0:0:0:
176,85,33906,1,2,1:2:0:0:
58,20,34068,1,10,0:0:0:0:
199,184,34230,6,0,P|244:186|291:151,1,85.4999977169037,2|0,1:2|1:2,0:0:0:0:
355,23,34554,2,0,P|310:21|263:56,1,85.4999977169037,10|0,0:0|0:0,0:0:0:0:
422,172,34879,1,2,1:2:0:0:
480,34,35041,1,0,1:2:0:0:
313,114,35203,2,0,P|332:165|339:222,1,85.4999977169037,10|0,0:0|0:0,0:0:0:0:
478,324,35527,6,0,P|486:282|502:242,1,85.4999977169037,2|0,1:2|1:2,0:0:0:0:
365,321,35852,2,0,P|325:347|276:349,1,85.4999977169037,10|0,0:0|0:0,0:0:0:0:
368,144,36176,2,0,P|418:133|487:234,1,170.999995433807,2|2,1:2|0:0,0:0:0:0:
375,242,36662,1,10,0:0:0:0:
264,133,36825,6,0,P|249:76|246:34,1,85.4999977169037,2|0,1:2|1:2,0:0:0:0:
116,238,37149,2,0,P|131:181|134:139,1,85.4999977169037,10|0,0:0|0:0,0:0:0:0:
224,359,37473,1,2,1:2:0:0:
292,201,37635,1,0,1:2:0:0:
144,323,37797,2,0,P|102:344|43:336,1,85.4999977169037,10|0,0:0|0:0,0:0:0:0:
301,223,38122,6,0,P|343:223|380:243,1,85.4999977169037,2|0,1:2|1:2,0:0:0:0:
142,237,38446,2,0,P|126:186|133:133,1,85.4999977169037,10|0,0:0|0:0,0:0:0:0:
301,58,38770,2,0,P|300:100|286:140,1,85.4999977169037,2|0,1:2|1:2,0:0:0:0:
104,70,39095,1,2,0:0:0:0:
214,0,39257,1,8,0:0:0:0:
147,185,39419,6,0,P|108:209|56:207,1,85.4999977169037,2|0,1:2|1:2,0:0:0:0:
241,307,39743,2,0,P|283:309|318:332,1,85.4999977169037,10|0,0:0|0:0,0:0:0:0:
116,384,40068,2,0,P|77:325|112:223,1,170.999995433807,2|2,0:0|0:0,0:0:0:0:
424,249,40716,6,0,P|409:296|399:369,1,94.499997116089,6|0,1:2|0:0,0:0:0:0:
284,148,41041,2,0,P|275:101|261:56,1,94.499997116089,10|0,0:0|0:0,0:0:0:0:
226,303,41365,1,2,1:2:0:0:
374,121,41527,1,0,1:2:0:0:
184,207,41689,2,0,P|135:199|94:149,1,94.499997116089,8|0,0:0|0:0,0:0:0:0:
338,280,42014,5,0,1:2:0:0:
232,88,42176,1,0,1:2:0:0:
420,212,42338,2,0,P|469:204|510:154,1,94.499997116089,8|0,0:0|0:0,0:0:0:0:
323,31,42662,1,2,1:2:0:0:
231,207,42825,1,0,1:2:0:0:
413,112,42987,2,0,P|419:64|435:-3,1,94.499997116089,8|0,0:0|0:0,0:0:0:0:
397,345,43311,5,10,0:0:0:0:
263,72,43473,1,0,1:2:0:0:
234,294,43635,5,8,0:0:0:0:
336,16,43797,1,0,1:2:0:0:
326,321,43960,5,10,0:0:0:0:
187,48,44122,1,0,1:2:0:0:
178,367,44284,5,10,0:0:0:0:
277,118,44446,1,0,1:2:0:0:
418,354,44608,6,0,P|464:377|517:367,1,94.499997116089,10|0,0:0|1:2,0:0:0:0:
311,232,44933,1,10,0:0:0:0:
311,232,45014,1,8,0:0:0:0:
311,232,45095,2,0,P|317:264|322:296,1,47.2499985580445,8|8,0:0|0:0,0:0:0:0:
464,166,45257,1,10,1:2:0:0:
464,166,45338,1,8,0:0:0:0:
464,166,45419,2,0,P|467:142|472:119,1,47.2499985580445,8|8,0:0|0:0,0:0:0:0:
351,29,45581,5,8,1:2:0:0:
324,20,45662,1,8,0:0:0:0:
295,18,45743,1,8,0:0:0:0:
267,27,45825,1,8,0:0:0:0:
247,47,45906,2,0,P|242:72|239:114,3,47.2499985580445,2|2|2|2,0:0|0:0|0:0|0:0,0:0:0:0:
179,145,46230,2,0,P|193:201|205:267,1,94.499997116089,2|0,0:0|1:2,0:0:0:0:
135,280,46473,1,0,1:2:0:0:
135,280,46554,6,0,B|257:253|215:358|357:326,1,207.000003948212,6|10,1:2|0:0,0:0:0:0:
161,379,47040,1,0,0:0:0:0:
311,224,47202,2,0,P|357:196|433:208,1,103.500001974106,2|0,1:2|1:2,0:0:0:0:
164,136,47526,2,0,P|128:130|75:88,1,103.500001974106,10|0,0:0|0:0,0:0:0:0:
318,26,47851,6,0,P|293:82|276:235,1,207.000003948212,2|8,1:2|0:0,0:0:0:0:
183,39,48337,1,0,0:0:0:0:
134,255,48499,2,0,P|87:282|16:267,1,103.500001974106,2|0,1:2|1:2,0:0:0:0:
273,113,48824,2,0,P|323:110|367:137,1,103.500001974106,10|0,0:0|0:0,0:0:0:0:
226,361,49148,6,0,P|209:283|189:225,1,103.500001974106,2|0,1:2|1:2,0:0:0:0:
425,328,49472,1,10,0:0:0:0:
303,178,49635,1,8,0:0:0:0:
303,178,49716,1,8,0:0:0:0:
303,178,49797,2,0,P|312:127|326:77,1,103.500001974106,2|0,1:2|1:2,0:0:0:0:
366,307,50121,2,0,P|316:334|263:325,1,103.500001974106,10|0,0:0|0:0,0:0:0:0:
418,130,50445,6,0,P|468:126|512:151,1,103.500001974106,2|0,1:2|1:2,0:0:0:0:
399,369,50770,1,8,0:0:0:0:
315,176,50932,1,0,0:0:0:0:
315,176,51013,1,8,0:0:0:0:
315,176,51094,1,0,1:2:0:0:
501,251,51256,1,0,1:2:0:0:
267,356,51418,2,0,P|255:289|237:226,1,103.500001974106,10|0,0:0|0:0,0:0:0:0:
448,60,51743,6,0,P|435:110|427:161,1,103.500001974106,6|0,1:2|1:2,0:0:0:0:
201,249,52067,1,10,0:0:0:0:
302,83,52229,1,8,0:0:0:0:
302,83,52310,1,8,0:0:0:0:
302,83,52391,1,2,1:2:0:0:
406,282,52553,1,0,1:2:0:0:
181,147,52716,2,0,P|125:162|93:227,1,103.500001974106,10|0,0:0|0:0,0:0:0:0:
314,372,53040,6,0,P|321:288|362:143,1,207.000003948212,2|8,1:2|0:0,0:0:0:0:
436,326,53526,1,2,0:0:0:0:
436,326,53608,1,8,0:0:0:0:
436,326,53689,1,2,1:2:0:0:
250,217,53851,1,0,1:2:0:0:
470,122,54013,2,0,P|487:176|495:242,1,103.500001974106,10|0,0:0|0:0,0:0:0:0:
349,56,54337,6,0,P|389:20|456:19,1,103.500001974106,2|0,1:2|1:2,0:0:0:0:
273,256,54662,2,0,P|222:248|185:213,1,103.500001974106,10|0,0:0|0:0,0:0:0:0:
437,199,54986,2,0,P|421:252|407:314,1,103.500001974106,2|0,1:2|1:2,0:0:0:0:
218,108,55310,2,0,P|206:57|190:8,1,103.500001974106,10|0,0:0|0:0,0:0:0:0:
108,241,55635,5,2,1:2:0:0:
316,139,55797,1,0,1:2:0:0:
81,242,55959,1,10,0:0:0:0:
332,318,56121,1,0,0:0:0:0:
199,112,56283,1,8,0:0:0:0:
199,112,56364,2,0,P|150:88|80:110,1,103.500001974106,8|8,0:0|0:0,0:0:0:0:
44,146,56608,2,0,P|93:170|163:148,1,103.500001974106,2|0,1:2|1:2,0:0:0:0:
413,26,56932,6,0,P|393:78|384:146,1,103.500001974106,6|0,1:2|0:0,0:0:0:0:
249,327,57256,2,0,P|239:276|220:228,1,103.500001974106,10|0,0:0|0:0,0:0:0:0:
466,153,57581,1,2,1:2:0:0:
372,320,57743,1,0,1:2:0:0:
272,148,57905,2,0,P|228:122|145:146,1,103.500001974106,10|0,0:0|0:0,0:0:0:0:
371,354,58229,6,0,P|439:366|499:225,1,207.000003948212,2|8,1:2|0:0,0:0:0:0:
363,145,58716,1,0,0:0:0:0:
283,333,58878,2,0,P|236:360|174:348,1,103.500001974106,2|0,1:2|1:2,0:0:0:0:
389,170,59202,2,0,P|439:166|483:192,1,103.500001974106,10|0,0:0|0:0,0:0:0:0:
183,267,59526,6,0,P|174:209|157:130,1,103.500001974106,2|0,1:2|1:2,0:0:0:0:
341,8,59851,2,0,P|331:58|323:109,1,103.500001974106,10|0,0:0|0:0,0:0:0:0:
60,229,60175,1,2,1:2:0:0:
139,55,60337,1,0,1:2:0:0:
257,219,60499,2,0,P|310:252|374:237,1,103.500001974106,10|0,0:0|0:0,0:0:0:0:
103,83,60824,6,0,P|52:83|10:113,1,103.500001974106,2|0,1:2|1:2,0:0:0:0:
331,162,61148,2,0,P|348:98|332:46,1,103.500001974106,10|0,0:0|0:0,0:0:0:0:
86,226,61472,1,2,1:2:0:0:
305,318,61635,1,0,1:2:0:0:
224,112,61797,1,8,0:0:0:0:
224,112,62121,5,14,0:0:0:0:
119,365,62283,1,0,1:2:0:0:
116,64,62445,5,10,0:0:0:0:
234,316,62608,1,0,1:2:0:0:
233,0,62770,5,10,0:0:0:0:
106,250,62932,1,0,1:2:0:0:
31,10,63094,5,10,0:0:0:0:
308,100,63256,1,0,1:2:0:0:
56,267,63418,5,10,0:0:0:0:
152,39,63581,1,0,1:2:0:0:
195,353,63743,5,8,0:0:0:0:
72,99,63905,1,0,1:2:0:0:
93,384,64067,5,10,0:0:0:0:
212,142,64229,1,0,1:2:0:0:
312,372,64391,5,10,0:0:0:0:
52,265,64553,1,0,1:2:0:0:
393,210,64716,5,14,0:0:0:0:
139,320,64878,1,0,1:2:0:0:
457,274,65040,5,10,0:0:0:0:
166,169,65202,1,0,1:2:0:0:
427,92,65364,5,10,0:0:0:0:
317,330,65526,1,0,1:2:0:0:
254,55,65689,5,10,0:0:0:0:
504,149,65851,1,0,1:2:0:0:
227,254,66013,5,10,0:0:0:0:
325,12,66175,1,0,1:2:0:0:
317,326,66337,5,8,0:0:0:0:
174,52,66499,1,0,1:2:0:0:
181,378,66662,5,10,0:0:0:0:
294,103,66824,1,0,1:2:0:0:
412,313,66986,1,8,0:0:0:0:
412,313,67310,6,0,B|250:270|315:415|132:374,1,288,6|10,1:2|2:3,0:0:0:0:
105,164,68608,6,0,B|36:97|80:-8|164:1|170:68|149:97,1,252,6|0,1:2|0:0,0:0:0:0:
164,117,69256,1,2,0:0:0:0:
427,369,69905,6,0,P|403:301|437:115,1,252,6|0,1:2|0:0,0:0:0:0:
481,61,70553,2,0,P|458:130|294:132,1,252,6|0,1:2|0:0,0:0:0:0:
199,65,71202,5,14,0:0:0:0:
293,287,71364,1,0,1:2:0:0:
394,53,71526,1,10,0:0:0:0:
123,178,71689,1,0,1:2:0:0:
424,307,71851,5,4,0:0:0:0:
424,307,72499,6,0,P|411:226|375:125,2,180,6|10|2,1:2|0:0|1:2,0:0:0:0:
478,138,73310,1,0,1:2:0:0:
342,323,73472,2,0,P|296:351|250:346,1,90,10|0,0:0|0:0,0:0:0:0:
163,130,73797,6,0,P|207:131|243:156,1,90,0|0,1:2|1:2,0:0:0:0:
128,290,74121,1,10,0:0:0:0:
45,148,74283,1,8,0:0:0:0:
45,148,74364,1,8,0:0:0:0:
45,148,74445,2,0,P|51:92|67:38,1,90,2|0,1:2|1:2,0:0:0:0:
246,188,74770,2,0,P|256:231|260:276,1,90,10|0,0:0|0:0,0:0:0:0:
310,76,75094,6,0,P|352:49|412:53,1,90,6|0,1:2|1:2,0:0:0:0:
150,206,75418,2,0,P|105:201|68:176,1,90,10|0,0:0|0:0,0:0:0:0:
351,190,75743,1,2,1:2:0:0:
198,61,75905,1,0,1:2:0:0:
367,215,76067,2,0,P|356:260|345:342,1,90,10|0,0:0|0:0,0:0:0:0:
106,375,76391,6,0,P|98:330|87:286,1,90,2|0,1:2|1:2,0:0:0:0:
178,97,76716,1,10,0:0:0:0:
276,278,76878,1,2,0:0:0:0:
276,278,76959,1,2,0:0:0:0:
276,278,77040,2,0,P|283:233|294:189,1,90,2|0,1:2|1:2,0:0:0:0:
69,57,77364,2,0,P|79:100|87:145,1,90,8|0,0:0|0:0,0:0:0:0:
380,100,77689,6,0,P|343:53|220:64,2,180,6|10|2,1:2|0:0|1:2,0:0:0:0:
258,222,78499,1,0,1:2:0:0:
452,172,78662,2,0,P|476:126|470:76,1,90,10|0,0:0|0:0,0:0:0:0:
240,243,78986,6,0,P|240:287|262:326,1,90,0|0,1:2|1:2,0:0:0:0:
322,113,79310,2,0,P|272:98|208:87,1,90,10|0,0:0|0:0,0:0:0:0:
121,320,79635,1,2,1:2:0:0:
325,219,79797,1,0,1:2:0:0:
110,93,79959,2,0,P|122:145|133:210,1,90,10|0,0:0|0:0,0:0:0:0:
442,112,80283,5,6,1:2:0:0:
320,316,80445,1,0,1:2:0:0:
243,23,80608,2,0,P|231:75|220:140,1,90,10|0,0:0|0:0,0:0:0:0:
398,228,80932,1,10,0:0:0:0:
398,228,81013,1,8,0:0:0:0:
398,228,81094,2,0,L|386:143,1,45,8|8,0:0|0:0,0:0:0:0:
199,276,81256,1,8,0:0:0:0:
433,373,81418,1,0,1:2:0:0:
299,110,81581,5,6,1:2:0:0:
238,379,81743,1,2,1:2:0:0:
475,181,81905,2,0,P|463:121|451:60,1,90,8|2,0:0|0:0,0:0:0:0:
244,256,82229,1,2,1:2:0:0:
244,256,82310,1,2,0:0:0:0:
244,256,82391,2,0,L|185:237,1,45,2|2,1:2|0:0,0:0:0:0:
450,363,82553,1,10,0:0:0:0:
450,363,82634,1,2,0:0:0:0:
450,363,82715,2,0,L|509:344,1,45,2|2,0:0|0:0,0:0:0:0:
288,91,82878,6,0,P|271:126|277:192,1,90,6|0,1:2|1:2,0:0:0:0:
440,262,83202,1,10,0:0:0:0:
369,33,83364,1,8,0:0:0:0:
369,33,83445,1,8,0:0:0:0:
369,33,83526,2,0,P|332:3|271:7,1,90,2|0,1:2|1:2,0:0:0:0:
429,231,83851,2,0,P|473:226|506:197,1,90,10|0,0:0|0:0,0:0:0:0:
197,188,84175,6,0,P|213:255|225:313,1,90,2|0,1:2|1:2,0:0:0:0:
384,123,84499,2,0,P|393:79|404:35,1,90,10|0,0:0|0:0,0:0:0:0:
327,323,84824,1,2,1:2:0:0:
206,63,84986,1,2,1:2:0:0:
123,334,85148,1,10,0:0:0:0:
291,145,85310,1,2,0:0:0:0:
349,340,85472,6,0,P|393:367|450:361,1,90,6|0,1:2|1:2,0:0:0:0:
177,143,85797,2,0,P|132:145|95:170,1,90,10|0,0:0|0:0,0:0:0:0:
375,249,86121,1,2,1:2:0:0:
320,36,86283,1,0,1:2:0:0:
177,252,86445,2,0,P|194:301|214:377,1,90,10|0,0:0|0:0,0:0:0:0:
492,192,86770,6,0,P|454:135|324:146,1,180,2|8,1:2|0:0,0:0:0:0:
220,326,87256,1,2,0:0:0:0:
220,326,87337,1,2,0:0:0:0:
220,326,87418,1,2,1:2:0:0:
392,219,87581,1,0,1:2:0:0:
207,59,87743,2,0,P|191:114|170:184,1,90,8|0,0:0|0:0,0:0:0:0:
413,371,88067,6,0,P|400:327|387:284,1,90,14|0,0:0|1:2,0:0:0:0:
114,102,88391,5,10,0:0:0:0:
217,342,88553,1,0,1:2:0:0:
245,46,88716,5,10,0:0:0:0:
128,287,88878,1,0,1:2:0:0:
136,5,89040,5,10,0:0:0:0:
255,250,89202,1,0,1:2:0:0:
455,39,89364,6,0,P|413:14|356:19,1,90,14|0,0:0|1:2,0:0:0:0:
73,184,89689,5,10,0:0:0:0:
330,102,89851,1,0,1:2:0:0:
39,196,90013,5,10,0:0:0:0:
350,298,90175,1,0,1:2:0:0:
72,324,90337,5,10,0:0:0:0:
368,211,90499,1,0,1:2:0:0:
98,69,90662,5,12,0:0:0:0:
276,376,90824,1,2,1:2:0:0:
419,24,90986,1,2,1:2:0:0:
52,197,91148,1,8,0:0:0:0:
441,346,91310,1,2,1:2:0:0:
257,0,91472,1,2,1:2:0:0:
107,294,91635,1,8,2:3:0:0:
472,101,91797,5,2,0:0:0:0:
472,101,91878,1,2,0:0:0:0:
472,101,91959,2,0,B|210:30|326:394|30:301,1,540,6|0,1:2|0:0,0:0:0:0:
256,192,96905,12,0,97716,0:0:0:0:
