osu file format v14

[General]
AudioFilename: audio.mp3
AudioLeadIn: 0
PreviewTime: 46230
Countdown: 0
SampleSet: Soft
StackLeniency: 0.7
Mode: 0
LetterboxInBreaks: 1
WidescreenStoryboard: 1

[Editor]
Bookmarks: 96905
DistanceSpacing: 0.9
BeatDivisor: 4
GridSize: 32
TimelineZoom: 4.299998

[Metadata]
Title:Ao to Natsu
TitleUnicode:青と夏
Artist:Mrs. GREEN APPLE
ArtistUnicode:Mrs. GREEN APPLE
Creator:Rosiie
Version:Haruto's Extra
Source:青夏 きみに恋した30日
Tags:J pop Jpop J-Pop Japanese Pop cut short ver version Reform Kujinn Haruto haruto_aizawa Stixy blue and summer days in love with you ost original soundtrack ao natsu: kimi ni koi shita thirty nichi ミセスグリーンアップル motoki omori 大森元貴 hiroto wakai 若井滉斗 ayaka yamanaka 山中綾華 ryoka fujisawa 藤澤涼架 kiyokatsu kiyokazu takano 髙野清宗
BeatmapID:2530955
BeatmapSetID:1216255

[Difficulty]
HPDrainRate:5
CircleSize:4
OverallDifficulty:9.1
ApproachRate:9.3
SliderMultiplier:1.6
SliderTickRate:1

[Events]
//Background and Video events
0,0,"harubg.jpg",0,0
//Break Periods
//Storyboard Layer 0 (Background)
//Storyboard Layer 1 (Fail)
//Storyboard Layer 2 (Pass)
//Storyboard Layer 3 (Foreground)
//Storyboard Layer 4 (Overlay)
//Storyboard Sound Samples

[TimingPoints]
1635,324.324324324324,4,2,1,65,1,0
1798,324.324324324324,4,2,1,65,1,0
1798,-133.333333333333,4,2,1,65,0,0
4392,-105.263157894737,4,2,1,65,0,0
4879,-133.333333333334,4,2,1,65,0,0
6987,-105.263157894737,4,2,1,65,0,0
7473,-133.333333333334,4,2,1,65,0,0
10879,-100,4,2,1,65,0,0
11527,-117.647058823529,4,2,1,65,0,0
12176,-100,4,2,1,75,0,0
21257,-83.3333333333333,4,2,1,75,0,0
21581,-100,4,2,1,75,0,0
22554,-153.846153846153,4,2,1,55,0,0
26446,-105.263157894736,4,2,1,55,0,0
26770,-153.846153846153,4,2,1,55,0,0
27095,-86.9565217391302,4,2,1,55,0,0
27743,-133.333333333333,4,2,1,55,0,0
29041,-117.647058823529,4,2,1,55,0,0
29852,-133.333333333333,4,2,1,55,0,0
32933,-117.64705882353,4,2,1,65,0,0
35527,-95.2380952380956,4,2,1,65,0,0
35852,-117.647058823529,4,2,1,65,0,0
37473,-79.9999999999998,4,2,1,65,0,0
37716,-79.9999999999998,4,2,1,65,0,0
37797,-181.818181818181,4,2,1,65,0,0
38122,-117.647058823529,4,2,1,65,0,0
40068,-133.333333333334,4,2,1,45,0,0
40716,-95.2380952380954,4,2,1,75,0,0
41041,-100,4,2,1,75,0,0
45581,-83.3333333333333,4,2,1,75,0,0
45906,-71.4285714285714,4,2,1,75,0,0
46230,-100,4,2,1,75,0,0
46554,324.324324324324,4,2,1,85,1,0
46554,-100,4,2,1,85,0,0
47202,-81.9672131147541,4,2,1,85,0,0
47526,-100,4,2,1,85,0,0
56283,-86.9565217391303,4,2,1,85,0,0
56932,-98.0392156862745,4,2,1,85,0,0
61797,-100,4,2,1,85,0,0
62121,-98.0392156862745,4,2,1,85,0,0
67310,-125,4,2,1,70,0,0
70229,-125,4,2,1,70,0,0
70553,-125,4,2,1,70,0,0
70877,-125,4,2,1,70,0,0
71202,-125,4,2,1,70,0,0
71851,-125,4,2,2,70,0,0
72499,-83.3333333333333,4,2,1,75,0,0
72824,-100,4,2,1,75,0,0
75094,-83.3333333333333,4,2,1,75,0,0
75418,-100,4,2,1,75,0,0
78175,-100,4,2,1,75,0,0
78337,-100,4,2,1,75,0,0
80283,-90.9090909090909,4,2,1,75,0,0
80932,-142.857142857143,4,2,1,75,0,0
81256,-100,4,2,1,75,0,0
82878,-83.3333333333333,4,2,1,75,0,0
83202,-100,4,2,1,75,0,0
88067,-83.3333333333333,4,2,1,75,0,0
88391,-100,4,2,1,75,0,0
91959,-454.545454545455,4,2,1,75,0,0
92040,-454.545454545455,4,2,1,5,0,0
96905,-454.545454545455,4,2,1,30,0,0

[Colours]
Combo1 : 190,190,190
Combo2 : 153,230,220
Combo3 : 107,197,231
Combo4 : 116,219,111

[HitObjects]
88,171,1635,5,8,0:0:0:0:
88,171,1716,1,8,0:0:0:0:
88,171,1798,6,0,P|148:179|211:189,1,120.000004577637,6|0,1:2|1:2,0:0:0:0:
171,44,2284,1,2,0:0:0:0:
171,44,2446,6,0,P|164:81|159:119,1,60.0000022888184,0|2,1:2|0:0,0:0:0:0:
259,315,2770,2,0,P|263:285|268:255,1,60.0000022888184,0|10,1:2|0:0,0:0:0:0:
334,193,3095,2,0,P|377:197|416:268,1,120.000004577637,0|0,1:2|1:2,0:0:0:0:
271,125,3581,6,0,P|309:103|348:109,1,60.0000022888184,10|0,0:0|1:2,0:0:0:0:
415,119,3906,2,0,P|453:141|467:178,2,60.0000022888184,10|0|10,0:0|1:2|0:0,0:0:0:0:
206,188,4392,6,0,B|134:170|129:213|55:199,1,151.999995941162,6|0,1:2|1:2,0:0:0:0:
130,48,4879,1,2,0:0:0:0:
130,48,5041,6,0,P|125:77|120:107,1,60.0000022888184,0|2,1:2|0:0,0:0:0:0:
164,333,5365,2,0,P|168:303|173:273,1,60.0000022888184,0|10,1:2|0:0,0:0:0:0:
118,197,5689,6,0,P|58:206|0:217,1,120.000004577637,0|0,1:2|1:2,0:0:0:0:
254,314,6176,2,0,P|283:308|313:303,1,60.0000022888184,10|0,0:0|1:2,0:0:0:0:
86,384,6500,5,10,0:0:0:0:
215,185,6662,1,0,1:2:0:0:
120,107,6825,1,10,0:0:0:0:
254,314,6987,6,0,B|325:296|330:339|404:325,1,151.999995941162,6|0,1:2|1:2,0:0:0:0:
428,224,7473,1,2,0:0:0:0:
428,224,7635,2,0,P|398:229|368:234,1,60.0000022888184,0|2,1:2|0:0,0:0:0:0:
306,154,7960,2,0,P|335:149|365:143,1,60.0000022888184,0|10,1:2|0:0,0:0:0:0:
504,51,8284,6,0,P|468:2|394:10,1,120.000004577637,0|0,1:2|1:2,0:0:0:0:
428,224,8770,2,0,P|456:217|479:198,1,60.0000022888184,10|0,0:0|1:2,0:0:0:0:
407,138,9095,2,0,P|422:112|425:83,2,60.0000022888184,10|0|10,0:0|1:2|0:0,0:0:0:0:
254,314,9581,6,0,P|245:254|234:196,1,120.000004577637,6|0,1:2|1:2,0:0:0:0:
327,237,10068,1,2,1:2:0:0:
215,105,10230,1,0,1:2:0:0:
315,142,10392,1,2,1:2:0:0:
156,278,10554,2,0,P|126:282|96:288,1,60.0000022888184,8|2,0:0|0:0,0:0:0:0:
328,380,10879,5,8,0:0:0:0:
367,381,10960,1,8,0:0:0:0:
403,364,11041,1,10,0:0:0:0:
427,333,11122,1,8,0:0:0:0:
433,294,11203,2,0,L|421:227,3,40,8|8|10|8,0:0|0:0|0:0|0:0,0:0:0:0:
406,168,11527,6,0,P|440:162|474:158,1,68.0000012969971,8|8,0:0|2:3,0:0:0:0:
361,35,11852,2,0,P|327:41|293:45,1,68.0000012969971,8|8,2:3|2:3,0:0:0:0:
147,168,12176,6,0,B|120:239|164:257|145:324,2,160,6|10|2,1:2|0:0|1:2,0:0:0:0:
232,211,12987,1,0,1:2:0:0:
92,85,13149,2,0,P|139:78|188:70,1,80,10|0,0:0|0:0,0:0:0:0:
305,150,13473,6,0,P|332:197|318:281,1,120,2|0,1:2|0:0,0:0:0:0:
325,274,13797,2,0,P|364:279|404:285,1,80,10|0,0:0|0:0,0:0:0:0:
498,205,14122,2,0,P|459:200|419:194,1,80,2|0,1:2|1:2,0:0:0:0:
401,373,14446,2,0,P|440:378|480:384,1,80,10|0,0:0|0:0,0:0:0:0:
232,211,14770,6,0,B|166:221|166:221|142:239|142:239|79:248,2,160,2|10|2,1:2|0:0|1:2,0:0:0:0:
179,129,15581,1,0,1:2:0:0:
79,340,15743,2,0,P|119:346|159:352,1,80,10|0,0:0|0:0,0:0:0:0:
386,180,16068,6,0,P|332:131|288:137,1,120,2|0,1:2|0:0,0:0:0:0:
281,127,16392,2,0,P|287:87|293:47,1,80,10|2,0:0|0:0,0:0:0:0:
296,32,16635,1,2,0:0:0:0:
300,8,16716,1,2,1:2:0:0:
382,59,16879,1,0,1:2:0:0:
232,211,17041,1,10,0:0:0:0:
195,7,17203,1,0,0:0:0:0:
386,180,17365,6,0,B|441:165|445:199|502:188,1,120,6|0,1:2|0:0,0:0:0:0:
512,179,17689,2,0,P|506:219|500:259,1,80,10|0,0:0|0:0,0:0:0:0:
356,355,18014,2,0,P|362:315|368:275,1,80,2|0,1:2|1:2,0:0:0:0:
281,127,18338,2,0,P|241:121|201:115,1,80,10|0,0:0|0:0,0:0:0:0:
100,57,18662,6,0,P|62:83|48:170,1,120,2|0,1:2|0:0,0:0:0:0:
35,170,18987,2,0,P|75:164|115:158,1,80,10|0,0:0|0:0,0:0:0:0:
270,8,19311,2,0,P|230:14|190:20,1,80,2|0,1:2|1:2,0:0:0:0:
219,234,19635,2,0,P|259:228|299:222,1,80,10|0,0:0|0:0,0:0:0:0:
437,110,19960,6,0,P|403:88|364:85,1,80,2|2,1:2|1:2,0:0:0:0:
293,329,20284,2,0,P|326:350|365:353,1,80,10|2,0:0|0:0,0:0:0:0:
292,182,20608,2,0,P|296:208|299:233,3,40,10|8|10|8,0:0|0:0|0:0|0:0,0:0:0:0:
381,203,20933,2,0,P|421:209|461:215,1,80,10|2,0:0|1:2,0:0:0:0:
209,270,21257,6,0,B|141:253|137:293|67:280,1,143.999995605469,6|0,1:2|0:0,0:0:0:0:
55,295,21581,2,0,P|75:335|74:380,1,80,10|0,0:0|0:0,0:0:0:0:
80,103,21906,5,0,1:2:0:0:
93,189,22068,1,0,1:2:0:0:
179,176,22230,1,0,1:2:0:0:
166,90,22392,1,10,0:0:0:0:
10,3,22554,6,0,P|58:10|117:20,1,103.999995239258,6|2,1:2|1:2,0:0:0:0:
251,117,23041,1,0,0:0:0:0:
251,117,23203,2,0,P|277:113|309:107,1,51.999997619629,2|0,1:2|0:0,0:0:0:0:
145,258,23527,2,0,P|148:284|154:316,1,51.999997619629,2|2,1:2|0:0,0:0:0:0:
230,355,23852,6,0,P|268:353|308:297,1,103.999995239258,2|2,1:2|1:2,0:0:0:0:
379,245,24338,1,0,0:0:0:0:
379,245,24500,2,0,P|402:254|421:273,1,51.999997619629,2|0,1:2|0:0,0:0:0:0:
291,212,24825,2,0,P|300:188|319:169,1,51.999997619629,0|0,1:2|0:0,0:0:0:0:
469,2,25149,6,0,P|476:53|485:104,1,103.999995239258,2|2,1:2|1:2,0:0:0:0:
409,157,25635,1,0,0:0:0:0:
409,157,25797,2,0,P|405:131|400:105,1,51.999997619629,2|0,1:2|0:0,0:0:0:0:
314,13,26122,2,0,P|318:38|322:64,1,51.999997619629,2|2,1:2|0:0,0:0:0:0:
291,212,26446,6,0,B|236:198|233:230|177:219,1,113.999996955872,2|0,1:2|0:0,0:0:0:0:
168,232,26770,2,0,P|164:206|159:180,1,51.999997619629,2|0,1:2|0:0,0:0:0:0:
0,27,27095,2,0,P|67:38|135:49,2,138.000002632141,2|8|0,1:2|2:3|1:2,0:0:0:0:
86,294,27743,6,0,P|110:241|167:231,1,120.000004577637,6|2,1:2|1:2,0:0:0:0:
243,178,28230,1,0,0:0:0:0:
243,178,28392,2,0,P|270:189|290:211,1,60.0000022888184,2|0,1:2|0:0,0:0:0:0:
363,267,28716,2,0,P|360:296|345:322,1,60.0000022888184,2|2,1:2|0:0,0:0:0:0:
472,102,29041,6,0,B|416:110|416:110|396:125|396:125|343:133,2,136.000002593994,2|2|2,1:2|1:2|1:2,0:0:0:0:
290,53,29852,1,0,0:0:0:0:
290,53,29933,1,0,0:0:0:0:
290,53,30014,2,0,P|326:47|362:41,1,60.0000022888184,0|0,1:2|0:0,0:0:0:0:
481,286,30338,6,0,P|420:275|360:266,1,120.000004577637,2|2,1:2|1:2,0:0:0:0:
452,193,30825,1,2,0:0:0:0:
452,193,30987,2,0,P|481:197|511:202,1,60.0000022888184,2|0,1:2|0:0,0:0:0:0:
432,370,31311,2,0,P|402:365|372:360,1,60.0000022888184,2|0,1:2|0:0,0:0:0:0:
197,258,31635,6,0,P|237:213|288:218,1,90.0000034332277,2|0,1:2|0:0,0:0:0:0:
281,220,31960,2,0,P|276:190|271:160,1,60.0000022888184,0|0,1:2|0:0,0:0:0:0:
172,25,32284,5,0,1:2:0:0:
148,164,32446,1,8,0:0:0:0:
86,38,32608,1,0,1:2:0:0:
209,102,32770,1,8,0:0:0:0:
71,123,32933,6,0,P|41:117|1:111,1,68.0000012969971,6|0,1:2|0:0,0:0:0:0:
263,30,33257,2,0,P|293:36|333:42,1,68.0000012969971,10|0,0:0|0:0,0:0:0:0:
234,186,33581,6,0,P|245:253|256:321,1,136.000002593994,2|2,1:2|1:2,0:0:0:0:
352,346,34068,1,10,0:0:0:0:
352,346,34230,6,0,P|354:311|340:276,1,68.0000012969971,2|0,1:2|1:2,0:0:0:0:
162,319,34554,2,0,P|160:354|174:389,1,68.0000012969971,10|0,0:0|0:0,0:0:0:0:
234,186,34879,5,2,1:2:0:0:
234,186,35041,1,0,1:2:0:0:
255,320,35203,1,10,0:0:0:0:
159,109,35527,6,0,P|220:99|282:88,1,125.999996154785,2|0,1:2|0:0,0:0:0:0:
296,100,35852,2,0,P|317:58|310:18,1,68.0000012969971,10|0,0:0|0:0,0:0:0:0:
503,176,36176,2,0,P|435:164|368:154,1,136.000002593994,2|2,1:2|0:0,0:0:0:0:
314,223,36662,1,10,0:0:0:0:
403,62,36825,6,0,P|447:54|491:47,1,68.0000012969971,2|0,1:2|1:2,0:0:0:0:
402,268,37149,2,0,P|446:275|490:282,1,68.0000012969971,10|0,0:0|0:0,0:0:0:0:
239,173,37473,6,0,B|166:154|162:196|87:182,1,150,2|0,1:2|0:0,0:0:0:0:
80,199,37797,6,0,P|76:177|72:155,1,44.0000013427735,10|0,0:0|0:0,0:0:0:0:
208,255,38122,6,0,P|214:293|220:331,1,68.0000012969971,2|0,1:2|1:2,0:0:0:0:
333,134,38446,2,0,P|338:100|344:66,1,68.0000012969971,10|0,0:0|0:0,0:0:0:0:
284,7,38689,5,0,1:2:0:0:
276,1,38770,2,0,P|231:-7|178:63,1,136.000002593994,2|2,1:2|0:0,0:0:0:0:
314,223,39257,2,0,P|347:228|381:234,1,68.0000012969971,8|2,0:0|1:2,0:0:0:0:
420,108,39581,5,0,1:2:0:0:
208,255,39743,1,10,0:0:0:0:
208,255,40068,6,0,B|192:310|219:323|206:374,1,120.000004577637,2|2,0:0|0:0,0:0:0:0:
0,115,40716,6,0,P|41:95|111:148,1,125.999996154785,6|0,1:2|0:0,0:0:0:0:
122,123,41041,2,0,P|141:163|132:211,1,80,10|0,0:0|0:0,0:0:0:0:
51,290,41365,2,0,P|32:254|35:215,1,80,2|0,1:2|1:2,0:0:0:0:
224,138,41689,2,0,P|263:132|303:126,1,80,8|0,0:0|0:0,0:0:0:0:
120,34,42014,5,0,1:2:0:0:
120,34,42176,1,0,1:2:0:0:
195,334,42338,2,0,P|201:294|207:254,1,80,8|0,0:0|0:0,0:0:0:0:
137,197,42662,2,0,P|97:202|57:209,1,80,2|0,1:2|1:2,0:0:0:0:
290,298,42987,2,0,P|329:291|369:285,1,80,8|0,0:0|0:0,0:0:0:0:
249,46,43311,5,10,0:0:0:0:
249,46,43635,1,8,0:0:0:0:
195,334,43797,1,0,1:2:0:0:
394,109,43960,5,10,0:0:0:0:
437,339,44122,1,0,1:2:0:0:
512,202,44284,5,10,0:0:0:0:
325,236,44446,1,0,1:2:0:0:
502,11,44608,5,10,0:0:0:0:
287,134,44770,1,0,1:2:0:0:
437,339,44933,5,10,0:0:0:0:
411,329,45014,1,8,0:0:0:0:
383,328,45095,1,8,0:0:0:0:
357,338,45176,1,8,0:0:0:0:
336,357,45257,1,10,1:2:0:0:
314,371,45338,1,8,0:0:0:0:
288,381,45419,1,8,0:0:0:0:
260,380,45500,1,8,0:0:0:0:
235,371,45581,6,0,P|238:347|241:323,1,47.9999985351563,8|8,1:2|0:0,0:0:0:0:
325,236,45743,2,0,P|321:212|318:188,1,47.9999985351563,8|8,0:0|0:0,0:0:0:0:
378,0,45906,6,0,L|320:7,1,55.9999982910157,2|2,0:0|0:0,0:0:0:0:
246,38,46068,6,0,L|188:30,1,55.9999982910157,2|2,0:0|0:0,0:0:0:0:
128,86,46230,6,0,L|41:97,1,80,2|0,0:0|1:2,0:0:0:0:
48,96,46473,1,0,1:2:0:0:
48,96,46554,6,0,P|42:137|35:181,1,80.0999975555421,6|0,1:2|0:0,0:0:0:0:
193,378,46878,2,0,P|199:337|206:293,1,80.0999975555421,10|0,0:0|0:0,0:0:0:0:
247,220,47202,6,0,P|166:211|122:290,1,146.399993968506,2|0,1:2|0:0,0:0:0:0:
111,243,47526,2,0,P|91:287|102:336,1,80,10|0,0:0|0:0,0:0:0:0:
336,236,47851,6,0,P|337:196|318:161,1,80.0999975555421,2|0,1:2|1:2,0:0:0:0:
243,0,48175,2,0,P|234:58|224:120,1,120.149996333313,8|0,0:0|0:0,0:0:0:0:
234,132,48499,1,2,1:2:0:0:
352,77,48661,1,0,1:2:0:0:
147,40,48823,2,0,P|107:34|64:27,1,80.0999975555421,10|0,0:0|0:0,0:0:0:0:
91,242,49148,6,0,B|164:253|171:204|246:219,1,160.199995111084,2|10,1:2|0:0,0:0:0:0:
145,133,49634,1,0,0:0:0:0:
203,384,49796,2,0,P|210:344|215:305,1,80.0999975555421,2|0,1:2|1:2,0:0:0:0:
347,156,50121,2,0,P|339:195|335:235,1,80.0999975555421,10|0,0:0|0:0,0:0:0:0:
481,353,50445,6,0,L|504:199,1,120.149996333313,2|0,1:2|0:0,0:0:0:0:
511,225,50769,2,0,P|471:217|431:213,1,80.0999975555421,8|0,0:0|0:0,0:0:0:0:
327,61,51094,2,0,P|366:68|406:72,1,80.0999975555421,0|0,1:2|1:2,0:0:0:0:
215,305,51418,2,0,P|160:297|120:245,1,120.149996333313,10|0,0:0|0:0,0:0:0:0:
103,253,51742,6,0,P|92:216|99:177,1,80.0999975555421,6|0,1:2|1:2,0:0:0:0:
336,330,52067,2,0,P|309:359|271:372,1,80.0999975555421,10|0,0:0|0:0,0:0:0:0:
285,91,52391,2,0,P|323:99|353:125,1,80.0999975555421,2|0,1:2|1:2,0:0:0:0:
215,305,52715,2,0,P|220:265|227:222,1,80.0999975555421,10|0,0:0|0:0,0:0:0:0:
350,12,53040,6,0,B|406:4|410:37|469:30,1,120.149996333313,2|0,1:2|0:0,0:0:0:0:
481,22,53364,2,0,P|474:61|468:101,1,80.0999975555421,8|2,0:0|0:0,0:0:0:0:
356,262,53688,2,0,P|347:202|338:143,1,120.149996333313,2|0,1:2|0:0,0:0:0:0:
353,125,54013,1,10,0:0:0:0:
445,194,54175,1,0,0:0:0:0:
216,382,54337,6,0,B|225:342|225:342|213:302,1,80.0999975555421,2|0,1:2|1:2,0:0:0:0:
250,106,54661,2,0,B|240:145|240:145|252:185,1,80.0999975555421,10|0,0:0|0:0,0:0:0:0:
423,318,54986,2,0,P|463:311|503:305,1,80.0999975555421,2|0,1:2|1:2,0:0:0:0:
165,220,55310,2,0,P|125:227|85:233,1,80.0999975555421,10|0,0:0|0:0,0:0:0:0:
381,36,55634,5,2,1:2:0:0:
213,304,55796,1,0,1:2:0:0:
64,24,55959,1,10,0:0:0:0:
250,106,56121,1,0,0:0:0:0:
62,238,56283,1,8,0:0:0:0:
62,238,56364,2,0,P|68:204|79:146,1,92.0000017547608,8|8,0:0|0:0,0:0:0:0:
155,36,56607,6,0,P|217:44|249:116,1,138.000002632141,2|0,1:2|0:0,0:0:0:0:
331,205,56932,6,0,P|337:165|344:122,1,81.6000004980469,6|0,1:2|0:0,0:0:0:0:
262,24,57256,2,0,P|256:64|249:107,1,81.8799972513429,10|0,0:0|0:0,0:0:0:0:
370,293,57580,6,0,P|432:290|470:224,1,122.819995877014,2|0,1:2|0:0,0:0:0:0:
486,250,57905,2,0,P|497:209|477:159,1,81.8799972513429,10|0,0:0|0:0,0:0:0:0:
279,282,58229,6,0,P|268:321|279:360,1,81.8799972513429,2|0,1:2|1:2,0:0:0:0:
113,167,58553,2,0,P|173:176|234:185,1,122.819995877014,8|0,0:0|0:0,0:0:0:0:
244,195,58878,6,0,L|257:112,1,81.8799972513429,2|0,1:2|1:2,0:0:0:0:
179,14,59202,2,0,L|166:97,1,81.8799972513429,10|0,0:0|0:0,0:0:0:0:
138,278,59526,5,2,1:2:0:0:
343,163,59688,1,0,1:2:0:0:
166,94,59851,2,0,P|117:86|69:79,1,81.8799972513429,10|0,0:0|0:0,0:0:0:0:
256,275,60175,2,0,P|249:234|243:194,1,81.8799972513429,2|0,1:2|1:2,0:0:0:0:
383,8,60499,2,0,P|389:48|395:88,1,81.8799972513429,10|0,0:0|0:0,0:0:0:0:
498,232,60823,6,0,B|440:219|437:256|373:244,1,122.819995877014,2|0,1:2|0:0,0:0:0:0:
365,258,61148,2,0,P|371:300|377:342,1,81.6000004980469,10|0,0:0|0:0,0:0:0:0:
343,163,61472,5,2,1:2:0:0:
468,349,61634,1,0,1:2:0:0:
256,275,61796,1,8,0:0:0:0:
383,8,62121,5,14,0:0:0:0:
323,363,62283,1,0,1:2:0:0:
227,108,62445,5,10,0:0:0:0:
498,232,62607,1,0,1:2:0:0:
172,227,62769,5,10,0:0:0:0:
433,142,62932,1,0,1:2:0:0:
271,14,63094,5,10,0:0:0:0:
371,298,63256,1,0,1:2:0:0:
60,153,63418,6,0,P|100:147|140:141,1,81.8799972513429,10|0,0:0|1:2,0:0:0:0:
342,188,63742,2,0,P|302:194|262:200,1,81.8799972513429,8|0,0:0|1:2,0:0:0:0:
108,298,64067,5,10,0:0:0:0:
163,0,64229,1,0,1:2:0:0:
261,200,64391,5,10,0:0:0:0:
5,81,64553,1,0,1:2:0:0:
95,378,64715,6,0,P|101:338|107:298,1,81.8799972513429,14|0,0:0|1:2,0:0:0:0:
271,14,65040,2,0,P|277:54|283:94,1,81.8799972513429,10|0,0:0|1:2,0:0:0:0:
418,334,65364,5,10,0:0:0:0:
446,185,65526,1,0,1:2:0:0:
507,272,65689,5,10,0:0:0:0:
358,244,65851,1,0,1:2:0:0:
509,106,66013,6,0,P|469:100|429:94,1,81.8799972513429,10|0,0:0|1:2,0:0:0:0:
189,218,66337,2,0,P|229:224|269:230,1,81.8799972513429,8|0,0:0|1:2,0:0:0:0:
418,334,66662,5,10,0:0:0:0:
344,147,66824,1,0,1:2:0:0:
249,320,66986,6,0,P|209:326|120:340,1,122.40000074707,8|0,0:0|0:0,0:0:0:0:
117,355,67310,6,0,P|81:340|48:257,1,128,6|0,1:2|0:0,0:0:0:0:
149,0,67959,2,0,P|158:65|169:131,1,128,10|2,2:3|0:0,0:0:0:0:
358,244,68608,6,0,B|417:252|422:212|485:225,1,128,6|0,1:2|0:0,0:0:0:0:
423,125,69094,2,0,P|425:109|427:93,2,32,0|0|2,0:0|0:0|0:0,0:0:0:0:
249,320,69905,6,0,P|258:256|267:191,1,128,6|2,1:2|0:0,0:0:0:0:
442,0,70553,2,0,P|432:63|422:126,1,128,6|2,1:2|0:0,0:0:0:0:
247,318,71202,5,14,0:0:0:0:
140,176,71364,1,0,1:2:0:0:
262,193,71526,5,10,0:0:0:0:
123,299,71689,1,0,1:2:0:0:
2,126,72499,6,0,B|67:135|74:91|142:105,1,143.999995605469,6|0,1:2|0:0,0:0:0:0:
152,99,72824,2,0,P|145:143|138:187,1,80,10|0,0:0|0:0,0:0:0:0:
247,318,73148,2,0,P|253:278|259:238,1,80,2|0,1:2|1:2,0:0:0:0:
370,82,73472,2,0,P|421:79|469:128,1,120,10|8,0:0|0:0,0:0:0:0:
492,119,73797,2,0,P|505:161|488:216,1,80,0|0,1:2|1:2,0:0:0:0:
276,89,74121,2,0,P|280:49|302:16,1,80,10|0,0:0|0:0,0:0:0:0:
374,186,74445,6,0,P|367:230|360:274,1,80,2|0,1:2|1:2,0:0:0:0:
169,368,74770,2,0,P|164:331|158:288,1,80,10|0,0:0|0:0,0:0:0:0:
0,150,75094,6,0,B|33:111|77:124|77:124|95:149|123:154,1,143.999995605469,6|0,1:2|0:0,0:0:0:0:
138,166,75418,2,0,P|143:130|151:85,1,80,10|0,0:0|0:0,0:0:0:0:
72,233,75743,2,0,P|66:268|59:314,1,80,2|0,1:2|1:2,0:0:0:0:
226,199,76067,2,0,P|265:192|357:177,1,120,10|0,0:0|0:0,0:0:0:0:
361,177,76391,5,2,1:2:0:0:
268,103,76553,1,0,1:2:0:0:
343,274,76716,1,10,0:0:0:0:
507,97,76878,5,2,0:0:0:0:
507,97,76959,1,2,0:0:0:0:
507,97,77040,2,0,P|467:103|428:110,1,80,2|0,1:2|1:2,0:0:0:0:
343,274,77364,2,0,P|322:324|338:386,1,120,8|0,0:0|0:0,0:0:0:0:
450,321,77689,6,0,P|443:281|436:242,1,80,6|0,1:2|1:2,0:0:0:0:
254,24,78013,2,0,P|261:64|268:103,1,80,10|0,0:0|0:0,0:0:0:0:
226,199,78337,6,0,B|170:185|166:219|108:208,1,120,2|0,1:2|0:0,0:0:0:0:
98,221,78662,2,0,P|105:261|112:300,1,80,10|0,0:0|0:0,0:0:0:0:
51,368,78986,1,0,1:2:0:0:
51,368,79148,1,0,1:2:0:0:
42,107,79310,6,0,P|82:114|121:121,1,80,10|0,0:0|0:0,0:0:0:0:
344,305,79635,2,0,P|304:298|265:291,1,80,2|0,1:2|1:2,0:0:0:0:
348,50,79959,2,0,P|405:59|442:105,1,120,10|0,0:0|0:0,0:0:0:0:
463,100,80283,6,0,P|477:144|465:193,1,88.000002685547,6|0,1:2|1:2,0:0:0:0:
260,92,80608,2,0,P|252:49|266:7,1,88.000002685547,10|0,0:0|0:0,0:0:0:0:
350,179,80932,6,0,P|354:155|358:132,3,27.9999991455078,10|8|8|8,0:0|0:0|0:0|0:0,0:0:0:0:
357,202,81256,2,0,P|312:193|262:185,1,80,8|0,0:0|1:2,0:0:0:0:
49,147,81581,5,6,1:2:0:0:
260,92,81743,1,2,1:2:0:0:
128,29,81905,1,8,0:0:0:0:
128,29,82067,1,2,0:0:0:0:
173,232,82229,2,0,P|180:192|186:153,1,80,2|2,1:2|1:2,0:0:0:0:
349,2,82553,6,0,P|345:21|342:41,1,40,10|2,0:0|0:0,0:0:0:0:
501,226,82716,2,0,P|504:206|507:186,1,40,2|2,0:0|0:0,0:0:0:0:
433,44,82878,6,0,B|404:106|444:118|419:184,1,143.999995605469,6|0,1:2|0:0,0:0:0:0:
402,195,83202,2,0,P|362:188|323:181,1,80,10|0,0:0|0:0,0:0:0:0:
390,308,83526,2,0,P|429:314|468:321,1,80,2|0,1:2|1:2,0:0:0:0:
274,384,83851,6,0,P|263:316|251:249,1,120,10|0,0:0|0:0,0:0:0:0:
262,252,84175,2,0,P|222:245|182:239,1,80,2|0,1:2|1:2,0:0:0:0:
31,32,84499,2,0,P|95:43|159:52,1,120,10|8,0:0|0:0,0:0:0:0:
160,64,84824,5,2,1:2:0:0:
145,150,84986,1,2,1:2:0:0:
232,165,85148,1,10,0:0:0:0:
246,78,85310,1,2,0:0:0:0:
70,204,85472,6,0,P|76:243|82:282,1,80,6|0,1:2|1:2,0:0:0:0:
246,78,85797,2,0,P|239:38|233:0,1,80,10|0,0:0|0:0,0:0:0:0:
320,135,86121,2,0,P|359:128|445:115,1,120,2|0,1:2|0:0,0:0:0:0:
452,102,86445,2,0,P|474:142|477:186,1,80,10|0,0:0|0:0,0:0:0:0:
326,249,86770,6,0,B|270:235|266:269|208:258,1,120,2|0,1:2|0:0,0:0:0:0:
198,268,87094,2,0,P|192:307|185:346,1,80,8|2,0:0|0:0,0:0:0:0:
320,135,87418,2,0,P|325:95|332:56,1,80,2|0,1:2|1:2,0:0:0:0:
415,317,87743,1,8,0:0:0:0:
61,170,88067,6,0,P|131:161|207:148,1,143.999995605469,14|0,0:0|0:0,0:0:0:0:
217,162,88391,2,0,P|209:122|204:82,1,80,10|0,0:0|1:2,0:0:0:0:
74,0,88716,5,10,0:0:0:0:
213,276,88878,1,0,1:2:0:0:
233,2,89040,5,10,0:0:0:0:
57,262,89202,1,0,1:2:0:0:
74,0,89364,6,0,P|81:39|86:79,1,80,14|0,0:0|1:2,0:0:0:0:
303,312,89689,2,0,P|295:272|290:232,1,80,10|0,0:0|1:2,0:0:0:0:
149,346,90013,6,0,P|109:351|70:358,1,80,10|0,0:0|1:2,0:0:0:0:
308,141,90337,2,0,P|347:135|386:128,1,80,10|0,0:0|1:2,0:0:0:0:
209,103,90662,5,12,0:0:0:0:
387,271,90824,1,2,1:2:0:0:
444,33,90986,1,2,1:2:0:0:
245,238,91148,5,8,0:0:0:0:
487,165,91310,1,2,1:2:0:0:
302,0,91472,1,2,1:2:0:0:
345,135,91635,5,8,2:3:0:0:
423,372,91797,5,2,0:0:0:0:
423,372,91878,1,2,0:0:0:0:
423,372,91959,2,0,B|106:331|300:140|-1:106,1,528.000016113282,6|0,1:2|0:0,0:0:0:0:
256,192,96905,12,0,97716,0:0:0:0:
