osu file format v14

[General]
AudioFilename: audio.mp3
AudioLeadIn: 0
PreviewTime: 46230
Countdown: 0
SampleSet: Soft
StackLeniency: 0.5
Mode: 0
LetterboxInBreaks: 1
WidescreenStoryboard: 1

[Editor]
DistanceSpacing: 1.3
BeatDivisor: 4
GridSize: 8
TimelineZoom: 0.9999996

[Metadata]
Title:Ao to Natsu
TitleUnicode:青と夏
Artist:Mrs. GREEN APPLE
ArtistUnicode:Mrs. GREEN APPLE
Creator:Rosiie
Version:Hard
Source:青夏 きみに恋した30日
Tags:J pop Jpop J-Pop Japanese Pop cut short ver version Reform Kujinn Haruto haruto_aizawa Stixy blue and summer days in love with you ost original soundtrack ao natsu: kimi ni koi shita thirty nichi ミセスグリーンアップル motoki omori 大森元貴 hiroto wakai 若井滉斗 ayaka yamanaka 山中綾華 ryoka fujisawa 藤澤涼架 kiyokatsu kiyokazu takano 髙野清宗
BeatmapID:2530860
BeatmapSetID:1216255

[Difficulty]
HPDrainRate:4.5
CircleSize:3.5
OverallDifficulty:5.5
ApproachRate:7
SliderMultiplier:1.5
SliderTickRate:1

[Events]
//Background and Video events
0,0,"(1).jpg",0,0
//Break Periods
//Storyboard Layer 0 (Background)
//Storyboard Layer 1 (Fail)
//Storyboard Layer 2 (Pass)
//Storyboard Layer 3 (Foreground)
//Storyboard Layer 4 (Overlay)
//Storyboard Sound Samples

[TimingPoints]
1635,324.324324324324,4,2,1,65,1,0
1635,-117.647058823529,4,2,1,65,0,0
1798,324.324324324324,4,2,1,65,1,0
1798,-117.647058823529,4,2,1,65,0,0
11527,-153.846153846153,4,2,1,65,0,0
12176,-105.263157894737,4,2,1,75,0,0
22554,-125,4,2,1,55,0,0
32933,-111.111111111111,4,2,1,65,0,0
40068,-142.857142857143,4,2,1,45,0,0
40716,-100,4,2,1,75,0,0
46554,324.324324324324,4,2,1,85,1,0
46554,-95.2380952380952,4,2,1,85,0,1
67310,-166.666666666667,4,2,1,70,0,0
69905,-142.857142857143,4,2,1,70,0,0
71202,-95.2380952380952,4,2,1,70,0,0
71851,-95.2380952380952,4,2,2,70,0,0
72499,-105.263157894737,4,2,1,75,0,0
92040,-105.263157894737,4,2,1,30,0,0

[Colours]
Combo1 : 91,85,213
Combo2 : 236,193,249
Combo3 : 194,148,245
Combo4 : 241,135,236
Combo5 : 165,188,220

[HitObjects]
53,160,1635,6,0,L|46:117,1,31.8750006079674,8|8,0:0|0:0,0:0:0:0:
61,85,1798,2,0,P|109:59|184:74,1,127.50000243187,6|0,1:2|1:2,0:0:0:0:
267,64,2284,2,0,P|272:32|284:2,2,63.7500012159348,2|0|2,0:0|1:2|0:0,0:0:0:0:
332,124,2770,2,0,P|369:132|395:124,1,63.7500012159348,0|10,1:2|0:0,0:0:0:0:
480,103,3095,2,0,P|472:137|466:180,1,63.7500012159348,0|10,1:2|0:0,0:0:0:0:
401,225,3419,2,0,P|421:267|426:293,1,63.7500012159348,0|10,1:2|0:0,0:0:0:0:
362,346,3743,2,0,P|325:357|291:349,1,63.7500012159348,0|10,1:2|0:0,0:0:0:0:
225,314,4068,1,0,1:2:0:0:
225,314,4230,1,10,0:0:0:0:
148,360,4392,6,0,P|109:311|113:248,1,127.50000243187,6|0,1:2|1:2,0:0:0:0:
117,159,4879,2,0,P|81:163|51:179,2,63.7500012159348,2|0|2,0:0|1:2|0:0,0:0:0:0:
196,198,5365,2,0,P|227:208|258:205,1,63.7500012159348,0|10,1:2|0:0,0:0:0:0:
340,172,5689,2,0,P|380:163|408:171,1,63.7500012159348,0|10,1:2|0:0,0:0:0:0:
487,195,6014,2,0,P|496:165|489:134,1,63.7500012159348,0|10,1:2|0:0,0:0:0:0:
475,50,6338,1,0,1:2:0:0:
475,50,6500,2,0,P|444:40|413:45,1,63.7500012159348,10|0,0:0|1:2,0:0:0:0:
326,64,6825,1,10,0:0:0:0:
245,25,6987,6,0,P|185:10|129:37,1,127.50000243187,6|0,1:2|1:2,0:0:0:0:
52,85,7473,2,0,P|43:45|31:11,2,63.7500012159348,2|0|2,0:0|1:2|0:0,0:0:0:0:
106,156,7960,2,0,P|93:186|92:219,1,63.7500012159348,0|10,1:2|0:0,0:0:0:0:
77,304,8284,2,0,P|112:312|162:300,1,63.7500012159348,0|10,1:2|0:0,0:0:0:0:
222,276,8608,2,0,P|263:268|296:272,1,63.7500012159348,0|10,1:2|0:0,0:0:0:0:
358,320,8933,2,0,P|398:330|443:320,1,63.7500012159348,0|10,1:2|0:0,0:0:0:0:
490,272,9257,1,0,1:2:0:0:
490,272,9419,1,10,0:0:0:0:
421,215,9581,6,0,P|414:162|459:78,1,127.50000243187,6|0,1:2|1:2,0:0:0:0:
493,23,10068,1,2,1:2:0:0:
493,23,10230,2,0,P|450:12|419:17,1,63.7500012159348,0|2,1:2|1:2,0:0:0:0:
354,58,10554,2,0,P|311:64|267:56,1,63.7500012159348,8|2,0:0|0:0,0:0:0:0:
209,25,10879,2,0,L|200:64,3,31.8750006079674,8|8|10|8,0:0|0:0|0:0|0:0,0:0:0:0:
178,93,11203,2,0,L|187:132,3,31.8750006079674,8|8|10|8,0:0|0:0|0:0|0:0,0:0:0:0:
169,154,11527,2,0,P|156:195|153:211,3,48.7499977684022,8|8|8|8,0:0|2:3|2:3|2:3,0:0:0:0:
86,274,12176,6,0,P|148:304|216:288,1,142.49999619484,6|10,1:2|0:0,0:0:0:0:
294,238,12662,1,0,0:0:0:0:
356,307,12825,2,0,P|391:311|425:303,1,71.2499980974198,2|0,1:2|1:2,0:0:0:0:
485,232,13149,2,0,P|494:198|487:163,1,71.2499980974198,10|0,0:0|0:0,0:0:0:0:
445,80,13473,6,0,P|409:70|365:79,1,71.2499980974198,2|0,1:2|1:2,0:0:0:0:
290,108,13797,2,0,P|247:114|215:104,1,71.2499980974198,10|0,0:0|0:0,0:0:0:0:
185,84,14041,1,8,0:0:0:0:
185,84,14122,1,2,1:2:0:0:
98,56,14284,1,0,1:2:0:0:
36,125,14446,2,0,P|51:164|58:211,1,71.2499980974198,10|0,0:0|0:0,0:0:0:0:
39,283,14770,6,0,P|76:280|119:286,1,71.2499980974198,2|0,1:2|1:2,0:0:0:0:
181,343,15095,2,0,P|232:331|271:320,1,71.2499980974198,10|0,0:0|0:0,0:0:0:0:
323,269,15419,1,2,1:2:0:0:
323,269,15581,1,0,1:2:0:0:
256,204,15743,2,0,P|248:160|257:120,1,71.2499980974198,10|0,0:0|0:0,0:0:0:0:
311,62,16068,6,0,P|367:34|451:62,1,142.49999619484,2|10,1:2|0:0,0:0:0:0:
505,134,16554,1,2,0:0:0:0:
505,134,16635,1,2,0:0:0:0:
505,134,16716,2,0,P|489:169|481:208,1,71.2499980974198,2|0,1:2|1:2,0:0:0:0:
477,293,17041,2,0,P|436:305|396:290,1,71.2499980974198,10|0,0:0|0:0,0:0:0:0:
333,244,17365,6,0,P|283:221|202:248,1,142.49999619484,6|10,1:2|0:0,0:0:0:0:
144,318,17852,1,0,0:0:0:0:
63,272,18014,2,0,P|55:225|45:187,1,71.2499980974198,2|0,1:2|1:2,0:0:0:0:
6,120,18338,2,0,P|9:84|18:49,1,71.2499980974198,10|0,0:0|0:0,0:0:0:0:
107,28,18662,6,0,P|140:17|175:20,1,71.2499980974198,2|0,1:2|1:2,0:0:0:0:
264,49,18987,2,0,P|312:58|343:46,1,71.2499980974198,10|0,0:0|0:0,0:0:0:0:
424,26,19311,1,2,1:2:0:0:
424,26,19473,1,0,1:2:0:0:
495,84,19635,2,0,P|482:124|475:157,1,71.2499980974198,10|0,0:0|0:0,0:0:0:0:
446,253,19960,6,0,P|458:293|466:325,2,71.2499980974198,2|2|10,1:2|1:2|0:0,0:0:0:0:
361,214,20446,1,2,0:0:0:0:
290,274,20608,2,0,L|247:287,3,35.6249990487099,10|8|10|8,0:0|0:0|0:0|0:0,0:0:0:0:
216,310,20933,1,10,0:0:0:0:
139,279,21095,1,2,1:2:0:0:
139,279,21176,1,2,0:0:0:0:
139,279,21257,6,0,P|132:235|122:199,1,71.2499980974198,6|0,1:2|1:2,0:0:0:0:
46,161,21581,2,0,P|53:122|66:85,1,71.2499980974198,10|0,0:0|0:0,0:0:0:0:
137,36,21906,2,0,L|177:28,3,35.6249990487099,0|0|0|0,1:2|1:2|1:2|1:2,0:0:0:0:
210,54,22230,2,0,P|246:55|289:62,1,71.2499980974198,0|10,1:2|0:0,0:0:0:0:
353,7,22554,6,0,P|372:50|382:134,1,120,6|2,1:2|1:2,0:0:0:0:
448,276,23203,2,0,P|390:289|336:266,1,120,2|2,1:2|1:2,0:0:0:0:
266,219,23689,1,2,0:0:0:0:
266,219,23852,2,0,P|226:225|205:233,1,60,2|0,1:2|0:0,0:0:0:0:
135,274,24176,2,0,P|101:265|76:260,1,60,2|0,1:2|0:0,0:0:0:0:
25,193,24500,2,0,P|14:155|16:123,1,60,2|0,1:2|0:0,0:0:0:0:
65,67,24825,2,0,P|95:61|125:60,1,60,0|0,1:2|0:0,0:0:0:0:
196,102,25149,6,0,P|244:118|317:90,1,120,2|2,1:2|1:2,0:0:0:0:
460,28,25797,2,0,P|442:66|423:147,1,120,2|2,1:2|1:2,0:0:0:0:
461,216,26284,1,2,0:0:0:0:
461,216,26446,2,0,P|469:250|472:277,1,60,2|0,1:2|0:0,0:0:0:0:
415,337,26770,2,0,P|376:343|344:333,1,60,2|0,1:2|0:0,0:0:0:0:
289,286,27095,2,0,P|246:293|197:307,2,90,2|8|0,1:2|2:3|1:2,0:0:0:0:
337,217,27743,6,0,P|348:179|322:79,1,120,6|2,1:2|1:2,0:0:0:0:
179,36,28392,2,0,P|124:27|57:67,1,120,2|2,1:2|1:2,0:0:0:0:
14,120,28879,1,2,0:0:0:0:
14,120,29041,2,0,P|24:156|25:189,1,60,2|0,1:2|0:0,0:0:0:0:
85,235,29365,2,0,P|75:261|64:298,1,60,2|0,1:2|0:0,0:0:0:0:
121,354,29689,2,0,P|154:363|196:353,1,60,2|0,1:2|0:0,0:0:0:0:
254,320,30014,2,0,P|301:311|327:317,1,60,0|0,1:2|0:0,0:0:0:0:
385,355,30338,6,0,P|411:292|389:231,1,120,2|2,1:2|1:2,0:0:0:0:
377,162,30825,1,2,0:0:0:0:
377,162,30987,2,0,P|329:150|247:137,1,120,2|2,1:2|1:2,0:0:0:0:
97,183,31635,2,0,P|107:218|112:244,1,60,2|0,1:2|0:0,0:0:0:0:
139,320,31960,2,0,P|173:327|212:318,1,60,0|0,1:2|0:0,0:0:0:0:
232,298,32203,1,8,0:0:0:0:
232,298,32284,2,0,P|267:287|294:294,1,60,0|8,1:2|0:0,0:0:0:0:
361,334,32608,2,0,P|389:342|419:337,1,60,0|8,1:2|0:0,0:0:0:0:
488,273,32933,6,0,P|493:239|499:203,1,67.4999979400635,6|0,1:2|0:0,0:0:0:0:
429,141,33257,2,0,P|390:132|354:141,1,67.4999979400635,10|0,0:0|0:0,0:0:0:0:
277,176,33581,2,0,P|223:202|131:177,1,134.999995880127,2|2,1:2|1:2,0:0:0:0:
67,145,34068,1,10,0:0:0:0:
67,145,34230,2,0,P|56:114|59:81,1,67.4999979400635,2|0,1:2|1:2,0:0:0:0:
136,27,34554,2,0,P|186:19|220:19,1,67.4999979400635,10|0,0:0|0:0,0:0:0:0:
289,57,34879,2,0,P|328:61|362:68,1,67.4999979400635,2|0,1:2|1:2,0:0:0:0:
443,32,35203,1,10,0:0:0:0:
501,211,35527,6,0,P|491:247|484:284,1,67.4999979400635,2|0,1:2|1:2,0:0:0:0:
422,348,35852,2,0,P|376:362|330:345,1,67.4999979400635,10|0,0:0|0:0,0:0:0:0:
277,309,36176,2,0,B|231:302|231:302|206:322|206:322|136:314,1,134.999995880127,2|2,1:2|0:0,0:0:0:0:
57,332,36662,1,10,0:0:0:0:
57,332,36825,2,0,P|44:290|51:255,1,67.4999979400635,2|0,1:2|1:2,0:0:0:0:
93,185,37149,2,0,P|98:147|82:103,1,67.4999979400635,10|0,0:0|0:0,0:0:0:0:
43,37,37473,2,0,P|81:24|121:30,1,67.4999979400635,2|0,1:2|1:2,0:0:0:0:
196,57,37797,1,10,0:0:0:0:
378,5,38122,6,0,P|365:37|356:72,1,67.4999979400635,2|0,1:2|1:2,0:0:0:0:
272,112,38446,2,0,P|282:145|286:180,1,67.4999979400635,10|0,0:0|0:0,0:0:0:0:
240,260,38770,2,0,P|275:302|366:294,1,134.999995880127,2|2,1:2|0:0,0:0:0:0:
441,276,39257,1,8,0:0:0:0:
441,276,39419,2,0,P|451:238|464:206,1,67.4999979400635,2|0,1:2|1:2,0:0:0:0:
412,131,39743,1,10,0:0:0:0:
319,45,40068,2,0,P|274:28|204:47,1,104.999996795654,2|2,0:0|0:0,0:0:0:0:
43,121,40716,6,0,P|57:156|67:195,1,75,6|0,1:2|0:0,0:0:0:0:
133,252,41041,2,0,P|121:297|117:333,1,75,10|0,0:0|0:0,0:0:0:0:
196,367,41365,1,2,1:2:0:0:
196,367,41527,1,0,1:2:0:0:
264,309,41689,2,0,P|302:298|345:308,1,75,8|0,0:0|0:0,0:0:0:0:
413,351,42014,6,0,P|421:313|435:275,1,75,0|0,1:2|1:2,0:0:0:0:
491,210,42338,2,0,P|479:166|470:127,1,75,8|0,0:0|0:0,0:0:0:0:
426,59,42662,1,2,1:2:0:0:
426,59,42825,1,0,1:2:0:0:
352,110,42987,2,0,P|307:115|271:104,1,75,8|0,0:0|0:0,0:0:0:0:
202,59,43311,6,0,P|162:52|127:59,1,75,10|0,0:0|1:2,0:0:0:0:
56,111,43635,2,0,P|71:148|79:184,1,75,8|0,0:0|1:2,0:0:0:0:
145,242,43960,2,0,P|136:288|131:321,1,75,10|0,0:0|1:2,0:0:0:0:
206,365,44284,1,10,0:0:0:0:
206,365,44446,1,0,1:2:0:0:
277,309,44608,6,0,P|326:298|363:308,1,75,10|0,0:0|1:2,0:0:0:0:
427,348,44933,2,0,L|438:311,3,37.5,10|8|8|8,0:0|0:0|0:0|0:0,0:0:0:0:
455,270,45257,2,0,L|443:218,3,37.5,10|8|8|8,1:2|0:0|0:0|0:0,0:0:0:0:
418,198,45581,2,0,L|426:155,3,37.5,8|8|8|8,1:2|0:0|0:0|0:0,0:0:0:0:
396,125,45906,2,0,P|377:122|357:125,3,37.5,2|2|2|2,0:0|0:0|0:0|0:0,0:0:0:0:
316,138,46230,2,0,P|266:144|224:126,1,75,2|0,0:0|1:2,0:0:0:0:
201,121,46473,5,0,1:2:0:0:
201,121,46554,2,0,P|155:106|109:119,1,78.7499975967408,6|0,1:2|0:0,0:0:0:0:
42,155,46878,2,0,P|58:197|70:241,1,78.7499975967408,10|0,0:0|0:0,0:0:0:0:
52,322,47202,1,2,1:2:0:0:
52,322,47364,1,0,1:2:0:0:
136,365,47526,2,0,P|181:358|225:352,1,78.7499975967408,10|0,0:0|0:0,0:0:0:0:
287,292,47851,6,0,P|305:218|267:151,1,157.499995193482,2|8,1:2|0:0,0:0:0:0:
206,86,48337,1,0,0:0:0:0:
206,86,48499,2,0,P|245:62|281:61,1,78.7499975967408,2|0,1:2|1:2,0:0:0:0:
353,114,48824,2,0,P|391:123|428:110,1,78.7499975967408,10|0,0:0|0:0,0:0:0:0:
496,45,49148,6,0,P|505:82|512:122,1,78.7499975967408,2|0,1:2|1:2,0:0:0:0:
455,197,49472,2,0,P|445:236|440:280,1,78.7499975967408,10|0,0:0|0:0,0:0:0:0:
420,317,49716,1,8,0:0:0:0:
420,317,49797,2,0,P|375:329|321:314,1,78.7499975967408,2|0,1:2|1:2,0:0:0:0:
264,272,50121,2,0,P|269:220|283:175,1,78.7499975967408,10|0,0:0|0:0,0:0:0:0:
318,110,50445,5,2,1:2:0:0:
318,110,50608,1,0,1:2:0:0:
241,55,50770,2,0,P|196:46|158:61,1,78.7499975967408,8|0,0:0|0:0,0:0:0:0:
123,76,51013,1,8,0:0:0:0:
123,76,51094,2,0,P|133:113|138:155,1,78.7499975967408,0|0,1:2|1:2,0:0:0:0:
74,211,51418,2,0,P|58:252|64:294,1,78.7499975967408,10|0,0:0|0:0,0:0:0:0:
129,351,51743,6,0,P|170:361|207:348,1,78.7499975967408,6|0,1:2|1:2,0:0:0:0:
273,286,52067,2,0,P|319:274|354:286,1,78.7499975967408,10|0,0:0|0:0,0:0:0:0:
383,320,52310,1,8,0:0:0:0:
383,320,52391,2,0,P|418:335|457:329,1,78.7499975967408,2|0,1:2|1:2,0:0:0:0:
501,244,52716,2,0,P|509:198|494:158,1,78.7499975967408,10|0,0:0|0:0,0:0:0:0:
433,100,53040,6,0,P|360:77|290:108,1,157.499995193482,2|8,1:2|0:0,0:0:0:0:
243,194,53526,1,2,0:0:0:0:
243,194,53608,1,8,0:0:0:0:
243,194,53689,2,0,P|195:208|157:203,1,78.7499975967408,2|0,1:2|1:2,0:0:0:0:
85,162,54013,2,0,P|76:122|60:73,1,78.7499975967408,10|0,0:0|0:0,0:0:0:0:
136,24,54337,5,2,1:2:0:0:
136,24,54499,1,0,1:2:0:0:
222,64,54662,2,0,P|273:72|317:59,1,78.7499975967408,10|0,0:0|0:0,0:0:0:0:
339,40,54905,1,8,0:0:0:0:
339,40,54986,1,2,1:2:0:0:
424,0,55148,1,0,1:2:0:0:
480,76,55310,2,0,P|468:117|461:159,1,78.7499975967408,10|0,0:0|0:0,0:0:0:0:
380,202,55635,6,0,P|393:244|401:284,1,78.7499975967408,2|0,1:2|1:2,0:0:0:0:
334,354,55959,2,0,P|291:360|251:337,1,78.7499975967408,10|0,0:0|0:0,0:0:0:0:
180,294,56283,1,8,0:0:0:0:
180,294,56364,2,0,B|195:250|206:209|206:208,1,78.7499975967408,8|8,0:0|0:0,0:0:0:0:
232,181,56608,2,0,B|224:138|212:93,1,78.7499975967408,2|0,1:2|1:2,0:0:0:0:
138,48,56932,6,0,P|97:38|55:46,1,78.7499975967408,6|0,1:2|0:0,0:0:0:0:
0,114,57256,2,0,P|15:151|26:188,1,78.7499975967408,10|0,0:0|0:0,0:0:0:0:
97,258,57581,1,2,1:2:0:0:
97,258,57743,1,0,1:2:0:0:
54,341,57905,2,0,P|93:349|130:341,1,78.7499975967408,10|0,0:0|0:0,0:0:0:0:
210,290,58229,5,2,1:2:0:0:
210,290,58391,1,0,1:2:0:0:
289,340,58553,2,0,P|336:345|372:328,1,78.7499975967408,8|0,0:0|0:0,0:0:0:0:
435,270,58878,2,0,P|428:229|414:187,1,78.7499975967408,2|0,1:2|1:2,0:0:0:0:
472,117,59202,2,0,P|487:70|504:33,1,78.7499975967408,10|0,0:0|0:0,0:0:0:0:
411,7,59526,6,0,P|368:-4|331:7,1,78.7499975967408,2|0,1:2|1:2,0:0:0:0:
252,50,59851,1,10,0:0:0:0:
252,50,60013,1,0,0:0:0:0:
297,132,60175,2,0,P|283:176|276:219,1,78.7499975967408,2|0,1:2|1:2,0:0:0:0:
209,274,60499,2,0,P|224:321|229:357,1,78.7499975967408,10|0,0:0|0:0,0:0:0:0:
138,381,60824,5,2,1:2:0:0:
138,381,60986,1,0,1:2:0:0:
54,336,61148,2,0,P|43:293|27:251,1,78.7499975967408,10|0,0:0|0:0,0:0:0:0:
87,185,61472,1,2,1:2:0:0:
87,185,61635,1,0,1:2:0:0:
15,123,61797,2,0,P|12:82|29:46,1,78.7499975967408,8|0,0:0|0:0,0:0:0:0:
118,23,62121,6,0,P|178:14|218:11,1,78.7499975967408,14|0,0:0|1:2,0:0:0:0:
278,58,62445,2,0,P|322:69|363:58,1,78.7499975967408,10|0,0:0|1:2,0:0:0:0:
429,4,62770,2,0,P|448:43|445:79,1,78.7499975967408,10|0,0:0|1:2,0:0:0:0:
501,159,63094,1,10,0:0:0:0:
501,159,63256,1,0,1:2:0:0:
424,215,63418,6,0,P|412:256|419:292,1,78.7499975967408,10|0,0:0|1:2,0:0:0:0:
462,374,63743,2,0,P|422:384|383:370,1,78.7499975967408,8|0,0:0|1:2,0:0:0:0:
310,318,64067,2,0,P|270:308|229:321,1,78.7499975967408,10|0,0:0|1:2,0:0:0:0:
151,357,64391,1,10,0:0:0:0:
151,357,64553,1,0,1:2:0:0:
68,309,64716,6,0,P|76:249|85:210,1,78.7499975967408,14|0,0:0|1:2,0:0:0:0:
135,154,65040,2,0,P|129:109|120:70,1,78.7499975967408,10|0,0:0|1:2,0:0:0:0:
198,21,65364,2,0,P|245:8|283:14,1,78.7499975967408,10|0,0:0|1:2,0:0:0:0:
350,68,65689,1,10,0:0:0:0:
350,68,65851,1,0,1:2:0:0:
429,17,66013,6,0,P|441:55|451:98,1,78.7499975967408,10|0,0:0|1:2,0:0:0:0:
490,177,66337,2,0,P|475:223|466:263,1,78.7499975967408,8|0,0:0|1:2,0:0:0:0:
426,338,66662,2,0,P|384:348|330:333,1,78.7499975967408,10|0,0:0|1:2,0:0:0:0:
268,294,66986,1,8,0:0:0:0:
268,294,67148,1,0,1:2:0:0:
333,225,67310,6,0,B|376:188|376:188|353:49,1,179.999994506836,6|10,1:2|2:3,0:0:0:0:
356,66,68608,6,0,B|313:38|264:60|293:74|245:110|189:77,1,179.999994506836,6|2,1:2|0:0,0:0:0:0:
189,77,69905,6,0,P|142:52|82:69,1,104.999996795654,6|2,1:2|0:0,0:0:0:0:
0,146,70553,2,0,P|12:184|24:251,1,104.999996795654,6|2,1:2|0:0,0:0:0:0:
105,345,71202,6,0,P|147:351|194:334,1,78.7499975967408,14|0,0:0|1:2,0:0:0:0:
256,283,71526,1,10,0:0:0:0:
256,283,71689,1,0,1:2:0:0:
326,346,71851,1,4,0:0:0:0:
326,346,72499,6,0,P|395:358|456:322,1,142.49999619484,6|10,1:2|0:0,0:0:0:0:
489,236,72986,1,0,0:0:0:0:
412,183,73148,2,0,P|423:138|434:100,1,71.2499980974198,2|0,1:2|1:2,0:0:0:0:
349,67,73472,2,0,P|312:51|277:59,1,71.2499980974198,10|0,0:0|0:0,0:0:0:0:
205,108,73797,6,0,P|169:112|135:102,1,71.2499980974198,0|0,1:2|1:2,0:0:0:0:
47,74,74121,2,0,P|39:108|45:143,1,71.2499980974198,10|0,0:0|0:0,0:0:0:0:
72,187,74365,1,8,0:0:0:0:
72,187,74446,1,2,1:2:0:0:
26,267,74608,1,0,1:2:0:0:
73,346,74770,2,0,P|107:338|140:325,1,71.2499980974198,10|0,0:0|0:0,0:0:0:0:
215,270,75094,6,0,P|252:267|295:273,1,71.2499980974198,6|0,1:2|1:2,0:0:0:0:
347,340,75419,2,0,P|398:328|437:317,1,71.2499980974198,10|0,0:0|0:0,0:0:0:0:
493,270,75743,1,2,1:2:0:0:
493,270,75905,1,0,1:2:0:0:
434,198,76067,2,0,P|426:154|435:114,1,71.2499980974198,10|0,0:0|0:0,0:0:0:0:
469,43,76392,6,0,P|402:22|338:51,1,142.49999619484,2|10,1:2|0:0,0:0:0:0:
265,103,76878,1,2,0:0:0:0:
265,103,76959,1,2,0:0:0:0:
265,103,77040,2,0,P|281:138|289:177,1,71.2499980974198,2|0,1:2|1:2,0:0:0:0:
334,249,77364,2,0,P|317:285|308:321,1,71.2499980974198,8|0,0:0|0:0,0:0:0:0:
223,352,77689,6,0,P|173:375|92:348,1,142.49999619484,6|10,1:2|0:0,0:0:0:0:
21,290,78175,1,0,0:0:0:0:
82,221,78337,2,0,P|74:171|66:128,1,71.2499980974198,2|0,1:2|1:2,0:0:0:0:
130,79,78662,2,0,P|171:64|215:68,1,71.2499980974198,10|0,0:0|0:0,0:0:0:0:
281,103,78986,6,0,P|329:107|364:97,1,71.2499980974198,0|0,1:2|1:2,0:0:0:0:
437,69,79310,2,0,P|447:109|454:143,1,71.2499980974198,10|0,0:0|0:0,0:0:0:0:
499,219,79635,1,2,1:2:0:0:
499,219,79797,1,0,1:2:0:0:
440,290,79959,2,0,P|401:298|364:287,1,71.2499980974198,10|0,0:0|0:0,0:0:0:0:
281,265,80283,6,0,P|238:255|201:264,1,71.2499980974198,6|0,1:2|1:2,0:0:0:0:
137,315,80608,2,0,P|76:321|51:310,1,71.2499980974198,10|0,0:0|0:0,0:0:0:0:
23,236,80932,2,0,L|19:187,3,35.6249990487099,10|8|8|8,0:0|0:0|0:0|0:0,0:0:0:0:
45,161,81256,2,0,P|46:119|39:83,1,71.2499980974198,8|0,0:0|1:2,0:0:0:0:
115,34,81581,5,6,1:2:0:0:
196,75,81743,2,0,P|231:83|265:74,1,71.2499980974198,2|8,1:2|0:0,0:0:0:0:
343,24,82067,1,2,0:0:0:0:
419,75,82229,2,0,L|412:116,3,35.6249990487099,2|2|2|2,1:2|0:0|1:2|0:0,0:0:0:0:
437,149,82553,2,0,L|444:190,3,35.6249990487099,10|2|2|2,0:0|0:0|0:0|0:0,0:0:0:0:
470,222,82878,6,0,P|492:272|453:358,1,142.49999619484,6|10,1:2|0:0,0:0:0:0:
377,329,83364,1,8,0:0:0:0:
377,329,83445,1,8,0:0:0:0:
377,329,83526,2,0,P|337:326|291:335,1,71.2499980974198,2|0,1:2|1:2,0:0:0:0:
217,358,83851,2,0,P|177:364|143:356,1,71.2499980974198,10|0,0:0|0:0,0:0:0:0:
81,292,84175,6,0,P|74:255|87:216,1,71.2499980974198,2|0,1:2|1:2,0:0:0:0:
149,159,84499,1,10,0:0:0:0:
149,159,84662,1,0,0:0:0:0:
226,209,84824,2,0,P|261:209|299:212,1,71.2499980974198,2|2,1:2|1:2,0:0:0:0:
383,163,85148,1,10,0:0:0:0:
383,163,85310,1,2,0:0:0:0:
464,207,85472,6,0,P|476:170|471:137,1,71.2499980974198,6|0,1:2|1:2,0:0:0:0:
412,66,85797,2,0,P|378:54|343:57,1,71.2499980974198,10|0,0:0|0:0,0:0:0:0:
257,83,86121,1,2,1:2:0:0:
257,83,86283,1,0,1:2:0:0:
167,58,86445,2,0,P|132:50|94:60,1,71.2499980974198,10|0,0:0|0:0,0:0:0:0:
29,120,86770,6,0,B|-3:158|-3:158|32:269,1,142.49999619484,2|8,1:2|0:0,0:0:0:0:
113,298,87256,1,2,0:0:0:0:
113,298,87337,1,2,0:0:0:0:
113,298,87418,2,0,P|146:308|187:303,1,71.2499980974198,2|0,1:2|1:2,0:0:0:0:
264,260,87743,2,0,P|306:249|346:258,1,71.2499980974198,8|0,0:0|0:0,0:0:0:0:
411,301,88067,6,0,P|420:263|431:227,1,71.2499980974198,14|0,0:0|1:2,0:0:0:0:
394,146,88391,2,0,P|386:99|374:61,1,71.2499980974198,10|0,0:0|1:2,0:0:0:0:
294,38,88716,2,0,P|261:30|209:44,1,71.2499980974198,10|0,0:0|1:2,0:0:0:0:
148,85,89040,1,10,0:0:0:0:
148,85,89202,1,0,1:2:0:0:
55,79,89364,6,0,P|71:113|81:154,1,71.2499980974198,14|0,0:0|1:2,0:0:0:0:
74,238,89689,2,0,P|61:277|51:310,1,71.2499980974198,10|0,0:0|1:2,0:0:0:0:
128,358,90013,2,0,P|165:370|204:359,1,71.2499980974198,10|0,0:0|1:2,0:0:0:0:
282,326,90337,1,10,0:0:0:0:
282,326,90499,1,0,1:2:0:0:
365,367,90662,6,0,P|399:373|432:361,1,71.2499980974198,12|2,0:0|1:2,0:0:0:0:
494,291,90986,1,2,1:2:0:0:
445,211,91148,2,0,P|437:176|445:141,1,71.2499980974198,8|2,0:0|1:2,0:0:0:0:
492,62,91472,1,2,1:2:0:0:
415,9,91635,1,8,2:3:0:0:
348,72,91797,1,2,0:0:0:0:
348,72,91878,1,2,0:0:0:0:
348,72,91959,1,6,1:2:0:0:
256,192,92040,12,0,97716,0:0:0:0:
