osu file format v14

[General]
AudioFilename: audio.mp3
AudioLeadIn: 0
PreviewTime: 191392
Countdown: 0
SampleSet: Soft
StackLeniency: 0.6
Mode: 0
LetterboxInBreaks: 0
EpilepsyWarning: 1
WidescreenStoryboard: 1

[Editor]
Bookmarks: 12124,46502,82825,128230
DistanceSpacing: 0.8
BeatDivisor: 12
GridSize: 16
TimelineZoom: 1.9

[Metadata]
Title:Ao to Natsu
TitleUnicode:青と夏
Artist:Mrs. GREEN APPLE
ArtistUnicode:Mrs. GREEN APPLE
Creator:Haruto
Version:Ipas' Insane
Source:青夏 きみに恋した30日
Tags:haruto_aizawa ipas newipas kujinn reform s2vx osuuki niseboi giraffle music blue and summer days in love with you ost original soundtrack ao natsu: kimi ni koi shita thirty nichi ミセスグリーンアップル motoki omori 大森元貴 hiroto wakai 若井滉斗 ayaka yamanaka 山中綾華 ryoka fujisawa 藤澤涼架 kiyokatsu takano 髙野清宗
BeatmapID:1731489
BeatmapSetID:824592

[Difficulty]
HPDrainRate:6
CircleSize:4
OverallDifficulty:8
ApproachRate:9
SliderMultiplier:1.6
SliderTickRate:1

[Events]
//Background and Video events
0,0,"aotonatsubg.jpg",0,0
//Break Periods
2,192031,194392
//Storyboard Layer 0 (Background)
//Storyboard Layer 1 (Fail)
//Storyboard Layer 2 (Pass)
//Storyboard Layer 3 (Foreground)
//Storyboard Sound Samples

[TimingPoints]
1779,324.324324324324,4,2,1,70,1,0
1779,-133.333333333333,4,2,1,70,0,0
5022,-133.333333333333,4,2,9,70,0,0
5184,-133.333333333333,4,2,1,70,0,0
6319,-133.333333333333,4,2,9,70,0,0
6481,-133.333333333333,4,2,1,70,0,0
7616,-133.333333333333,4,2,9,70,0,0
7697,-133.333333333333,4,2,1,70,0,0
8914,-133.333333333333,4,2,9,70,0,0
9076,-133.333333333333,4,2,1,70,0,0
10860,-100,4,3,0,70,0,0
11508,-100,4,2,1,70,0,0
20427,-100,4,3,0,70,0,0
20914,-100,4,2,1,70,0,0
22535,-125,4,2,1,70,0,0
24968,-125,4,1,2,70,0,0
25130,-125,4,2,1,70,0,0
32914,-111.111111111111,4,2,1,70,0,0
36481,-111.111111111111,4,2,2,70,0,0
36643,-111.111111111111,4,2,1,70,0,0
38103,-111.111111111111,4,2,1,70,0,0
40049,-111.111111111111,4,2,1,35,0,0
40697,-100,4,2,1,70,0,0
44833,-100,4,3,0,70,0,0
45887,-100,4,2,1,70,0,0
46534,324.324324324324,4,2,9,70,1,1
46534,-90.9090909090909,4,2,9,70,0,1
46615,-90.9090909090909,4,2,1,70,0,1
55615,-80,4,2,1,70,0,1
55858,-80,4,2,1,40,0,1
55939,-80,4,2,1,70,0,1
56182,-80,4,2,1,40,0,1
56263,-80,4,2,1,70,0,1
56588,-80,4,2,0,70,0,1
56750,-80,4,2,1,70,0,1
56912,-90.9090909090909,4,2,1,70,0,1
63398,-80,4,2,1,70,0,1
67290,-111.111111111111,4,2,1,70,0,0
67939,-111.111111111111,4,2,9,70,0,0
69236,-111.111111111111,4,2,9,70,0,0
69885,-111.111111111111,4,2,1,70,0,0
72479,-100,4,2,1,70,0,0
82858,-142.857142857143,4,2,1,70,0,0
92263,-125,4,2,1,70,0,0
93236,-111.111111111111,4,2,1,70,0,0
103615,-117.647058823529,4,2,1,70,0,0
113993,-111.111111111111,4,2,1,70,0,0
124371,-100,4,2,1,70,0,0
125669,-86.9565217391304,4,2,1,70,0,0
128263,-90.9090909090909,4,2,1,70,0,1
137344,-80,4,2,1,70,0,1
137588,-80,4,2,1,40,0,1
137669,-80,4,2,1,70,0,1
137912,-80,4,2,1,40,0,1
137993,-80,4,2,1,70,0,1
138317,-80,4,1,0,70,0,1
138642,-90.9090909090909,4,2,1,70,0,1
143831,-80,4,2,1,70,0,1
147723,-166.666666666667,4,2,1,70,0,0
151615,-142.857142857143,4,2,1,70,0,0
152263,-111.111111111111,4,2,1,70,0,0
152912,-142.857142857143,4,2,1,70,0,0
158101,-166.666666666667,4,2,1,70,0,0
178858,-100,4,2,1,70,0,0
195723,-166.666666666667,4,2,1,70,0,0
202209,-125,4,2,1,70,0,0
207398,-80,4,2,1,70,0,1
211290,-90.9090909090909,4,2,1,70,0,0
212101,-90.9090909090909,4,3,0,70,0,0
212588,-90.9090909090909,4,2,1,70,0,1
221669,-80,4,2,1,70,0,1
221912,-80,4,2,1,40,0,1
221993,-80,4,2,1,70,0,1
222236,-80,4,2,1,40,0,1
222317,-80,4,2,1,70,0,1
222561,-80,4,2,1,40,0,1
222642,-80,4,2,1,70,0,1
222885,-80,4,2,1,40,0,1
222966,-90.9090909090909,4,2,1,70,0,1
228155,-80,4,2,1,70,0,1
233344,-111.111111111111,4,2,1,70,0,0
238533,-125,4,2,1,70,0,0
243723,-100,4,2,1,70,0,0
252155,-100,4,3,0,70,0,0
252479,-100,4,2,1,70,0,0
259290,-86.9565217391304,4,2,1,70,0,0
268939,-86.9565217391304,4,2,1,5,0,0

[Colours]
Combo1 : 190,86,88
Combo2 : 192,192,192
Combo3 : 133,133,133
Combo4 : 253,77,81
Combo5 : 217,200,81
Combo6 : 111,158,230
Combo7 : 199,192,150

[HitObjects]
424,128,1616,5,8,0:0:0:0:
424,128,1697,1,8,0:0:0:0:
424,128,1779,2,0,P|408:188|400:252,1,120.000004577637,2|2,3:1|3:1,0:0:0:0:
320,284,2265,1,2,3:1:0:0:
456,312,2427,2,0,P|476:296|508:280,1,60.0000022888184,2|2,3:1|3:1,0:0:0:0:
376,356,2751,2,0,P|347:365|317:369,1,60.0000022888184,2|2,3:1|3:1,0:0:0:0:
132,284,3076,6,0,P|191:286|239:319,1,120.000004577637,10|2,0:0|1:2,0:0:0:0:
64,340,3562,1,8,0:0:0:0:
104,200,3724,2,0,L|115:258,1,60.0000022888184,2|0,0:0|0:0,0:0:0:0:
92,72,4049,1,8,0:0:0:0:
12,204,4211,1,0,0:0:0:0:
164,120,4373,86,0,B|180:88|180:88|164:4,1,120.000004577637,12|0,0:0|0:0,0:0:0:0:
236,172,4860,1,2,3:1:0:0:
216,300,5022,2,0,B|200:268|200:268|215:185,1,120.000004577637,2|2,1:2|3:1,0:0:0:0:
164,360,5508,6,0,P|220:339|279:346,1,120.000004577637,2|2,0:0|3:2,0:0:0:0:
348,240,5995,2,0,L|360:300,1,60.0000022888184,0|10,3:2|0:0,0:0:0:0:
392,96,6319,1,2,0:0:0:0:
464,144,6481,2,0,P|440:164|412:180,1,60.0000022888184,6|2,0:0|0:1,0:0:0:0:
308,76,6806,1,4,0:0:0:0:
432,256,6968,86,0,P|394:209|338:192,1,120.000004577637,12|0,0:0|0:0,0:0:0:0:
172,232,7454,1,2,3:1:0:0:
236,288,7616,2,0,L|296:268,1,60.0000022888184,2|8,0:0|0:0,0:0:0:0:
395,173,7941,2,0,L|335:193,1,60.0000022888184,2|0,3:1|0:0,0:0:0:0:
145,115,8265,6,0,P|160:172|171:231,1,120.000004577637,8|2,0:0|3:2,0:0:0:0:
72,48,8751,1,10,0:0:0:0:
236,92,8914,2,0,L|244:32,1,60.0000022888184,2|2,3:2|3:1,0:0:0:0:
171,231,9238,1,10,0:0:0:0:
24,132,9400,1,0,0:0:0:0:
72,320,9562,86,0,L|84:196,1,120.000004577637,4|4,0:0|3:0,0:0:0:0:
232,172,10049,1,2,0:1:0:0:
139,68,10211,1,2,0:0:0:0:
220,196,10373,1,0,0:0:0:0:
243,32,10535,2,0,L|235:91,1,60.0000022888184,12|0,0:0|0:0,0:0:0:0:
232,296,10860,5,0,0:0:0:0:
260,276,10941,1,0,0:0:0:0:
292,268,11022,1,0,0:0:0:0:
324,272,11103,1,0,0:0:0:0:
352,284,11184,2,0,P|392:296|432:296,1,80,0|0,0:0|0:0,0:0:0:0:
344,192,11508,85,8,0:0:0:0:
296,348,11670,1,2,3:1:0:0:
432,216,11833,1,4,0:3:0:0:
212,296,11995,1,2,3:1:0:0:
135,268,12157,6,0,B|191:276|191:276|235:260|235:260|291:267,2,160,4|8|0,0:0|0:0|3:1,0:0:0:0:
176,184,12968,1,0,3:0:0:0:
48,236,13130,2,0,P|56:276|56:316,1,80,8|0,0:0|0:0,0:0:0:0:
183,104,13454,86,0,L|175:184,1,80,2|0,0:0|0:0,0:0:0:0:
8,128,13778,2,0,P|48:120|88:116,1,80,10|0,0:0|3:0,0:0:0:0:
276,172,14103,1,2,3:2:0:0:
276,172,14265,1,0,0:0:0:0:
436,128,14427,2,0,P|396:120|356:116,1,80,10|0,0:0|0:0,0:0:0:0:
188,204,14751,6,0,B|180:244|180:244|191:281,1,80,4|0,0:0|0:0,0:0:0:0:
357,116,15076,2,0,B|365:76|365:76|353:38,1,80,8|0,0:0|0:0,0:0:0:0:
160,104,15400,2,0,L|176:184,1,80,2|0,0:0|0:0,0:0:0:0:
344,214,15724,2,0,L|360:136,1,80,8|0,0:0|0:0,0:0:0:0:
256,324,16049,85,0,3:0:0:0:
256,324,16211,1,0,3:0:0:0:
104,280,16373,2,0,P|144:272|184:272,1,80,8|2,0:0|0:0,0:0:0:0:
272,240,16697,1,2,3:2:0:0:
152,356,16860,1,0,3:0:0:0:
124,184,17022,2,0,P|156:164|196:152,1,80,10|0,0:0|3:0,0:0:0:0:
384,168,17346,6,0,P|380:248|384:328,2,160,4|8|0,0:0|0:0|3:1,0:0:0:0:
464,252,18157,1,0,3:1:0:0:
303,374,18319,2,0,P|297:334|288:296,1,80,8|2,0:0|0:0,0:0:0:0:
84,256,18643,86,0,B|124:264|124:264|164:260,1,80,2|0,0:0|0:0,0:0:0:0:
328,216,18968,2,0,B|288:208|288:208|248:212,1,80,8|0,0:0|0:0,0:0:0:0:
140,152,19292,2,0,L|148:68,1,80,0|0,3:1|3:0,0:0:0:0:
288,296,19616,1,8,0:0:0:0:
288,296,19778,1,0,0:0:0:0:
232,128,19941,5,4,0:0:0:0:
328,216,20103,1,0,3:0:0:0:
320,44,20265,1,8,0:0:0:0:
228,224,20427,1,2,0:2:0:0:
384,132,20589,1,2,0:2:0:0:
208,240,20751,1,0,0:0:0:0:
404,120,20914,1,8,0:0:0:0:
364,340,21076,1,2,0:0:0:0:
356,328,21157,1,2,0:0:0:0:
348,316,21238,86,0,P|340:268|340:236,1,80,6|0,0:0|0:0,0:0:0:0:
176,352,21562,2,0,L|256:344,1,80,12|0,0:0|0:0,0:0:0:0:
132,184,21887,1,8,0:3:0:0:
80,344,22049,1,4,0:3:0:0:
140,160,22211,1,2,3:1:0:0:
108,264,22373,1,0,0:0:0:0:
4,152,22535,6,0,P|16:214|26:277,1,128,6|2,0:0|3:2,0:0:0:0:
276,344,23184,2,0,P|214:355|158:326,1,128,2|2,3:2|3:2,0:0:0:0:
228,264,23670,1,2,0:0:0:0:
300,172,23833,2,0,P|313:234|340:292,1,128,2|2,0:0|3:2,0:0:0:0:
212,68,24481,2,0,P|177:121|155:181,1,128,2|0,3:2|0:1,0:0:0:0:
444,243,25130,86,0,B|404:255|376:247|376:247|368:275|339:292,1,128,2|2,3:2|3:2,0:0:0:0:
53,277,25778,2,0,B|93:289|121:281|121:281|129:309|158:326,1,128,2|2,3:2|3:2,0:0:0:0:
96,208,26265,1,2,0:2:0:0:
184,210,26427,2,0,B|196:254|196:254|167:281|157:325,1,128,2|10,0:0|0:0,0:0:0:0:
46,149,27076,2,0,P|90:132|136:145,2,96,2|2|4,3:1|3:1|0:3,0:0:0:0:
172,76,27724,6,0,L|184:208,1,128,6|2,0:0|3:2,0:0:0:0:
320,352,28373,2,0,L|332:220,1,128,2|2,3:2|3:2,0:0:0:0:
440,156,28860,1,2,0:0:0:0:
456,248,29022,2,0,P|394:230|330:224,1,128,0|2,3:2|0:0,0:0:0:0:
96,296,29670,2,0,B|144:304|144:304|176:300|176:300|224:308,1,128,2|2,3:2|3:2,0:0:0:0:
446,340,30319,86,0,B|398:348|398:348|366:344|366:344|318:352,1,128,2|2,0:0|3:2,0:0:0:0:
330,224,30806,1,0,0:1:0:0:
280,156,30968,2,0,P|248:209|260:271,1,128,2|2,3:2|3:2,0:0:0:0:
376,104,31616,1,2,3:2:0:0:
372,296,31941,6,0,L|468:288,1,96,4|2,0:0|3:1,0:0:0:0:
496,264,32265,1,8,0:0:0:0:
440,196,32427,1,8,0:0:0:0:
292,260,32589,1,2,3:1:0:0:
408,372,32751,1,8,0:0:0:0:
236,188,32914,86,0,P|248:256|252:336,1,143.999995605469,6|10,0:0|0:0,0:0:0:0:
160,144,33400,1,0,0:0:0:0:
292,256,33562,2,0,L|364:244,1,71.9999978027344,2|2,3:2|3:1,0:0:0:0:
160,356,33887,1,2,0:0:0:0:
160,356,34049,1,8,0:0:0:0:
40,220,34211,6,0,P|53:253|62:288,1,71.9999978027344,2|0,0:0|0:0,0:0:0:0:
160,356,34535,2,0,P|168:321|182:287,1,71.9999978027344,10|0,0:0|0:0,0:0:0:0:
327,210,34860,1,2,3:2:0:0:
327,210,35022,1,0,3:2:0:0:
444,324,35184,2,0,L|373:308,1,71.9999978027344,8|0,0:0|0:0,0:0:0:0:
327,210,35508,86,0,P|359:194|384:169,1,71.9999978027344,2|0,3:2|0:0,0:0:0:0:
292,40,35833,2,0,B|304:76|304:76|296:112,1,71.9999978027344,10|0,0:0|0:0,0:0:0:0:
168,212,36157,2,0,B|156:176|156:176|164:140,1,71.9999978027344,2|0,0:0|0:0,0:0:0:0:
108,276,36481,1,2,0:1:0:0:
244,172,36643,1,8,0:0:0:0:
56,96,36806,6,0,P|72:128|82:163,1,71.9999978027344,2|0,0:0|0:1,0:0:0:0:
244,256,37130,2,0,P|228:288|217:323,1,71.9999978027344,10|0,0:0|0:1,0:0:0:0:
320,164,37454,1,2,3:2:0:0:
168,212,37616,1,0,3:2:0:0:
312,356,37778,2,0,P|348:344|384:344,1,71.9999978027344,8|0,0:0|0:0,0:0:0:0:
124,280,38103,86,0,P|88:219|116:152,1,143.999995605469,2|10,3:2|0:0,0:0:0:0:
264,176,38589,1,0,3:2:0:0:
264,176,38751,2,0,L|268:248,1,71.9999978027344,2|0,3:2|0:0,0:0:0:0:
192,128,39076,1,2,0:0:0:0:
340,104,39238,2,0,L|344:176,1,71.9999978027344,8|0,0:0|0:0,0:0:0:0:
268,248,39562,1,0,3:0:0:0:
192,128,39724,1,10,0:0:0:0:
399,273,40049,6,0,P|424:328|363:332,1,143.999995605469,0|0,0:0|0:0,0:0:0:0:
361,330,40697,86,0,P|365:250|381:162,1,160,4|8,0:0|0:0,0:0:0:0:
464,40,41184,1,0,0:0:0:0:
464,180,41346,1,0,3:0:0:0:
352,92,41508,1,0,3:0:0:0:
484,192,41670,2,0,L|476:271,1,80,8|0,0:0|0:0,0:0:0:0:
232,360,41995,5,0,3:0:0:0:
312,320,42157,1,0,3:0:0:0:
136,256,42319,2,0,P|148:292|156:336,1,80,8|0,0:0|0:0,0:0:0:0:
108,128,42643,1,2,3:2:0:0:
52,268,42806,1,0,3:0:0:0:
68,56,42968,2,0,P|124:48|180:88,1,120,8|0,0:0|0:0,0:0:0:0:
192,112,43292,86,0,B|180:148|180:148|188:192,1,80,6|0,0:0|3:0,0:0:0:0:
408,288,43616,1,10,0:0:0:0:
504,260,43778,1,0,3:0:0:0:
308,280,43941,1,10,0:0:0:0:
400,320,44103,1,0,3:0:0:0:
232,184,44265,1,10,0:0:0:0:
272,276,44427,1,0,3:0:0:0:
336,88,44589,6,0,L|344:132,3,40,6|0|0|0,0:0|0:0|0:0|0:0,0:0:0:0:
196,68,44914,2,0,L|204:24,3,40,2|0|0|0,0:2|0:0|0:0|0:0,0:0:0:0:
124,163,45238,1,2,0:2:0:0:
128,195,45319,1,0,0:0:0:0:
132,227,45400,1,0,0:0:0:0:
136,259,45481,1,0,0:0:0:0:
140,291,45562,2,0,P|140:335|136:371,1,80,0|0,0:0|0:0,0:0:0:0:
295,275,45887,85,2,0:0:0:0:
291,235,45968,1,2,0:0:0:0:
287,195,46049,1,2,0:0:0:0:
283,155,46130,1,2,0:0:0:0:
279,115,46211,1,2,0:0:0:0:
140,291,46373,1,4,3:0:0:0:
140,291,46454,1,4,3:0:0:0:
140,291,46534,6,0,P|214:249|295:275,1,176.000005371094,4|10,0:0|0:0,0:0:0:0:
376,144,47020,1,0,0:0:0:0:
212,72,47182,2,0,P|227:113|235:156,1,88.000002685547,2|0,3:2|0:0,0:0:0:0:
48,256,47506,2,0,L|56:164,1,88.000002685547,8|0,0:0|3:0,0:0:0:0:
164,376,47831,86,0,L|148:200,1,176.000005371094,2|10,3:2|0:0,0:0:0:0:
296,56,48317,1,0,0:0:0:0:
156,112,48479,1,2,3:2:0:0:
272,232,48642,1,0,3:0:0:0:
308,24,48804,1,10,0:0:0:0:
288,136,48966,1,0,0:0:0:0:
44,88,49128,6,0,L|132:84,1,88.000002685547,2|0,3:2|3:0,0:0:0:0:
316,112,49452,2,0,L|404:116,1,88.000002685547,10|0,0:0|0:0,0:0:0:0:
216,168,49777,1,2,3:2:0:0:
216,168,49939,1,0,3:0:0:0:
344,312,50101,2,0,P|352:272|344:224,1,88.000002685547,10|0,0:0|3:0,0:0:0:0:
220,48,50425,86,0,L|208:136,1,88.000002685547,2|0,0:0|0:0,0:0:0:0:
208,300,50750,1,8,0:0:0:0:
208,300,50912,1,0,3:0:0:0:
108,100,51074,2,0,L|120:188,1,88.000002685547,2|0,3:2|3:0,0:0:0:0:
208,300,51398,1,10,0:0:0:0:
272,160,51561,1,0,0:0:0:0:
488,240,51723,6,0,B|432:256|432:256|376:244|376:244|317:259,1,176.000005371094,4|8,0:0|0:0,0:0:0:0:
376,332,52209,1,0,3:0:0:0:
272,160,52371,2,0,P|288:200|291:244,1,88.000002685547,2|0,3:2|3:0,0:0:0:0:
288,56,52696,1,10,0:0:0:0:
88,168,52858,1,0,0:0:0:0:
36,91,53020,86,0,P|120:83|177:146,1,176.000005371094,2|8,0:0|0:0,0:0:0:0:
136,308,53506,1,0,0:0:0:0:
244,232,53669,2,0,B|228:272|228:272|236:316,1,88.000002685547,2|0,3:2|3:0,0:0:0:0:
436,164,53993,2,0,P|394:148|351:146,1,88.000002685547,10|0,0:0|0:0,0:0:0:0:
480,248,54317,5,2,3:2:0:0:
480,248,54479,1,0,3:0:0:0:
448,52,54642,2,0,L|360:60,1,88.000002685547,8|0,0:0|3:0,0:0:0:0:
144,128,54966,1,2,3:2:0:0:
144,128,55128,1,0,0:0:0:0:
12,224,55290,2,0,L|100:217,1,88.000002685547,10|0,0:0|0:0,0:0:0:0:
384,236,55615,86,0,P|316:207|250:237,1,150,10|0,0:0|0:0,0:0:0:0:
212,316,55939,2,0,B|288:344|284:288|364:316,1,150,10|0,0:0|0:0,0:0:0:0:
440,304,56263,1,8,0:0:0:0:
440,304,56344,6,0,P|465:267|466:217,1,83.3333333333333,8|8,0:0|3:0,0:0:0:0:
437,158,56588,1,2,0:1:0:0:
340,191,56750,1,4,3:0:0:0:
246,42,56912,86,0,B|226:90|226:90|246:212,1,176.000005371094,6|10,0:0|0:0,0:0:0:0:
80,328,57398,1,0,0:0:0:0:
164,264,57561,2,0,L|176:352,1,88.000002685547,2|0,3:2|0:0,0:0:0:0:
24,152,57885,2,0,L|36:64,1,88.000002685547,8|0,0:0|3:0,0:0:0:0:
362,120,58209,6,0,P|301:178|215:176,1,176.000005371094,2|10,3:2|0:0,0:0:0:0:
264,80,58696,1,0,3:0:0:0:
332,272,58858,2,0,P|367:246|408:229,1,88.000002685547,2|0,3:2|3:0,0:0:0:0:
209,263,59182,2,0,L|215:175,1,88.000002685547,10|0,0:0|0:0,0:0:0:0:
40,36,59506,86,0,B|76:60|76:60|120:56,1,88.000002685547,2|0,3:2|3:0,0:0:0:0:
344,100,59831,2,0,B|308:76|308:76|263:79,1,88.000002685547,8|0,0:2|0:0,0:0:0:0:
214,175,60155,1,10,0:0:0:0:
214,175,60317,1,0,0:0:0:0:
396,322,60479,2,0,P|399:278|396:235,1,88.000002685547,10|0,0:0|0:0,0:0:0:0:
145,346,60804,6,0,B|204:337|204:337|245:305|245:305|309:295,2,176.000005371094,2|8|0,3:2|0:0|3:0,0:0:0:0:
100,80,61615,1,0,3:0:0:0:
160,248,61777,1,10,0:0:0:0:
160,248,62101,85,6,0:0:0:0:
184,44,62263,1,0,3:0:0:0:
236,196,62425,1,10,0:0:0:0:
100,80,62588,1,0,3:0:0:0:
72,240,62750,5,10,0:0:0:0:
172,124,62912,1,0,3:0:0:0:
116,320,63074,1,10,0:0:0:0:
88,160,63236,1,0,3:0:0:0:
228,316,63398,86,0,L|328:304,1,100,10|0,0:0|3:0,0:0:0:0:
468,72,63723,2,0,L|368:84,1,100,8|2,0:0|0:0,0:0:0:0:
88,160,64047,2,0,P|128:192|160:232,1,100,10|0,0:0|3:0,0:0:0:0:
472,156,64371,2,0,P|432:188|400:228,1,100,10|0,0:0|3:0,0:0:0:0:
159,327,64696,6,0,B|147:279|147:279|158:229,1,100,10|0,0:0|3:0,0:0:0:0:
356,36,65020,2,0,B|368:84|368:84|356:133,1,100,10|0,0:0|3:0,0:0:0:0:
65,178,65344,2,0,P|104:147|151:132,1,100,10|0,0:0|3:0,0:0:0:0:
406,305,65669,2,0,P|367:336|320:351,1,100,10|0,0:0|3:0,0:0:0:0:
16,304,65993,86,0,B|126:268|102:340|210:296,1,200,10|10,0:0|0:0,0:0:0:0:
432,164,66479,1,0,0:0:0:0:
248,216,66642,1,2,3:2:0:0:
308,68,66804,1,4,3:0:0:0:
400,264,66966,2,0,P|408:306|366:299,1,100,10|0,0:0|0:0,0:0:0:0:
366,299,67290,6,0,P|436:292|498:326,1,143.999995605469,6|0,0:0|0:0,0:0:0:0:
260,348,67939,1,2,0:0:0:0:
276,220,68263,1,2,0:0:0:0:
176,28,68588,85,4,0:0:0:0:
84,224,68912,1,0,0:0:0:0:
260,348,69236,1,2,0:0:0:0:
408,188,69561,1,0,0:0:0:0:
494,62,69885,6,0,B|476:100|440:112|440:112|392:96|340:120|328:176,1,215.999993408203,4|0,0:0|0:0,0:0:0:0:
428,356,70533,2,0,B|424:300|408:188|408:188|428:236,1,215.999993408203,6|0,0:0|0:0,0:0:0:0:
256,332,71182,1,8,0:0:0:0:
252,244,71344,1,0,0:0:0:0:
328,284,71506,85,8,0:0:0:0:
184,292,71831,1,2,0:0:0:0:
184,292,72479,6,0,L|200:132,2,160,4|8|0,0:0|0:0|3:0,0:0:0:0:
108,208,73290,1,0,3:0:0:0:
284,216,73452,2,0,L|276:296,1,80,8|0,0:0|0:0,0:0:0:0:
20,308,73777,86,0,P|58:296|97:298,1,80,2|0,3:2|3:0,0:0:0:0:
207,212,74101,2,0,L|199:133,1,80,10|0,0:0|0:0,0:0:0:0:
184,292,74425,1,2,3:2:0:0:
184,292,74587,1,0,3:0:0:0:
292,128,74750,2,0,P|280:84|256:60,1,80,10|0,0:0|0:0,0:0:0:0:
28,176,75074,6,0,B|68:184|68:184|106:176,1,80,4|0,0:0|3:0,0:0:0:0:
262,292,75398,2,0,B|222:284|222:284|183:291,1,80,10|0,0:0|0:0,0:0:0:0:
356,260,75723,2,0,L|348:340,1,80,2|0,3:2|0:0,0:0:0:0:
424,120,76047,2,0,L|416:200,1,80,10|0,0:0|0:0,0:0:0:0:
454,39,76371,85,2,0:0:0:0:
454,39,76533,1,0,0:0:0:0:
312,144,76696,2,0,L|232:152,1,80,8|2,0:0|3:2,0:0:0:0:
340,48,77020,1,0,3:0:0:0:
340,48,77182,1,0,3:0:0:0:
136,144,77344,2,0,L|56:152,1,80,8|0,0:0|0:0,0:0:0:0:
236,228,77669,6,0,B|216:180|216:180|236:72,2,160,4|8|2,0:0|0:0|3:2,0:0:0:0:
136,144,78479,1,0,3:0:0:0:
320,252,78642,2,0,P|300:286|269:311,1,80,8|0,0:0|3:0,0:0:0:0:
111,220,78966,86,0,L|135:144,1,80,0|0,0:0|3:0,0:0:0:0:
188,348,79290,2,0,P|151:333|123:305,1,80,10|0,0:0|0:0,0:0:0:0:
40,160,79615,1,2,3:2:0:0:
40,160,79777,1,0,3:0:0:0:
220,136,79939,2,0,B|300:132,1,80,8|0,0:0|3:0,0:0:0:0:
480,248,80263,5,12,3:2:0:0:
452,132,80425,1,0,3:0:0:0:
412,296,80588,1,10,0:0:0:0:
460,104,80750,1,2,0:0:0:0:
400,320,80912,1,0,0:0:0:0:
299,132,81074,1,0,0:0:0:0:
412,204,81236,1,0,0:0:0:0:
216,232,81398,1,2,2:0:0:0:
204,236,81479,1,2,2:0:0:0:
192,240,81561,86,0,P|112:232|32:244,1,160,8|8,0:0|0:3,0:0:0:0:
308,364,82047,2,0,B|280:332|280:332|296:216,1,160,4|4,0:3|0:3,0:0:0:0:
192,328,82533,1,0,3:0:0:0:
192,328,82858,6,0,P|140:316|80:316,2,111.999996582031,6|2|2,0:0|0:0|0:0,0:0:0:0:
440,184,83831,1,8,0:1:0:0:
388,252,83993,1,2,0:0:0:0:
456,307,84155,2,0,P|476:256|460:203,1,111.999996582031,2|2,0:0|0:0,0:0:0:0:
336,324,84804,1,8,0:0:0:0:
336,324,85452,86,0,L|328:212,2,111.999996582031,2|2|8,3:2|0:0|0:1,0:0:0:0:
248,176,86425,1,8,0:1:0:0:
328,112,86588,1,8,0:1:0:0:
240,88,86750,2,0,B|184:72|192:112|128:92,1,111.999996582031,2|2,0:0|0:0,0:0:0:0:
248,176,87398,1,2,0:0:0:0:
438,111,88047,6,0,B|394:107|394:107|366:115|366:115|327:111,2,111.999996582031,6|8|2,0:0|3:1|0:0,0:0:0:0:
244,136,89020,1,8,0:1:0:0:
204,56,89182,1,0,0:0:0:0:
196,200,89344,2,0,L|184:88,1,111.999996582031,2|2,0:0|0:1,0:0:0:0:
132,260,89993,1,10,0:0:0:0:
120,276,90317,1,2,0:0:0:0:
109,291,90642,86,0,B|203:255|183:327|271:291,1,167.999994873047,2|8,3:2|0:1,0:0:0:0:
304,220,91290,2,0,P|274:294|323:358,1,167.999994873047,2|0,0:0|0:0,0:0:0:0:
356,284,91939,1,2,0:0:0:0:
208,172,92263,1,2,0:0:0:0:
208,172,92344,1,2,0:0:0:0:
208,172,92425,1,2,0:0:0:0:
208,172,92506,1,2,0:0:0:0:
208,172,92588,6,0,L|216:136,3,32,8|0|8|0,0:0|3:0|0:0|3:0,0:0:0:0:
104,76,92912,2,0,L|112:112,3,32,8|0|2|0,3:0|3:0|3:2|3:0,0:0:0:0:
144,228,93236,86,0,P|208:199|277:218,1,143.999995605469,4|8,0:0|0:0,0:0:0:0:
320,300,93723,1,0,0:0:0:0:
380,152,93885,2,0,P|372:187|368:222,1,71.9999978027344,0|0,3:0|3:0,0:0:0:0:
452,92,94209,1,2,0:0:0:0:
296,136,94371,1,8,0:0:0:0:
460,268,94533,6,0,L|452:196,1,71.9999978027344,2|0,0:0|3:0,0:0:0:0:
372,80,94858,2,0,L|380:152,1,71.9999978027344,10|0,0:0|0:0,0:0:0:0:
444,24,95182,1,0,3:0:0:0:
444,24,95344,1,0,3:0:0:0:
296,136,95506,2,0,L|304:208,1,71.9999978027344,10|0,0:0|0:0,0:0:0:0:
176,284,95831,86,0,P|216:280|248:280,1,71.9999978027344,2|0,0:0|0:0,0:0:0:0:
392,336,96155,2,0,P|352:340|320:340,1,71.9999978027344,10|0,0:0|3:0,0:0:0:0:
128,352,96479,1,2,0:0:0:0:
100,252,96642,1,0,3:0:0:0:
48,320,96804,1,2,0:0:0:0:
176,284,96966,1,8,0:0:0:0:
88,181,97128,6,0,P|95:216|99:251,1,71.9999978027344,2|0,0:0|0:0,0:0:0:0:
248,352,97452,2,0,P|252:316|259:281,1,71.9999978027344,8|0,0:0|0:0,0:0:0:0:
344,144,97777,1,0,3:0:0:0:
218,201,97939,1,0,3:0:0:0:
361,125,98101,2,0,L|433:127,1,71.9999978027344,2|0,0:0|0:0,0:0:0:0:
264,52,98425,86,0,B|316:56|316:56|356:44|356:44|405:47,1,143.999995605469,2|10,0:0|0:0,0:0:0:0:
224,124,98912,1,0,0:0:0:0:
224,124,99074,2,0,P|188:116|152:112,1,71.9999978027344,2|0,0:0|0:0,0:0:0:0:
72,152,99398,1,2,0:1:0:0:
116,272,99561,2,0,P|132:240|144:204,1,71.9999978027344,8|2,0:0|0:0,0:0:0:0:
72,152,99885,1,0,0:0:0:0:
40,316,100047,1,8,0:0:0:0:
336,344,100371,2,0,B|340:288|320:244|320:244|343:278,1,143.999995605469,0|0,0:0|0:0,0:0:0:0:
343,278,101020,6,0,L|272:272,1,71.9999978027344,6|0,0:0|3:0,0:0:0:0:
116,328,101344,1,10,0:0:0:0:
208,336,101506,1,0,3:0:0:0:
100,236,101669,2,0,P|100:200|104:160,1,71.9999978027344,2|0,3:2|0:0,0:0:0:0:
32,288,101993,1,2,0:1:0:0:
180,200,102155,1,8,0:0:0:0:
20,124,102317,86,0,L|12:200,1,71.9999978027344,2|0,0:0|3:2,0:0:0:0:
180,200,102642,2,0,L|172:124,1,71.9999978027344,4|0,0:0|0:0,0:0:0:0:
160,296,102966,1,8,0:0:0:0:
232,328,103128,1,8,0:3:0:0:
344,276,103290,1,4,0:3:0:0:
500,296,103452,1,0,3:0:0:0:
460,224,103615,6,0,L|452:360,1,136.000002593994,6|2,0:0|0:0,0:0:0:0:
312,348,104101,1,0,3:0:0:0:
344,276,104263,2,0,P|332:244|312:216,1,68.0000012969971,10|0,0:0|0:0,0:0:0:0:
312,348,104588,1,2,3:2:0:0:
232,208,104912,2,0,L|240:72,2,136.000002593994,2|2|10,0:0|3:2|0:0,0:0:0:0:
64,348,105885,1,2,0:0:0:0:
156,320,106047,1,2,0:0:0:0:
40,188,106209,86,0,B|52:220|52:220|44:324,1,136.000002593994,2|2,3:2|0:0,0:0:0:0:
108,128,106696,1,0,3:0:0:0:
176,184,106858,2,0,L|244:176,1,68.0000012969971,10|0,0:0|0:0,0:0:0:0:
108,128,107182,1,2,3:2:0:0:
108,128,107344,1,8,0:0:0:0:
144,264,107506,2,0,P|188:232|268:236,1,136.000002593994,2|0,0:0|3:0,0:0:0:0:
436,316,108155,6,0,L|476:308,1,34.0000006484985,4|0,1:2|0:0,0:0:0:0:
336,368,108398,2,0,L|376:360,1,34.0000006484985,8|0,0:0|0:0,0:0:0:0:
224,352,108642,2,0,L|264:344,1,34.0000006484985,8|0,0:0|0:0,0:0:0:0:
304,260,108804,86,0,L|170:283,1,136.000002593994,6|0,0:0|0:0,0:0:0:0:
100,220,109290,1,2,3:2:0:0:
44,360,109452,2,0,P|75:348|108:340,1,68.0000012969971,10|0,0:0|0:0,0:0:0:0:
234,264,109777,2,0,P|202:275|169:283,1,68.0000012969971,2|0,0:0|3:0,0:0:0:0:
96,152,110101,6,0,L|100:224,1,68.0000012969971,2|0,0:0|0:0,0:0:0:0:
196,96,110425,2,0,L|192:168,1,68.0000012969971,2|0,3:2|0:0,0:0:0:0:
136,24,110750,1,10,0:0:0:0:
324,220,111074,1,2,0:0:0:0:
60,292,111398,86,0,B|108:300|108:300|144:292|144:292|193:299,2,136.000002593994,4|2|6,0:0|0:0|0:0,0:0:0:0:
328,352,112371,2,0,P|324:316|320:280,1,68.0000012969971,2|0,0:0|3:0,0:0:0:0:
388,192,112696,5,2,0:0:0:0:
296,160,112858,1,10,0:0:0:0:
416,205,113020,1,0,3:0:0:0:
336,77,113182,1,2,0:0:0:0:
336,77,113344,1,8,0:0:0:0:
252,240,113506,1,0,0:0:0:0:
160,264,113669,1,8,0:0:0:0:
188,176,113831,1,0,3:0:0:0:
188,176,113912,1,0,3:0:0:0:
188,176,113993,86,0,P|204:248|212:320,1,143.999995605469,4|0,0:0|3:0,0:0:0:0:
136,368,114479,1,2,0:0:0:0:
292,271,114642,2,0,P|299:236|310:202,1,71.9999978027344,2|0,3:2|0:0,0:0:0:0:
211,317,114966,1,2,3:2:0:0:
211,317,115128,1,2,0:0:0:0:
376,296,115290,2,0,L|452:304,1,71.9999978027344,2|0,3:2|0:0,0:0:0:0:
310,202,115615,2,0,B|254:194|254:194|222:178|222:178|170:171,2,143.999995605469,2|0|2,3:2|3:0|0:0,0:0:0:0:
372,128,116425,1,2,3:2:0:0:
431,259,116588,6,0,P|361:250|310:202,1,143.999995605469,2|0,3:2|3:0,0:0:0:0:
372,128,117074,1,2,0:0:0:0:
476,168,117236,2,0,P|468:204|460:240,1,71.9999978027344,2|0,3:2|0:0,0:0:0:0:
456,360,117561,1,2,3:2:0:0:
456,360,117723,1,2,0:0:0:0:
315,267,117885,2,0,L|243:275,1,71.9999978027344,2|0,3:2|0:0,0:0:0:0:
76,328,118209,2,0,P|80:288|88:252,1,71.9999978027344,2|0,3:2|0:0,0:0:0:0:
204,104,118533,85,8,0:0:0:0:
244,275,118696,2,0,L|316:267,1,71.9999978027344,4|0,3:2|0:0,0:0:0:0:
316,268,119182,6,0,B|248:260|256:316|182:308,1,143.999995605469,4|8,0:0|0:0,0:0:0:0:
304,352,119669,1,0,0:0:0:0:
408,224,119831,2,0,P|373:233|341:250,1,71.9999978027344,2|0,3:2|0:0,0:0:0:0:
488,264,120155,2,0,L|496:192,1,71.9999978027344,2|0,3:2|3:0,0:0:0:0:
320,100,120479,86,0,P|385:76|443:114,1,143.999995605469,2|8,3:2|0:0,0:0:0:0:
272,172,120966,1,2,0:0:0:0:
208,100,121128,2,0,L|216:28,1,71.9999978027344,2|0,3:2|3:0,0:0:0:0:
272,172,121452,2,0,B|280:208|280:208|272:244,1,71.9999978027344,12|0,0:0|0:0,0:0:0:0:
64,192,121777,6,0,P|129:168|187:206,1,143.999995605469,12|8,0:0|0:0,0:0:0:0:
212,296,122263,1,0,3:0:0:0:
392,328,122425,1,10,0:0:0:0:
280,364,122588,1,2,3:2:0:0:
420,232,122750,1,10,0:0:0:0:
384,352,122912,1,2,3:2:0:0:
340,140,123074,85,10,0:0:0:0:
292,280,123236,1,0,3:0:0:0:
240,84,123398,2,0,L|232:156,1,71.9999978027344,10|0,0:0|0:0,0:0:0:0:
428,56,123723,1,2,3:1:0:0:
428,92,123804,1,2,3:1:0:0:
408,124,123885,1,2,3:1:0:0:
376,140,123966,1,2,3:1:0:0:
340,140,124047,1,4,3:2:0:0:
340,140,124371,5,12,0:0:0:0:
192,220,124533,2,0,P|152:212|108:212,1,80,0|0,3:0|3:0,0:0:0:0:
276,276,124858,1,12,0:0:0:0:
248,136,125020,1,0,3:0:0:0:
280,304,125182,1,0,3:0:0:0:
244,112,125344,1,12,0:0:0:0:
376,260,125506,1,0,3:0:0:0:
160,304,125669,86,0,L|68:288,1,92.0000017547608,12|0,0:0|0:0,0:0:0:0:
340,140,125993,2,0,L|432:156,1,92.0000017547608,0|0,3:0|3:0,0:0:0:0:
224,80,126317,1,8,0:0:0:0:
232,224,126479,1,8,0:0:0:0:
236,200,126560,1,0,0:0:0:0:
240,180,126642,1,8,0:0:0:0:
160,304,126804,1,0,3:0:0:0:
298,330,126966,5,2,3:2:0:0:
298,330,127615,1,2,0:0:0:0:
364,192,127777,1,2,0:0:0:0:
408,300,127939,1,6,0:0:0:0:
268,184,128101,1,2,0:0:0:0:
256,176,128182,1,0,0:0:0:0:
243,167,128263,86,0,P|168:146|84:200,1,176.000005371094,6|10,0:0|0:0,0:0:0:0:
52,360,128750,1,0,3:0:0:0:
100,224,128912,2,0,P|116:268|116:308,1,88.000002685547,2|0,3:2|0:0,0:0:0:0:
212,88,129236,2,0,L|300:80,1,88.000002685547,10|0,0:0|3:0,0:0:0:0:
460,172,129561,6,0,B|364:148|392:216|290:193,1,176.000005371094,2|8,3:2|0:0,0:0:0:0:
432,264,130047,1,0,3:0:0:0:
328,108,130209,1,2,3:2:0:0:
256,280,130371,1,0,3:0:0:0:
460,172,130533,1,8,0:0:0:0:
460,172,130696,1,0,0:0:0:0:
376,340,130858,86,0,P|372:296|364:252,1,88.000002685547,2|0,3:2|3:0,0:0:0:0:
471,84,131182,2,0,P|463:127|459:171,1,88.000002685547,10|0,0:0|3:0,0:0:0:0:
384,28,131506,1,2,3:2:0:0:
384,28,131669,1,0,3:0:0:0:
200,52,131831,2,0,B|243:40|243:40|286:44,1,88.000002685547,10|0,0:0|0:0,0:0:0:0:
156,220,132155,6,0,P|147:176|144:133,1,88.000002685547,2|0,0:0|0:0,0:0:0:0:
248,268,132479,1,8,0:0:0:0:
248,268,132642,1,2,0:0:0:0:
44,140,132804,2,0,P|58:98|77:58,1,88.000002685547,2|0,3:2|3:0,0:0:0:0:
248,268,133128,1,8,0:0:0:0:
332,156,133290,1,0,0:0:0:0:
152,312,133452,86,0,B|212:320|212:320|260:300|260:300|323:307,1,176.000005371094,2|8,0:0|0:0,0:0:0:0:
400,248,133939,1,0,3:0:0:0:
255,115,134101,2,0,P|289:142|331:155,1,88.000002685547,2|0,3:2|3:0,0:0:0:0:
248,16,134425,1,10,0:0:0:0:
436,176,134588,1,0,0:0:0:0:
468,76,134750,6,0,P|382:86|331:155,1,176.000005371094,2|8,3:2|0:0,0:0:0:0:
492,236,135236,1,2,3:2:0:0:
322,184,135398,2,0,P|315:228|312:272,1,88.000002685547,2|0,0:0|3:0,0:0:0:0:
184,360,135723,2,0,L|272:348,1,88.000002685547,10|0,0:0|3:0,0:0:0:0:
492,236,136047,85,2,3:2:0:0:
492,236,136209,1,0,0:0:0:0:
249,212,136371,2,0,B|273:248|273:248|313:272,1,88.000002685547,10|0,0:0|0:0,0:0:0:0:
368,107,136696,1,2,3:2:0:0:
368,107,136858,1,0,0:0:0:0:
192,120,137020,2,0,P|167:156|150:196,1,88.000002685547,10|0,0:0|0:0,0:0:0:0:
452,88,137344,6,0,P|398:49|369:109,1,150,12|0,0:0|0:0,0:0:0:0:
287,131,137669,2,0,B|359:123|343:175|427:171,1,150,14|0,0:0|0:0,0:0:0:0:
492,236,137993,1,8,0:0:0:0:
492,236,138074,2,0,P|459:240|409:258,1,83.3333333333333,8|8,0:0|0:3,0:0:0:0:
359,317,138317,1,2,2:1:0:0:
256,264,138479,1,0,2:0:0:0:
256,264,138642,86,0,B|280:216|280:216|262:94,1,176.000005371094,4|10,0:0|0:0,0:0:0:0:
240,124,139128,1,0,0:0:0:0:
339,182,139290,2,0,L|427:170,1,88.000002685547,2|0,3:2|0:0,0:0:0:0:
173,251,139615,2,0,B|213:271|213:271|256:264,1,88.000002685547,8|0,0:0|3:2,0:0:0:0:
56,136,139939,6,0,P|72:208|88:312,1,176.000005371094,2|10,3:2|0:0,0:0:0:0:
232,180,140425,1,0,0:0:0:0:
164,60,140588,2,0,P|156:103|152:147,1,88.000002685547,2|0,3:2|3:0,0:0:0:0:
328,288,140912,2,0,P|323:244|316:200,1,88.000002685547,10|0,0:0|0:0,0:0:0:0:
432,28,141236,86,0,L|424:116,1,88.000002685547,2|0,3:2|3:0,0:0:0:0:
239,267,141561,2,0,L|231:179,1,88.000002685547,8|0,0:0|0:0,0:0:0:0:
348,120,141885,1,2,3:2:0:0:
348,120,142047,1,0,3:0:0:0:
172,108,142209,2,0,P|184:64|208:24,1,88.000002685547,8|0,0:0|0:0,0:0:0:0:
448,160,142533,6,0,B|356:132|372:196|277:162,2,176.000005371094,2|8|6,3:2|0:0|0:0,0:0:0:0:
328,84,143344,1,0,3:0:0:0:
408,259,143506,1,8,0:0:0:0:
408,259,143831,86,0,L|416:159,1,100,14|0,0:0|3:0,0:0:0:0:
136,339,144155,2,0,L|128:239,1,100,10|0,0:0|3:0,0:0:0:0:
440,259,144479,2,0,L|448:159,1,100,10|0,0:0|3:0,0:0:0:0:
104,339,144803,2,0,L|96:239,1,100,10|0,0:0|3:0,0:0:0:0:
400,352,145128,5,10,0:0:0:0:
328,240,145290,1,0,3:0:0:0:
480,320,145452,1,8,0:0:0:0:
320,324,145615,1,2,0:0:0:0:
196,168,145777,85,10,0:0:0:0:
324,340,145939,1,0,3:0:0:0:
376,128,146101,1,10,0:0:0:0:
328,356,146263,1,0,3:0:0:0:
376,128,146425,5,10,0:0:0:0:
188,260,146588,1,0,3:0:0:0:
272,128,146750,2,0,B|368:108|352:180|464:164,1,200,12|8,0:0|0:0,0:0:0:0:
428,72,147236,1,4,0:3:0:0:
300,212,147398,1,8,0:3:0:0:
328,292,147561,1,4,0:3:0:0:
260,336,147723,85,4,0:0:0:0:
260,336,147885,2,0,P|212:336|164:344,1,95.9999970703126
179,255,148371,2,0,P|112:273|76:334,1,143.999995605469,2|0,0:0|0:0,0:0:0:0:
36,200,149020,6,0,P|84:196|132:184,2,95.9999970703126,10|2|4,0:0|0:0|0:3,0:0:0:0:
192,132,149993,1,2,3:2:0:0:
360,228,150317,86,0,B|320:224|292:244|292:244|268:212|230:206,1,143.999995605469,4|0,3:0|3:0,0:0:0:0:
340,316,150966,2,0,P|378:261|441:285,1,143.999995605469,2|0,0:0|0:0,0:0:0:0:
259,327,151615,6,0,P|276:247|338:192,1,167.999994873047,8|8,0:0|0:3,0:0:0:0:
420,124,152263,86,0,B|302:116|338:192|218:180,1,215.999993408203,4|0,0:3|0:0,0:0:0:0:
128,232,152912,6,0,P|182:175|146:106,1,167.999994873047,6|8,0:0|0:3,0:0:0:0:
64,176,153561,2,0,B|44:216|44:216|64:340,1,167.999994873047,4|0,0:3|0:0,0:0:0:0:
152,364,154209,85,12,0:0:0:0:
264,356,154533,1,2,0:0:0:0:
364,248,154858,1,8,0:0:0:0:
304,56,155182,1,0,0:0:0:0:
92,224,155506,6,0,B|216:252|180:164|305:186,1,223.999993164063,2|2,3:2|0:0,0:0:0:0:
472,208,156804,2,0,P|369:218|365:321,1,223.999993164063,10|2,0:0|0:1,0:0:0:0:
364,320,158101,86,0,P|360:248|348:176,1,143.999995605469,2|0,0:0|0:0,0:0:0:0:
284,136,158750,2,0,P|256:144|228:148,1,47.9999985351563,2|2,0:0|0:0,0:0:0:0:
200,212,159074,2,0,P|208:240|212:268,1,47.9999985351563,2|0,0:0|0:0,0:0:0:0:
172,324,159398,5,2,0:0:0:0:
236,372,160047,2,0,P|171:343|107:363,1,127.99999609375,2|0,0:0|0:0,0:0:0:0:
56,304,160696,86,0,P|63:232|54:161,1,143.999995605469,2|2,0:0|0:0,0:0:0:0:
0,108,161344,2,0,B|80:120|60:72|140:80,1,143.999995605469,2|0,0:0|0:0,0:0:0:0:
188,136,161993,2,0,L|176:336,1,191.999994140625,2|2,0:0|0:0,0:0:0:0:
364,360,162966,2,0,P|392:356|412:356,1,47.9999985351563,0|2,0:0|0:0,0:0:0:0:
488,344,163290,6,0,P|476:312|464:204,1,143.999995605469,2|0,0:0|0:0,0:0:0:0:
468,128,163939,2,0,P|452:168|392:248,1,143.999995605469,2|2,0:0|0:0,0:0:0:0:
352,312,164588,2,0,P|352:256|284:284,1,143.999995605469,2|2,0:0|0:0,0:0:0:0:
244,336,165236,2,0,B|172:312|180:368|104:340,1,143.999995605469,2|2,0:0|0:0,0:0:0:0:
92,264,165885,86,0,B|92:220|76:160|76:160|96:192,1,143.999995605469,2|2,0:0|0:0,0:0:0:0:
172,204,166534,2,0,B|172:160|156:100|156:100|176:132,1,143.999995605469,2|0,0:0|0:0,0:0:0:0:
248,160,167182,2,0,B|304:156|304:156|336:136|336:136|385:129,1,143.999995605469,2|0,0:0|0:0,0:0:0:0:
456,160,167831,2,0,P|448:208|448:264,1,95.9999970703126,2|2,0:0|0:0,0:0:0:0:
328,344,168479,6,0,L|471:329,1,143.999995605469,2|0,0:0|0:0,0:0:0:0:
447,255,169128,2,0,P|448:207|456:160,1,95.9999970703126,2|2,0:0|0:0,0:0:0:0:
436,84,169615,1,2,0:0:0:0:
436,84,169777,2,0,L|284:72,1,143.999995605469,2|0,0:0|0:0,0:0:0:0:
225,122,170425,2,0,B|192:125|171:150|171:150|142:136|105:146,1,127.99999609375,2|0,0:0|0:0,0:0:0:0:
128,228,171074,86,0,P|190:237|242:200,1,127.99999609375,2|2,0:0|0:0,0:0:0:0:
304,144,171723,2,0,B|272:180|272:180|284:276,1,143.999995605469,2|2,0:0|0:0,0:0:0:0:
335,331,172371,2,0,P|262:288|222:364,1,191.999994140625,2|2,0:0|0:0,0:0:0:0:
60,228,173344,2,0,P|64:200|64:180,1,47.9999985351563,2|0,0:0|0:0,0:0:0:0:
48,104,173669,6,0,B|92:108|92:108|140:100|140:100|191:103,1,143.999995605469,2|0,0:0|0:0,0:0:0:0:
255,60,174317,2,0,P|211:108|256:156,1,143.999995605469,2|0,0:0|0:0,0:0:0:0:
332,135,174966,2,0,P|394:103|462:120,1,143.999995605469,2|0,0:0|0:0,0:0:0:0:
492,192,175615,2,0,P|476:252|473:342,1,127.99999609375,2|2,0:0|0:0,0:0:0:0:
400,364,176263,86,0,L|208:348,2,191.999994140625,2|2|0,0:0|0:0|0:0,0:0:0:0:
400,363,178047,1,0,3:0:0:0:
400,363,178128,1,0,3:0:0:0:
400,363,178209,2,0,P|420:296|394:230,1,143.999995605469,12|0,0:0|0:0,0:0:0:0:
280,160,178858,6,0,B|336:168|336:168|376:148|376:148|436:156,1,160,6|8,0:0|0:0,0:0:0:0:
276,244,179344,1,0,3:0:0:0:
200,148,179506,2,0,P|211:109|232:75,1,80,0|0,3:0|3:0,0:0:0:0:
192,232,179831,2,0,L|112:220,1,80,2|8,0:1|0:0,0:0:0:0:
176,332,180155,86,0,P|248:299|326:311,2,160,0|8|0,0:0|0:0|3:0,0:0:0:0:
376,232,180966,1,0,3:0:0:0:
408,360,181128,1,8,0:0:0:0:
326,311,181290,1,0,0:0:0:0:
452,280,181452,6,0,P|456:240|464:200,1,80,0|0,3:2|3:0,0:0:0:0:
336,136,181777,2,0,P|343:175|347:215,1,80,10|0,0:0|0:0,0:0:0:0:
268,80,182101,1,2,3:2:0:0:
436,176,182263,1,0,3:0:0:0:
272,256,182425,2,0,L|192:248,1,80,2|8,0:1|0:0,0:0:0:0:
28,136,182750,86,0,P|84:180|168:160,1,160,0|8,0:0|0:0,0:0:0:0:
272,36,183236,1,0,0:0:0:0:
268,56,183317,1,0,0:0:0:0:
264,76,183398,2,0,P|308:68|344:68,1,80,8|0,0:0|3:0,0:0:0:0:
344,68,184047,6,0,P|367:143|360:222,1,160,6|10,0:0|0:0,0:0:0:0:
404,352,184533,1,0,0:0:0:0:
280,248,184696,2,0,L|300:332,1,80,2|0,3:2|3:0,0:0:0:0:
440,200,185020,2,0,L|460:284,1,80,8|0,0:0|3:0,0:0:0:0:
248,156,185344,86,0,P|211:139|172:132,1,80,2|0,3:2|3:0,0:0:0:0:
432,108,185669,2,0,P|455:75|485:49,1,80,10|0,0:0|0:0,0:0:0:0:
207,87,185993,2,0,P|223:123|247:155,1,80,2|0,3:2|0:0,0:0:0:0:
431,107,186317,2,0,P|436:67|432:28,1,80,8|0,0:0|0:0,0:0:0:0:
336,160,186642,5,12,0:0:0:0:
308,288,186804,1,0,3:0:0:0:
416,200,186966,1,8,0:0:0:0:
232,332,187128,1,0,3:0:0:0:
420,279,187290,2,0,P|416:239|415:199,1,80,8|0,0:0|3:0,0:0:0:0:
227,252,187615,2,0,P|230:291|231:331,1,80,8|0,0:0|3:0,0:0:0:0:
160,184,187939,85,8,0:0:0:0:
288,84,188101,1,0,0:0:0:0:
128,104,188263,1,8,0:0:0:0:
320,164,188425,1,0,0:0:0:0:
128,104,188588,2,0,L|48:120,1,80,8|0,0:0|0:0,0:0:0:0:
320,164,188912,2,0,L|400:148,1,80,8|4,0:0|3:0,0:0:0:0:
208,40,189236,5,4,0:0:0:0:
248,236,189398,1,0,3:0:0:0:
288,84,189561,85,12,0:0:0:0:
200,312,189723,1,0,3:0:0:0:
216,124,189885,5,8,0:0:0:0:
276,360,190047,1,0,3:0:0:0:
144,164,190209,1,8,0:0:0:0:
144,164,190533,85,8,0:0:0:0:
200,312,190696,1,8,0:0:0:0:
400,76,190858,1,8,3:2:0:0:
400,76,191669,1,4,3:0:0:0:
400,76,191750,1,4,3:0:0:0:
400,76,191831,5,4,0:0:0:0:
400,76,195723,102,0,B|324:72|348:124|266:116,1,143.999995605469,4|0,0:0|0:0,0:0:0:0:
176,112,196371,2,0,P|192:180|196:212,1,95.9999970703126,4|0,0:1|0:0,0:0:0:0:
24,220,197020,86,0,P|90:240|120:252,2,95.9999970703126,4|0|8,0:0|0:0|3:0,0:0:0:0:
156,324,197993,1,0,0:0:0:0:
236,176,198317,6,0,P|224:240|224:271,2,95.9999970703126,4|0|8,0:1|0:0|3:0,0:0:0:0:
156,324,199290,1,0,0:0:0:0:
360,340,199615,86,0,P|295:367|231:339,1,143.999995605469,4|0,0:0|0:0,0:0:0:0:
156,324,200263,2,0,B|232:332|216:280|291:287,1,143.999995605469,4|0,0:0|0:0,0:0:0:0:
384,268,200912,6,0,P|376:304|376:324,1,47.9999985351563,6|0,0:0|3:0,0:0:0:0:
282,240,201236,2,0,P|290:276|290:296,1,47.9999985351563,8|0,0:0|3:0,0:0:0:0:
344,140,201561,2,0,P|352:176|352:196,1,47.9999985351563,4|2,3:0|0:0,0:0:0:0:
264,100,201885,2,0,P|256:136|256:156,1,47.9999985351563,12|0,0:0|0:0,0:0:0:0:
459,125,202209,86,0,P|398:109|343:139,1,128,4|10,0:0|0:0,0:0:0:0:
499,211,202696,1,0,3:0:0:0:
499,211,202858,2,0,P|492:179|478:151,1,64,2|0,3:2|0:0,0:0:0:0:
352,248,203182,2,0,P|380:240|416:240,1,64,10|0,0:0|3:0,0:0:0:0:
279,208,203506,6,0,P|272:269|311:318,1,128,2|10,3:2|0:0,0:0:0:0:
408,324,203993,1,0,0:0:0:0:
324,340,204155,2,0,L|260:332,1,64,2|0,0:0|0:0,0:0:0:0:
100,352,204479,2,0,L|164:344,1,64,10|0,0:0|3:0,0:0:0:0:
204,152,204804,86,0,B|212:196|212:196|196:236|196:236|203:275,2,128,6|10|2,0:0|0:0|3:2,0:0:0:0:
284,244,205615,1,0,0:0:0:0:
132,184,205777,1,10,0:0:0:0:
268,112,205939,1,0,0:0:0:0:
195,239,206101,6,0,P|134:223|73:240,1,128,2|14,3:2|0:0,0:0:0:0:
200,328,206588,1,0,3:0:0:0:
200,328,206750,2,0,P|232:320|264:316,1,64,2|0,3:2|0:0,0:0:0:0:
432,324,207074,2,0,P|464:332|496:336,1,64,8|0,0:0|0:0,0:0:0:0:
344,208,207398,86,0,B|360:256|360:256|348:304,1,100,14|0,0:0|3:0,0:0:0:0:
104,196,207723,2,0,B|88:148|88:148|100:100,1,100,10|0,0:0|3:0,0:0:0:0:
224,260,208047,1,10,0:0:0:0:
184,368,208209,1,0,3:0:0:0:
192,180,208371,1,10,0:0:0:0:
264,336,208533,1,0,3:0:0:0:
332,108,208696,6,0,P|320:152|308:208,1,100,10|0,0:0|3:0,0:0:0:0:
108,332,209020,2,0,P|97:283|84:234,1,100,10|0,0:0|3:0,0:0:0:0:
260,56,209344,1,10,0:0:0:0:
404,156,209506,1,0,3:0:0:0:
244,256,209669,1,10,0:0:0:0:
332,108,209831,1,0,3:0:0:0:
440,288,209993,86,0,L|340:276,1,100,10|0,0:0|3:0,0:0:0:0:
92,168,210317,2,0,L|192:180,1,100,10|0,0:0|3:0,0:0:0:0:
440,320,210642,2,0,L|340:308,1,100,10|0,0:0|3:0,0:0:0:0:
92,136,210966,2,0,L|192:148,1,100,10|0,0:0|3:0,0:0:0:0:
424,228,211290,5,10,0:0:0:0:
296,96,211452,1,0,0:0:0:0:
276,188,211615,2,0,B|372:196|348:132|440:140,1,176.000005371094,6|2,0:0|0:0,0:0:0:0:
252,272,212101,85,0,0:0:0:0:
220,240,212182,1,0,0:0:0:0:
180,228,212263,1,0,0:0:0:0:
136,236,212344,1,0,0:0:0:0:
104,264,212425,1,0,0:0:0:0:
92,308,212506,1,0,0:0:0:0:
100,348,212588,22,0,B|160:340|160:340|208:356|208:356|272:348,1,176.000005371094,6|14,0:0|0:0,0:0:0:0:
392,360,213074,1,0,0:0:0:0:
320,248,213236,2,0,P|308:284|296:332,1,88.000002685547,2|0,3:2|0:0,0:0:0:0:
484,336,213561,2,0,B|492:292|492:292|476:252,1,88.000002685547,10|0,0:0|3:0,0:0:0:0:
248,163,213885,22,0,P|308:222|394:217,1,176.000005371094,2|10,3:2|0:0,0:0:0:0:
260,72,214371,1,0,0:0:0:0:
196,240,214533,1,2,3:2:0:0:
344,128,214696,1,0,3:0:0:0:
112,172,214858,1,10,0:0:0:0:
112,172,215020,1,0,0:0:0:0:
156,332,215182,6,0,P|200:328|248:328,1,88.000002685547,2|0,3:2|3:0,0:0:0:0:
400,224,215506,2,0,P|368:193|334:164,1,88.000002685547,10|0,0:0|3:0,0:0:0:0:
340,356,215831,1,2,3:2:0:0:
340,356,215994,1,0,3:0:0:0:
480,296,216155,2,0,L|492:208,1,88.000002685547,10|0,0:0|0:0,0:0:0:0:
323,77,216479,6,0,L|335:165,1,88.000002685547,2|0,3:2|3:0,0:0:0:0:
396,24,216804,1,10,0:0:0:0:
396,24,216966,1,2,3:2:0:0:
236,128,217128,2,0,P|200:152|152:168,1,88.000002685547,2|0,3:2|3:0,0:0:0:0:
20,160,217452,1,10,0:0:0:0:
168,280,217615,1,0,0:0:0:0:
243,231,217777,6,0,P|170:190|94:227,1,176.000005371094,6|10,3:2|0:0,0:0:0:0:
272,320,218263,1,0,3:0:0:0:
368,188,218425,2,0,P|356:236|348:276,1,88.000002685547,2|0,3:2|3:0,0:0:0:0:
296,120,218750,1,10,0:0:0:0:
464,272,218912,1,0,0:0:0:0:
392,336,219074,6,0,B|368:300|368:300|392:160,1,176.000005371094,2|12,3:2|0:0,0:0:0:0:
464,272,219561,1,2,3:2:0:0:
296,252,219723,2,0,P|256:240|208:240,1,88.000002685547,2|0,3:2|3:0,0:0:0:0:
16,312,220047,2,0,P|56:324|104:324,1,88.000002685547,10|0,0:0|0:0,0:0:0:0:
204,140,220371,53,2,3:2:0:0:
204,140,220533,1,0,3:0:0:0:
188,344,220696,2,0,L|276:336,1,88.000002685547,10|0,0:0|3:2,0:0:0:0:
204,140,221020,1,2,3:2:0:0:
204,140,221182,1,0,3:0:0:0:
392,176,221344,1,14,0:0:0:0:
275,336,221506,1,2,0:0:0:0:
350,288,221669,6,0,P|289:247|219:266,1,150,12|0,0:0|0:0,0:0:0:0:
68,320,221993,2,0,B|108:336|120:372|120:372|144:348|188:348,1,150,4|0,3:0|0:0,0:0:0:0:
274,335,222317,2,0,B|359:328|335:380|415:372,1,150,10|0,0:0|0:0,0:0:0:0:
424,224,222642,2,0,P|373:261|429:289,1,150,2|2,2:0|2:0,0:0:0:0:
496,168,222966,6,0,B|428:172|428:172|388:156|388:156|324:160,1,176.000005371094,6|10,0:0|0:0,0:0:0:0:
164,216,223452,1,0,0:0:0:0:
164,216,223615,2,0,L|176:304,1,88.000002685547,2|0,3:2|0:0,0:0:0:0:
356,272,223939,2,0,L|344:184,1,88.000002685547,10|0,0:0|0:0,0:0:0:0:
128,108,224263,6,0,B|124:152|124:152|140:192,1,88.000002685547,2|0,3:2|0:0,0:0:0:0:
323,160,224588,2,0,B|327:116|327:116|311:76,1,88.000002685547,10|0,0:0|0:0,0:0:0:0:
260,240,224912,2,0,P|272:288|280:328,1,88.000002685547,2|0,3:2|3:0,0:0:0:0:
432,172,225236,2,0,P|441:129|452:87,1,88.000002685547,14|0,0:0|0:0,0:0:0:0:
240,140,225561,54,0,L|64:164,2,176.000005371094,2|10|2,3:2|0:0|3:2,0:0:0:0:
310,75,226371,1,0,0:0:0:0:
260,240,226533,1,10,0:0:0:0:
260,240,226696,1,0,0:0:0:0:
144,135,226858,6,0,P|189:63|274:51,1,176.000005371094,2|8,3:2|0:0,0:0:0:0:
436,144,227344,1,0,0:0:0:0:
356,296,227506,1,4,0:0:0:0:
316,148,227669,1,0,0:0:0:0:
364,324,227831,1,8,0:0:0:0:
364,324,228155,6,0,L|464:312,1,100,14|0,0:0|3:2,0:0:0:0:
120,304,228479,2,0,L|20:316,1,100,10|0,0:0|3:2,0:0:0:0:
296,224,228804,1,10,0:0:0:0:
272,380,228966,1,0,3:2:0:0:
247,120,229128,1,10,0:0:0:0:
344,308,229290,1,0,3:2:0:0:
344,95,229452,6,0,P|294:103|248:120,1,100,10|0,0:0|3:2,0:0:0:0:
19,195,229777,2,0,P|66:212|116:220,1,100,8|4,0:0|3:0,0:0:0:0:
88,24,230101,2,0,L|76:124,1,100,10|0,0:0|0:0,0:0:0:0:
308,288,230425,2,0,L|320:188,1,100,10|0,0:0|3:2,0:0:0:0:
224,22,230750,5,14,0:0:0:0:
412,156,230912,1,0,3:2:0:0:
448,72,231074,1,10,0:0:0:0:
184,172,231236,1,0,3:2:0:0:
224,22,231398,2,0,P|238:70|247:120,1,100,10|0,0:0|3:2,0:0:0:0:
444,328,231723,2,0,P|453:278|467:230,1,100,10|0,0:0|3:2,0:0:0:0:
232,264,232047,6,0,B|124:240|148:316|39:284,2,200,14|10|10,0:0|0:0|0:0,0:0:0:0:
80,200,232858,1,0,3:0:0:0:
80,200,233020,1,8,0:0:0:0:
196,356,233182,1,0,0:0:0:0:
412,292,233344,6,0,P|319:212|283:328,2,287.999991210938,6|2|6,0:0|3:2|0:0,0:0:0:0:
496,232,234966,1,0,3:0:0:0:
452,140,235290,1,2,0:1:0:0:
488,44,235615,1,0,0:0:0:0:
272,88,235939,6,0,B|348:100|336:60|412:71,1,143.999995605469,4|2,0:0|0:0,0:0:0:0:
183,60,236588,2,0,P|188:130|241:175,1,143.999995605469,6|2,0:0|0:0,0:0:0:0:
452,140,237236,2,0,P|397:107|376:167,1,143.999995605469,6|0,0:0|0:0,0:0:0:0:
188,208,237885,2,0,P|242:175|263:235,1,143.999995605469,8|4,0:3|0:3,0:0:0:0:
340,320,238533,6,0,P|277:312|220:340,2,128,2|0|2,0:0|0:0|0:0,0:0:0:0:
416,368,239506,1,2,0:0:0:0:
472,300,239831,2,0,B|516:156|424:196|470:50,1,256,2|2,0:0|0:0,0:0:0:0:
380,40,240804,1,2,0:0:0:0:
320,104,241128,2,0,B|256:126|232:191|232:191|179:147|112:161,1,256,0|2,0:0|0:0,0:0:0:0:
112,161,242425,6,2,B|143:211|124:393|-44:357|-8:149|116:249|116:249|152:277|208:269,1,448,2|0,0:0|0:0,0:0:0:0:
244,192,243723,6,0,L|228:356,2,160,4|10|2,0:0|0:0|3:2,0:0:0:0:
140,36,244533,1,0,3:0:0:0:
220,92,244696,2,0,P|260:84|300:84,1,80,8|0,0:0|3:0,0:0:0:0:
92,128,245020,6,0,L|100:207,1,80,0|0,3:0|3:0,0:0:0:0:
32,344,245344,2,0,B|72:332|72:332|112:332,1,80,10|0,0:0|3:0,0:0:0:0:
228,304,245669,1,2,0:0:0:0:
228,304,245831,1,0,3:0:0:0:
131,135,245993,2,0,B|109:170|109:170|98:209,1,80,8|0,0:0|3:0,0:0:0:0:
344,232,246317,6,0,P|332:200|312:156,1,80,6|0,3:2|0:0,0:0:0:0:
452,148,246642,2,0,P|464:116|484:72,1,80,10|0,0:0|3:0,0:0:0:0:
412,296,246966,2,0,L|492:284,1,80,2|0,0:0|3:0,0:0:0:0:
313,158,247290,2,0,L|233:170,1,80,8|0,0:0|3:0,0:0:0:0:
376,76,247615,5,2,3:2:0:0:
376,76,247777,1,0,3:0:0:0:
188,76,247939,2,0,P|191:115|203:154,1,80,8|0,0:0|3:0,0:0:0:0:
272,40,248263,1,2,3:2:0:0:
112,144,248425,1,0,3:0:0:0:
287,233,248588,2,0,P|303:196|312:157,1,80,12|0,0:0|0:0,0:0:0:0:
72,68,248912,6,0,P|84:148|92:232,2,160,4|8|2,0:0|0:0|3:2,0:0:0:0:
40,300,249723,1,0,3:0:0:0:
172,188,249885,2,0,P|176:148|184:108,1,80,10|0,0:0|3:0,0:0:0:0:
352,80,250209,6,0,L|272:88,1,80,0|0,3:0|3:0,0:0:0:0:
472,172,250533,2,0,L|392:164,1,80,10|0,0:0|3:0,0:0:0:0:
432,24,250858,1,2,3:2:0:0:
352,80,251020,1,0,3:0:0:0:
448,268,251182,1,10,0:0:0:0:
472,172,251344,1,0,3:0:0:0:
276,248,251506,6,0,P|312:248|356:256,1,80,8|0,0:0|3:0,0:0:0:0:
204,340,251831,2,0,P|168:340|124:332,1,80,12|0,0:0|3:0,0:0:0:0:
56,228,252155,1,0,0:0:0:0:
52,196,252236,1,0,0:0:0:0:
48,164,252317,1,0,0:0:0:0:
44,132,252398,1,0,0:0:0:0:
40,100,252479,2,0,P|48:64|52:20,1,80,0|0,0:0|0:0,0:0:0:0:
216,92,252804,5,4,0:0:0:0:
132,144,252966,1,2,3:2:0:0:
296,148,253128,1,12,0:0:0:0:
208,304,253290,2,0,P|196:265|183:227,1,80,0|0,0:0|3:0,0:0:0:0:
136,368,253615,1,4,3:0:0:0:
304,252,253777,1,4,3:0:0:0:
332,240,253858,1,2,0:0:0:0:
364,240,253939,1,2,0:0:0:0:
392,256,254020,1,2,0:0:0:0:
408,284,254101,6,0,P|384:332|280:352,2,160,4|8|2,0:0|0:0|3:2,0:0:0:0:
504,144,254912,1,0,3:0:0:0:
416,181,255074,2,0,P|396:216|392:256,1,80,8|0,0:0|3:0,0:0:0:0:
504,144,255398,6,0,L|496:64,1,80,2|0,3:2|3:0,0:0:0:0:
328,40,255723,2,0,L|336:120,1,80,6|0,3:2|0:0,0:0:0:0:
256,304,256047,1,2,3:2:0:0:
216,192,256209,1,2,0:0:0:0:
264,336,256371,1,8,0:0:0:0:
352,220,256533,1,2,0:0:0:0:
160,276,256696,6,0,P|120:268|76:264,1,80,4|0,0:0|3:0,0:0:0:0:
300,144,257020,2,0,P|340:136|384:132,1,80,8|0,0:0|0:0,0:0:0:0:
148,72,257344,1,2,3:2:0:0:
148,72,257506,1,0,3:0:0:0:
256,240,257669,2,0,P|264:200|268:160,1,80,2|0,3:2|3:0,0:0:0:0:
40,112,257993,6,0,L|120:104,1,80,2|0,0:0|0:0,0:0:0:0:
288,72,258317,2,0,L|368:80,1,80,8|2,0:0|0:0,0:0:0:0:
164,176,258642,1,2,3:2:0:0:
164,176,258804,1,0,3:0:0:0:
340,193,258966,2,0,P|305:173|267:160,1,80,8|0,0:0|0:0,0:0:0:0:
376,318,259290,6,0,P|382:226|396:135,2,184.000003509522,8|4|8,0:0|3:0|0:0,0:0:0:0:
472,180,260101,1,0,3:0:0:0:
280,272,260263,1,8,0:0:0:0:
472,364,260425,1,0,3:0:0:0:
291,180,260588,6,0,P|287:225|279:271,1,92.0000017547608,10|0,0:0|3:0,0:0:0:0:
472,364,260912,2,0,P|463:318|460:272,1,92.0000017547608,8|0,0:0|3:0,0:0:0:0:
248,352,261236,2,0,L|156:336,1,92.0000017547608,8|0,0:0|3:0,0:0:0:0:
368,128,261561,2,0,L|460:144,1,92.0000017547608,8|0,0:0|0:0,0:0:0:0:
252,76,261885,5,4,0:0:0:0:
360,208,262047,1,0,3:0:0:0:
440,56,262209,1,0,3:0:0:0:
272,196,262371,1,2,3:2:0:0:
324,24,262533,1,2,3:2:0:0:
168,136,262696,1,2,3:2:0:0:
360,208,262858,1,8,0:3:0:0:
252,76,263020,1,2,0:0:0:0:
256,96,263101,1,2,0:0:0:0:
260,116,263182,5,6,0:0:0:0:
256,192,263344,12,0,268939,0:0:0:0:
