osu file format v14

[General]
AudioFilename: audio.mp3
AudioLeadIn: 0
PreviewTime: 46214
Countdown: 0
SampleSet: Soft
StackLeniency: 0.4
Mode: 0
LetterboxInBreaks: 0
WidescreenStoryboard: 1

[Editor]
DistanceSpacing: 1
BeatDivisor: 2
GridSize: 4
TimelineZoom: 2.799999

[Metadata]
Title:Ao to Natsu
TitleUnicode:青と夏
Artist:Mrs. GREEN APPLE
ArtistUnicode:Mrs. GREEN APPLE
Creator:Glaceon
Version:Normal
Source:青夏 きみに恋した30日
Tags:summer days in love with you ost original soundtrack ao natsu: kimi ni koi shita thirty nichi ミセスグリーンアップル motoki omori 大森元貴 hiroto wakai 若井滉斗 ayaka yamanaka 山中綾華 ryoka fujisawa 藤澤涼架 kiyokatsu takano 髙野清宗
BeatmapID:2008867
BeatmapSetID:949080

[Difficulty]
HPDrainRate:3.5
CircleSize:3
OverallDifficulty:4
ApproachRate:5.5
SliderMultiplier:1.1
SliderTickRate:1

[Events]
//Background and Video events
0,0,"blobnomrave.jpg",0,0
//Break Periods
//Storyboard Layer 0 (Background)
//Storyboard Layer 1 (Fail)
//Storyboard Layer 2 (Pass)
//Storyboard Layer 3 (Foreground)
//Storyboard Sound Samples

[TimingPoints]
1782,324.324324324324,4,2,22,70,1,0
1782,-100,4,2,22,70,0,0
2754,-100,4,2,22,30,0,0
2917,-100,4,2,22,35,0,0
3079,-100,4,2,22,40,0,0
3241,-100,4,2,22,45,0,0
3403,-100,4,2,22,50,0,0
3565,-100,4,2,22,55,0,0
3727,-100,4,2,22,60,0,0
3890,-100,4,2,22,65,0,0
4052,-100,4,2,22,70,0,0
5349,-100,4,2,22,30,0,0
5512,-100,4,2,22,35,0,0
5674,-100,4,2,22,40,0,0
5836,-100,4,2,22,45,0,0
5998,-100,4,2,22,50,0,0
6160,-100,4,2,22,55,0,0
6322,-100,4,2,22,60,0,0
6485,-100,4,2,22,65,0,0
6647,-100,4,2,22,70,0,0
7944,-100,4,2,22,30,0,0
8107,-100,4,2,22,35,0,0
8269,-100,4,2,22,40,0,0
8431,-100,4,2,22,45,0,0
8593,-100,4,2,22,50,0,0
8755,-100,4,2,22,55,0,0
8917,-100,4,2,22,60,0,0
9080,-100,4,2,22,65,0,0
9242,-100,4,2,22,70,0,0
10782,-100,4,2,22,5,0,0
10863,-100,4,2,22,70,0,0
11673,-100,4,2,22,60,0,0
11836,-100,4,2,22,45,0,0
11998,-100,4,2,22,30,0,0
12160,-100,4,2,22,85,0,0
14673,-100,4,2,22,5,0,0
14754,-100,4,2,22,85,0,0
17268,-100,4,2,22,5,0,0
17349,-100,4,2,22,85,0,0
21484,-100,4,2,22,5,0,0
21565,-100,4,2,22,85,0,0
22538,-100,4,2,22,60,0,0
31863,-100,4,2,22,5,0,0
31944,-100,4,2,22,70,0,0
32187,-100,4,2,22,5,0,0
32268,-100,4,2,22,70,0,0
32917,-100,4,2,22,80,0,0
46538,324.324324324324,4,2,22,85,1,0
46538,-100,4,2,22,85,0,1
56592,-100,4,2,22,85,0,0
56916,-100,4,2,22,85,0,1
61781,-100,4,2,22,85,0,0
62105,-100,4,2,22,85,0,1
67294,-100,4,2,22,85,0,0
72483,-100,4,2,22,60,0,0
77592,-100,4,2,22,5,0,0
77673,-100,4,2,22,85,0,1
77754,-100,4,2,22,85,0,0
82781,-100,4,2,22,5,0,0
82862,-100,4,2,22,85,0,0
93159,-100,4,2,22,5,0,0
93240,-100,4,2,22,85,0,0
97132,-100,4,2,22,85,0,0
102808,-100,4,2,22,5,0,0

[Colours]
Combo1 : 255,183,219
Combo2 : 147,255,147
Combo3 : 255,255,113
Combo4 : 99,219,254
Combo5 : 255,130,130

[HitObjects]
78,54,1782,6,0,P|133:68|189:54,1,110,6|2,1:2|1:2,0:0:0:0:
241,48,2268,1,2,0:0:0:0:
241,48,2430,2,0,L|233:166,1,110,2|2,1:2|1:2,0:0:0:0:
223,267,3079,2,0,L|294:264,1,55,2|2,1:2|1:2,0:0:0:0:
318,227,3403,2,0,L|389:224,1,55,2|2,1:2|1:2,0:0:0:0:
420,251,3727,2,0,P|434:196|420:140,1,110,2|2,1:2|1:2,0:0:0:0:
394,104,4214,1,2,1:2:0:0:
394,104,4376,6,0,L|266:108,1,110,6|2,1:2|1:2,0:0:0:0:
233,110,4863,1,2,0:0:0:0:
233,110,5025,2,0,P|219:165|233:221,1,110,2|2,1:2|1:2,0:0:0:0:
249,324,5673,2,0,L|174:321,1,55,2|2,1:2|1:2,0:0:0:0:
162,276,5998,2,0,L|107:273,1,55,2|2,1:2|1:2,0:0:0:0:
57,272,6322,1,2,1:2:0:0:
57,272,6484,2,0,L|68:152,1,110,6|6,0:0|1:2,0:0:0:0:
74,107,6971,6,0,P|129:121|185:107,1,110,6|2,1:2|1:2,0:0:0:0:
232,86,7457,1,2,0:0:0:0:
232,86,7619,2,0,L|351:90,1,110,2|2,1:2|1:2,0:0:0:0:
451,96,8268,2,0,L|445:167,1,55,2|2,1:2|1:2,0:0:0:0:
399,178,8592,2,0,L|393:249,1,55,2|2,1:2|1:2,0:0:0:0:
418,282,8917,2,0,P|363:268|307:282,1,110,2|2,1:2|1:2,0:0:0:0:
264,301,9403,1,2,1:2:0:0:
264,301,9565,6,0,L|268:179,1,110,6|2,1:2|1:2,0:0:0:0:
269,140,10052,1,2,1:2:0:0:
269,140,10214,2,0,P|215:151|163:137,1,110,2|14,1:2|0:0,0:0:0:0:
110,40,10863,2,0,P|163:28|215:42,1,110,2|10,3:2|3:2,0:0:0:0:
325,54,11511,2,0,L|441:51,1,110,10|10,2:3|2:3,0:0:0:0:
510,130,12160,5,4,1:2:0:0:
436,211,12484,2,0,P|449:263|438:316,2,110,10|2|10,0:0|1:2|0:0,0:0:0:0:
358,132,13457,1,0,1:2:0:0:
260,183,13781,1,10,0:0:0:0:
286,289,14106,2,0,L|164:294,1,110,2|10,1:2|0:0,0:0:0:0:
77,244,14754,6,0,P|63:191|74:138,1,110,6|10,1:2|0:0,0:0:0:0:
133,45,15403,2,0,P|185:31|238:42,1,110,2|10,1:2|0:0,0:0:0:0:
278,145,16052,2,0,B|329:166|329:166|436:134,1,165,2|2,1:2|0:0,0:0:0:0:
484,112,16700,2,0,L|477:-3,1,110,2|10,1:2|0:0,0:0:0:0:
377,49,17349,5,4,1:2:0:0:
276,4,17673,1,10,0:0:0:0:
194,78,17998,2,0,L|203:195,1,110,2|10,1:2|0:0,0:0:0:0:
297,243,18646,2,0,L|306:360,2,110,2|10|2,1:2|0:0|1:2,0:0:0:0:
202,187,19619,1,10,0:0:0:0:
107,244,19944,5,10,0:0:0:0:
107,244,20106,2,0,P|93:191|104:138,1,110,2|2,1:2|0:0,0:0:0:0:
144,100,20592,1,10,0:0:0:0:
144,100,20754,2,0,L|267:105,1,110,0|2,0:0|1:2,0:0:0:0:
309,108,21241,1,14,0:0:0:0:
383,188,21565,1,14,0:0:0:0:
321,279,21890,2,0,L|253:276,1,55,2|2,1:2|1:2,0:0:0:0:
236,230,22214,2,0,L|168:227,1,55,2|2,1:2|1:2,0:0:0:0:
135,258,22538,6,0,P|148:310|137:363,2,110,6|2|2,1:2|1:2|1:2,0:0:0:0:
62,174,23511,2,0,L|66:111,1,55,2|2,1:2|0:0,0:0:0:0:
71,64,23836,1,2,1:2:0:0:
161,2,24160,1,2,1:2:0:0:
242,75,24484,2,0,L|356:71,1,110,2|0,1:2|1:2,0:0:0:0:
406,166,25133,6,0,P|458:152|511:163,2,110,2|2|2,1:2|1:2|1:2,0:0:0:0:
328,244,26106,2,0,L|249:241,1,55,2|2,1:2|0:0,0:0:0:0:
243,195,26430,2,0,L|116:191,1,110,2|2,1:2|1:2,0:0:0:0:
31,234,27079,2,0,B|18:276|18:276|30:315,2,82.5,2|0|0,3:2|3:2|3:2,0:0:0:0:
52,183,27727,6,0,P|63:129|49:77,2,110,6|2|2,1:2|1:2|1:2,0:0:0:0:
137,253,28700,2,0,L|209:253,1,55,2|2,1:2|0:0,0:0:0:0:
227,210,29025,2,0,L|349:212,1,110,2|2,1:2|1:2,0:0:0:0:
421,281,29673,1,2,1:2:0:0:
505,210,29998,1,2,1:2:0:0:
456,111,30322,6,0,L|346:109,1,110,2|2,1:2|1:2,0:0:0:0:
314,71,30809,1,2,0:0:0:0:
314,71,30971,2,0,L|204:69,1,110,2|2,1:2|1:2,0:0:0:0:
123,143,31619,2,0,P|111:196|125:248,1,110,2|4,1:2|1:2,0:0:0:0:
220,304,32268,2,0,L|223:228,1,55,0|0,1:2|0:0,0:0:0:0:
268,219,32592,2,0,L|271:143,1,55,0|0,1:2|0:0,0:0:0:0:
250,112,32917,6,0,P|306:99|355:112,1,110,6|10,1:2|0:0,0:0:0:0:
460,145,33565,1,2,1:2:0:0:
430,251,33890,2,0,L|357:247,1,55,2|2,0:0|1:2,0:0:0:0:
320,245,34214,1,2,0:0:0:0:
238,318,34538,1,8,0:0:0:0:
156,243,34863,2,0,L|89:242,2,55,2|0|8,1:2|1:2|0:0,0:0:0:0:
239,171,35511,6,0,P|252:118|239:65,1,110,2|10,1:2|0:0,0:0:0:0:
148,2,36160,1,2,1:2:0:0:
64,72,36484,2,0,L|66:145,1,55,2|2,0:0|0:0,0:0:0:0:
68,182,36809,1,2,0:0:0:0:
12,276,37133,1,10,0:0:0:0:
93,349,37457,2,0,L|149:348,2,55,2|0|8,1:2|1:2|0:0,0:0:0:0:
146,252,38106,6,0,L|272:249,1,110,2|10,1:2|0:0,0:0:0:0:
351,302,38754,1,2,1:2:0:0:
427,223,39079,2,0,L|425:158,1,55,2|2,0:0|0:0,0:0:0:0:
423,113,39403,2,0,P|370:99|317:112,1,110,2|8,0:0|0:0,0:0:0:0:
219,162,40052,1,2,0:0:0:0:
41,290,40700,6,0,L|38:165,1,110,6|8,1:2|0:0,0:0:0:0:
127,114,41349,2,0,L|128:186,1,55,2|0,1:2|1:2,0:0:0:0:
127,223,41673,1,8,0:0:0:0:
201,304,41998,2,0,P|253:317|306:304,1,110,0|8,1:2|0:0,0:0:0:0:
392,235,42646,2,0,L|389:168,1,55,2|0,1:2|0:0,0:0:0:0:
385,124,42971,1,8,0:0:0:0:
306,47,43295,5,6,1:2:0:0:
211,103,43619,1,0,1:2:0:0:
238,209,43944,2,0,L|167:212,2,55,10|0|8,0:0|1:2|0:0,0:0:0:0:
318,283,44592,1,14,0:0:0:0:
254,373,44917,1,10,3:2:0:0:
149,338,45241,2,0,B|88:283|88:283|106:99,1,220,10|2,3:2|1:2,0:0:0:0:
294,41,46538,6,0,L|288:184,1,110,6|10,1:2|0:0,0:0:0:0:
205,221,47186,1,2,1:2:0:0:
259,316,47510,1,10,0:0:0:0:
366,289,47835,2,0,L|369:194,1,55,2|0,1:2|1:2,0:0:0:0:
370,179,48159,1,8,0:0:0:0:
474,144,48483,2,0,L|476:16,1,110,2|10,1:2|0:0,0:0:0:0:
368,58,49132,6,0,P|315:70|262:57,1,110,2|10,1:2|0:0,0:0:0:0:
169,118,49781,2,0,L|170:196,1,55,2|2,1:2|1:2,0:0:0:0:
170,227,50105,1,10,0:0:0:0:
75,282,50429,2,0,L|72:157,1,110,2|8,1:2|0:0,0:0:0:0:
6,83,51078,1,0,1:2:0:0:
80,2,51402,1,10,0:0:0:0:
175,57,51727,6,0,P|228:70|281:57,1,110,6|10,1:2|0:0,0:0:0:0:
374,114,52375,2,0,L|370:201,1,55,2|0,1:2|1:2,0:0:0:0:
367,224,52700,1,10,0:0:0:0:
291,303,53024,2,0,B|336:346|336:346|463:328,1,165,2|2,1:2|0:0,0:0:0:0:
492,321,53673,1,2,1:2:0:0:
455,217,53997,1,10,0:0:0:0:
509,121,54321,6,0,P|456:108|403:121,1,110,2|10,1:2|0:0,0:0:0:0:
320,193,54970,2,0,L|249:192,1,55,2|0,1:2|1:2,0:0:0:0:
210,191,55294,1,10,0:0:0:0:
138,107,55619,2,0,L|64:106,1,55,10|0,0:0|1:2,0:0:0:0:
54,152,55943,2,0,L|-20:151,2,55,10|2|2,0:0|0:0|1:2,0:0:0:0:
112,245,56592,1,10,3:2:0:0:
59,341,56916,6,0,P|111:353|164:341,1,110,6|10,1:2|0:0,0:0:0:0:
251,273,57565,2,0,L|249:204,1,55,2|0,1:2|1:2,0:0:0:0:
248,163,57889,1,10,0:0:0:0:
327,86,58213,2,0,P|379:73|432:86,1,110,2|8,1:2|0:0,0:0:0:0:
504,169,58862,2,0,L|501:238,1,55,2|0,1:2|1:2,0:0:0:0:
496,278,59186,1,10,0:0:0:0:
394,321,59510,6,0,L|401:195,1,110,2|10,1:2|0:0,0:0:0:0:
324,130,60159,2,0,L|251:130,1,55,2|0,1:2|1:2,0:0:0:0:
214,131,60483,1,10,0:0:0:0:
117,184,60808,2,0,P|104:131|117:78,1,110,2|8,1:2|0:0,0:0:0:0:
206,14,61456,2,0,L|293:13,1,55,2|0,1:2|1:2,0:0:0:0:
316,11,61781,1,8,0:0:0:0:
397,85,62105,6,0,L|526:82,2,110,14|10|10,0:0|0:0|0:0,0:0:0:0:
317,161,63078,1,10,0:0:0:0:
381,249,63402,2,0,P|393:301|380:354,1,110,10|8,0:0|0:0,0:0:0:0:
285,300,64051,1,10,0:0:0:0:
191,357,64375,1,10,0:0:0:0:
118,274,64700,6,0,P|105:221|118:168,1,110,14|10,0:0|0:0,0:0:0:0:
212,111,65348,2,0,P|224:163|211:216,1,110,10|10,0:0|0:0,0:0:0:0:
285,300,65997,2,0,L|429:292,1,110,14|8,0:0|0:0,0:0:0:0:
447,197,66646,2,0,L|359:203,1,55,10|0,0:0|1:2,0:0:0:0:
337,202,66970,1,0,1:2:0:0:
292,101,67294,6,0,B|229:131|229:131|50:83,1,220,6|2,1:2|2:3,0:0:0:0:
131,307,68592,2,0,B|194:277|194:277|373:325,1,220,6|2,1:2|0:0,0:0:0:0:
448,305,69565,1,2,0:0:0:0:
459,195,69889,6,0,P|419:142|467:7,2,220,2|6|6,1:2|1:2|1:2,0:0:0:0:
263,296,71835,2,0,L|259:380,2,55,2|0|0,3:2|0:0|3:2,0:0:0:0:
211,198,72483,5,6,1:2:0:0:
380,57,73132,2,0,L|374:180,1,110,2|2,0:0|0:0,0:0:0:0:
365,276,73781,1,2,0:0:0:0:
146,251,74429,2,0,P|134:199|147:146,1,110,2|2,0:0|0:0,0:0:0:0:
242,89,75078,6,0,P|254:141|241:194,1,110,2|2,0:0|0:0,0:0:0:0:
314,276,75727,1,2,0:0:0:0:
495,152,76375,1,2,0:0:0:0:
495,152,77673,5,6,1:2:0:0:
428,239,77997,2,0,L|435:369,2,110,10|2|10,0:0|1:2|0:0,0:0:0:0:
354,156,78970,1,0,1:2:0:0:
257,208,79294,1,10,0:0:0:0:
278,316,79619,2,0,P|226:328|173:315,1,110,2|10,1:2|0:0,0:0:0:0:
95,236,80267,6,0,P|83:184|96:131,1,110,6|10,1:2|0:0,0:0:0:0:
184,63,80916,2,0,P|236:51|289:64,1,110,2|10,1:2|0:0,0:0:0:0:
369,141,81565,2,0,B|385:200|385:200|351:319,1,165,0|2,1:2|0:0,0:0:0:0:
339,352,82213,2,0,L|462:345,1,110,2|8,1:2|0:0,0:0:0:0:
508,252,82862,5,4,1:2:0:0:
456,155,83186,2,0,P|469:102|457:49,2,110,10|2|10,0:0|1:2|0:0,0:0:0:0:
367,220,84159,1,0,1:2:0:0:
280,151,84483,1,10,0:0:0:0:
326,51,84808,2,0,L|210:54,1,110,2|10,1:2|0:0,0:0:0:0:
117,103,85456,5,10,0:0:0:0:
125,212,85781,1,10,0:0:0:0:
230,242,86105,2,0,L|339:239,1,110,10|10,3:2|3:2,0:0:0:0:
446,265,86754,2,0,L|442:344,1,55,6|2,0:0|1:2,0:0:0:0:
437,374,87078,1,8,0:0:0:0:
338,330,87402,2,0,L|260:332,1,55,0|0,1:2|1:2,0:0:0:0:
252,377,87727,2,0,L|174:379,1,55,0|0,1:2|1:2,0:0:0:0:
142,376,88051,5,6,1:2:0:0:
78,285,88375,1,10,0:0:0:0:
154,205,88700,2,0,L|148:78,1,110,2|10,1:2|0:0,0:0:0:0:
216,8,89348,1,0,1:2:0:0:
318,48,89673,1,10,0:0:0:0:
307,157,89997,2,0,L|309:233,1,55,2|2,1:2|1:2,0:0:0:0:
356,238,90321,2,0,L|358:314,1,55,10|2,0:0|0:0,0:0:0:0:
356,348,90646,5,6,1:2:0:0:
464,328,90970,1,10,0:0:0:0:
462,218,91294,2,0,L|459:94,1,110,2|10,1:2|0:0,0:0:0:0:
381,30,91943,2,0,B|328:62|328:62|187:34,1,165,2|2,1:2|0:0,0:0:0:0:
172,30,92592,2,0,P|158:82|170:135,1,110,2|8,1:2|0:0,0:0:0:0:
237,222,93240,5,4,1:2:0:0:
177,314,93565,2,0,L|64:311,2,110,10|10|10,0:0|0:0|0:0,0:0:0:0:
237,222,94537,1,2,0:0:0:0:
339,262,94862,2,0,L|448:264,2,110,10|10|10,0:0|0:0|0:0,0:0:0:0:
324,152,95835,5,10,0:0:0:0:
324,152,95997,2,0,L|463:156,1,110,2|10,1:2|0:0,0:0:0:0:
493,157,96483,1,2,1:2:0:0:
493,157,96646,2,0,P|506:104|494:51,1,110,2|2,1:2|0:0,0:0:0:0:
459,8,97132,1,6,1:2:0:0:
256,192,97294,12,0,102808,0:0:0:0:
