osu file format v14

[General]
AudioFilename: audio.mp3
AudioLeadIn: 0
PreviewTime: 46214
Countdown: 0
SampleSet: Soft
StackLeniency: 0.4
Mode: 0
LetterboxInBreaks: 0
WidescreenStoryboard: 1

[Editor]
DistanceSpacing: 1
BeatDivisor: 4
GridSize: 16
TimelineZoom: 2.799999

[Metadata]
Title:Ao to Natsu
TitleUnicode:青と夏
Artist:Mrs. GREEN APPLE
ArtistUnicode:Mrs. GREEN APPLE
Creator:Glaceon
Version:Easy
Source:青夏 きみに恋した30日
Tags:summer days in love with you ost original soundtrack ao natsu: kimi ni koi shita thirty nichi ミセスグリーンアップル motoki omori 大森元貴 hiroto wakai 若井滉斗 ayaka yamanaka 山中綾華 ryoka fujisawa 藤澤涼架 kiyokatsu takano 髙野清宗
BeatmapID:2008865
BeatmapSetID:949080

[Difficulty]
HPDrainRate:2
CircleSize:2
OverallDifficulty:2
ApproachRate:3
SliderMultiplier:0.899999999999999
SliderTickRate:1

[Events]
//Background and Video events
0,0,"blobnomrave.jpg",0,0
//Break Periods
//Storyboard Layer 0 (Background)
//Storyboard Layer 1 (Fail)
//Storyboard Layer 2 (Pass)
//Storyboard Layer 3 (Foreground)
//Storyboard Sound Samples

[TimingPoints]
1782,324.324324324324,4,2,22,70,1,0
1782,-100,4,2,22,70,0,0
2754,-100,4,2,22,30,0,0
2917,-100,4,2,22,35,0,0
3079,-100,4,2,22,40,0,0
3241,-100,4,2,22,45,0,0
3403,-100,4,2,22,50,0,0
3565,-100,4,2,22,55,0,0
3727,-100,4,2,22,60,0,0
3890,-100,4,2,22,65,0,0
4052,-100,4,2,22,70,0,0
5349,-100,4,2,22,30,0,0
5512,-100,4,2,22,35,0,0
5674,-100,4,2,22,40,0,0
5836,-100,4,2,22,45,0,0
5998,-100,4,2,22,50,0,0
6160,-100,4,2,22,55,0,0
6322,-100,4,2,22,60,0,0
6485,-100,4,2,22,65,0,0
6647,-100,4,2,22,70,0,0
7944,-100,4,2,22,30,0,0
8107,-100,4,2,22,35,0,0
8269,-100,4,2,22,40,0,0
8431,-100,4,2,22,45,0,0
8593,-100,4,2,22,50,0,0
8755,-100,4,2,22,55,0,0
8917,-100,4,2,22,60,0,0
9080,-100,4,2,22,65,0,0
9242,-100,4,2,22,70,0,0
10782,-100,4,2,22,5,0,0
10863,-100,4,2,22,70,0,0
11673,-100,4,2,22,60,0,0
11836,-100,4,2,22,45,0,0
11998,-100,4,2,22,30,0,0
12160,-100,4,2,22,85,0,0
14673,-100,4,2,22,5,0,0
14754,-100,4,2,22,85,0,0
17268,-100,4,2,22,5,0,0
17349,-100,4,2,22,85,0,0
21484,-100,4,2,22,5,0,0
21565,-100,4,2,22,85,0,0
22538,-100,4,2,22,60,0,0
31863,-100,4,2,22,5,0,0
31944,-100,4,2,22,70,0,0
32187,-100,4,2,22,5,0,0
32268,-100,4,2,22,70,0,0
32917,-100,4,2,22,80,0,0
46538,324.324324324324,4,2,22,85,1,0
46538,-100,4,2,22,85,0,1
56592,-100,4,2,22,85,0,0
56916,-100,4,2,22,85,0,1
61781,-100,4,2,22,85,0,0
62105,-100,4,2,22,85,0,1
67294,-100,4,2,22,85,0,0
72483,-100,4,2,22,60,0,0
77592,-100,4,2,22,5,0,0
77673,-100,4,2,22,85,0,1
77754,-100,4,2,22,85,0,0
82781,-100,4,2,22,5,0,0
82862,-100,4,2,22,85,0,0
93159,-100,4,2,22,5,0,0
93240,-100,4,2,22,85,0,0
97132,-100,4,2,22,85,0,0
102808,-100,4,2,22,5,0,0

[Colours]
Combo1 : 255,183,219
Combo2 : 147,255,147
Combo3 : 255,255,113
Combo4 : 99,219,254
Combo5 : 255,130,130

[HitObjects]
59,75,1782,6,0,L|155:79,1,89.9999999999999,6|2,1:2|1:2,0:0:0:0:
204,149,2430,2,0,L|300:153,1,89.9999999999999,2|2,1:2|1:2,0:0:0:0:
366,98,3079,2,0,P|376:58|364:3,2,89.9999999999999,2|2|2,1:2|1:2|1:2,0:0:0:0:
293,152,4052,1,2,1:2:0:0:
330,233,4376,6,0,L|334:333,1,89.9999999999999,6|2,1:2|1:2,0:0:0:0:
245,343,5025,2,0,L|241:253,1,89.9999999999999,2|2,1:2|1:2,0:0:0:0:
183,184,5673,2,0,P|143:174|88:186,1,89.9999999999999,2|2,1:2|1:2,0:0:0:0:
18,228,6322,1,2,1:2:0:0:
36,315,6646,1,0,1:2:0:0:
125,326,6971,6,0,L|227:323,1,89.9999999999999,6|2,1:2|1:2,0:0:0:0:
257,244,7619,2,0,L|359:241,1,89.9999999999999,2|2,1:2|1:2,0:0:0:0:
417,297,8268,2,0,P|425:340|415:384,2,89.9999999999999,2|2|2,1:2|1:2|1:2,0:0:0:0:
346,240,9241,1,2,1:2:0:0:
373,155,9565,6,0,L|369:48,1,89.9999999999999,6|2,1:2|1:2,0:0:0:0:
280,53,10214,2,0,L|283:142,1,89.9999999999999,2|14,1:2|0:0,0:0:0:0:
240,222,10863,2,0,B|205:203|144:218|158:226|101:246|47:215,1,180,2|10,3:2|2:3,0:0:0:0:
0,158,11836,1,10,2:3:0:0:
41,78,12160,5,4,1:2:0:0:
130,89,12484,2,0,L|127:-15,2,89.9999999999999,10|2|10,0:0|1:2|0:0,0:0:0:0:
192,154,13457,1,0,1:2:0:0:
273,116,13781,2,0,P|316:107|360:117,2,89.9999999999999,10|2|10,0:0|1:2|0:0,0:0:0:0:
192,154,14754,6,0,L|194:243,1,89.9999999999999,6|10,1:2|0:0,0:0:0:0:
245,318,15403,2,0,P|288:328|332:319,1,89.9999999999999,2|10,1:2|0:0,0:0:0:0:
413,280,16052,2,0,B|435:225|435:225|415:104,1,180,2|2,1:2|1:2,0:0:0:0:
393,18,17025,1,10,0:0:0:0:
303,10,17349,5,4,1:2:0:0:
265,91,17673,2,0,L|270:191,2,89.9999999999999,10|2|10,0:0|1:2|0:0,0:0:0:0:
176,72,18646,2,0,L|181:172,1,89.9999999999999,2|10,1:2|0:0,0:0:0:0:
178,252,19295,2,0,P|134:260|90:250,1,89.9999999999999,2|10,1:2|0:0,0:0:0:0:
23,190,19944,6,0,L|20:92,1,89.9999999999999,10|10,0:0|0:0,0:0:0:0:
86,38,20592,2,0,P|129:29|173:39,1,89.9999999999999,10|8,0:0|0:0,0:0:0:0:
243,96,21241,1,14,0:0:0:0:
320,51,21565,1,14,0:0:0:0:
389,108,21890,2,0,L|384:213,1,89.9999999999999,2|2,1:2|1:2,0:0:0:0:
313,253,22538,6,0,L|308:358,2,89.9999999999999,6|2|2,1:2|1:2|1:2,0:0:0:0:
239,200,23511,1,2,1:2:0:0:
170,258,23836,2,0,P|126:266|82:256,1,89.9999999999999,2|2,1:2|1:2,0:0:0:0:
5,210,24484,2,0,L|9:119,1,89.9999999999999,2|0,1:2|1:2,0:0:0:0:
92,86,25133,6,0,P|83:42|93:-1,2,89.9999999999999,2|2|2,1:2|1:2|1:2,0:0:0:0:
149,155,26106,1,2,1:2:0:0:
229,115,26430,2,0,L|329:118,1,89.9999999999999,2|2,1:2|1:2,0:0:0:0:
369,192,27079,2,0,B|405:184|405:184|445:196,1,67.4999999999999,2|0,3:2|3:2,0:0:0:0:
500,283,27727,6,0,L|496:377,2,89.9999999999999,6|2|2,1:2|1:2|1:2,0:0:0:0:
409,281,28700,1,2,1:2:0:0:
352,350,29025,2,0,P|308:358|264:348,1,89.9999999999999,2|2,1:2|1:2,0:0:0:0:
190,297,29673,1,2,1:2:0:0:
217,211,29998,1,2,1:2:0:0:
306,210,30322,6,0,L|303:108,1,89.9999999999999,2|2,1:2|1:2,0:0:0:0:
256,42,30971,2,0,P|212:31|168:40,1,89.9999999999999,2|2,1:2|1:2,0:0:0:0:
106,105,31619,2,0,L|107:208,1,89.9999999999999,2|4,1:2|1:2,0:0:0:0:
48,264,32268,1,0,1:2:0:0:
94,341,32592,1,0,1:2:0:0:
181,320,32917,6,0,P|225:331|269:322,1,89.9999999999999,6|10,1:2|0:0,0:0:0:0:
333,261,33565,2,0,P|344:217|335:173,1,89.9999999999999,2|2,1:2|0:0,0:0:0:0:
276,105,34214,2,0,L|278:5,2,89.9999999999999,2|10|2,0:0|0:0|1:2,0:0:0:0:
195,146,35187,1,8,0:0:0:0:
130,83,35511,6,0,P|86:72|42:81,1,89.9999999999999,2|10,1:2|0:0,0:0:0:0:
4,162,36160,2,0,L|8:263,1,89.9999999999999,2|2,1:2|0:0,0:0:0:0:
88,292,36809,2,0,L|92:393,2,89.9999999999999,2|10|2,0:0|0:0|1:2,0:0:0:0:
156,234,37781,1,8,0:0:0:0:
239,267,38106,6,0,P|283:278|327:269,1,89.9999999999999,2|10,1:2|0:0,0:0:0:0:
394,211,38754,2,0,L|387:105,1,89.9999999999999,2|2,1:2|0:0,0:0:0:0:
476,101,39403,2,0,L|486:281,1,180,2|2,0:0|0:0,0:0:0:0:
322,356,40700,6,0,P|279:364|235:353,1,89.9999999999999,6|8,1:2|0:0,0:0:0:0:
171,288,41349,2,0,B|154:224|154:224|192:112,1,180,2|0,1:2|1:2,0:0:0:0:
165,29,42322,1,8,0:0:0:0:
76,41,42646,2,0,L|70:148,1,89.9999999999999,2|8,1:2|0:0,0:0:0:0:
4,191,43295,6,0,L|-2:298,1,89.9999999999999,6|0,1:2|1:2,0:0:0:0:
59,348,43944,2,0,P|102:340|146:351,1,89.9999999999999,10|8,0:0|0:0,0:0:0:0:
235,346,44592,1,14,0:0:0:0:
258,259,44917,1,10,3:2:0:0:
184,207,45241,6,0,B|169:140|169:140|209:35,1,180,10|2,3:2|1:2,0:0:0:0:
388,26,46538,6,0,L|390:126,1,89.9999999999999,6|10,1:2|0:0,0:0:0:0:
451,181,47186,1,2,1:2:0:0:
412,262,47510,1,10,0:0:0:0:
322,249,47835,2,0,B|287:230|226:245|240:253|183:273|129:242,1,180,2|2,1:2|1:2,0:0:0:0:
67,204,48808,1,10,0:0:0:0:
104,122,49132,6,0,L|102:23,2,89.9999999999999,2|10|2,1:2|0:0|1:2,0:0:0:0:
184,163,50105,1,10,0:0:0:0:
235,89,50429,2,0,P|270:190|216:250,1,180,2|0,1:2|1:2,0:0:0:0:
151,281,51402,1,10,0:0:0:0:
176,367,51727,6,0,L|277:362,2,89.9999999999999,6|10|2,1:2|0:0|1:2,0:0:0:0:
87,382,52700,1,10,0:0:0:0:
38,305,53024,2,0,B|17:243|17:243|45:125,1,180,2|2,1:2|1:2,0:0:0:0:
38,41,53997,1,10,0:0:0:0:
123,14,54321,6,0,L|227:18,1,89.9999999999999,2|10,1:2|0:0,0:0:0:0:
247,100,54970,2,0,L|351:104,1,89.9999999999999,2|10,1:2|0:0,0:0:0:0:
425,87,55619,2,0,P|436:43|428:0,2,89.9999999999999,10|10|2,0:0|0:0|1:2,0:0:0:0:
467,166,56592,1,10,3:2:0:0:
409,234,56916,6,0,L|412:339,2,89.9999999999999,6|10|2,1:2|0:0|1:2,0:0:0:0:
328,192,57889,1,10,0:0:0:0:
259,250,58213,2,0,B|235:208|235:208|261:73,1,180,2|2,1:2|1:2,0:0:0:0:
205,6,59186,1,10,0:0:0:0:
124,45,59510,6,0,L|126:147,1,89.9999999999999,2|10,1:2|0:0,0:0:0:0:
49,183,60159,2,0,L|51:285,1,89.9999999999999,2|10,1:2|0:0,0:0:0:0:
105,344,60808,2,0,B|192:343|192:343|197:339|197:339|293:337,1,180,2|2,1:2|1:2,0:0:0:0:
365,374,61781,1,8,0:0:0:0:
431,313,62105,6,0,L|425:209,1,89.9999999999999,14|10,0:0|0:0,0:0:0:0:
366,155,62754,1,10,0:0:0:0:
414,79,63078,1,10,0:0:0:0:
349,16,63402,2,0,P|305:4|261:12,1,89.9999999999999,10|8,0:0|0:0,0:0:0:0:
194,71,64051,1,10,0:0:0:0:
239,148,64375,1,10,0:0:0:0:
191,224,64700,6,0,L|187:322,2,89.9999999999999,14|10|10,0:0|0:0|0:0,0:0:0:0:
125,161,65673,1,10,0:0:0:0:
44,201,65997,2,0,L|40:299,1,89.9999999999999,14|8,0:0|0:0,0:0:0:0:
92,364,66646,2,0,P|136:376|180:368,1,89.9999999999999,10|0,0:0|1:2,0:0:0:0:
249,311,67294,6,0,L|446:322,1,180,6|2,1:2|2:3,0:0:0:0:
509,159,68592,2,0,L|329:148,1,180,6|2,1:2|0:0,0:0:0:0:
268,81,69565,1,2,0:0:0:0:
189,124,69889,6,0,B|158:179|158:179|180:312,2,180,2|6|6,1:2|1:2|1:2,0:0:0:0:
339,24,71835,2,0,L|439:26,1,89.9999999999999,2|0,3:2|3:2,0:0:0:0:
500,79,72483,5,6,1:2:0:0:
423,242,73132,2,0,P|378:249|335:237,1,89.9999999999999,2|2,0:0|0:0,0:0:0:0:
271,174,73781,1,2,0:0:0:0:
150,307,74429,2,0,L|44:304,1,89.9999999999999,2|2,0:0|0:0,0:0:0:0:
40,216,75078,6,0,L|129:218,1,89.9999999999999,2|2,0:0|0:0,0:0:0:0:
183,146,75727,1,2,0:0:0:0:
335,237,76375,1,2,0:0:0:0:
335,237,77673,5,6,1:2:0:0:
386,163,77997,2,0,L|478:167,2,89.9999999999999,10|2|10,0:0|1:2|0:0,0:0:0:0:
331,91,78970,1,0,1:2:0:0:
245,119,79294,2,0,L|155:115,2,89.9999999999999,10|2|10,0:0|1:2|0:0,0:0:0:0:
245,209,80267,6,0,P|252:253|240:296,1,89.9999999999999,6|10,1:2|0:0,0:0:0:0:
162,341,80916,2,0,L|62:336,1,89.9999999999999,2|10,1:2|0:0,0:0:0:0:
7,274,81565,2,0,B|-12:208|-12:208|27:93,1,180,0|2,1:2|1:2,0:0:0:0:
72,27,82537,1,8,0:0:0:0:
160,44,82862,5,4,1:2:0:0:
171,133,83186,2,0,L|162:239,2,89.9999999999999,10|2|10,0:0|1:2|0:0,0:0:0:0:
259,114,84159,1,0,1:2:0:0:
303,192,84483,2,0,L|294:298,2,89.9999999999999,10|2|10,0:0|1:2|0:0,0:0:0:0:
381,146,85456,6,0,P|425:139|468:151,1,89.9999999999999,10|10,0:0|0:0,0:0:0:0:
497,236,86105,2,0,L|491:337,1,89.9999999999999,10|10,3:2|3:2,0:0:0:0:
415,373,86754,1,6,0:0:0:0:
346,315,87078,1,8,0:0:0:0:
266,357,87402,2,0,L|158:353,1,89.9999999999999,0|0,1:2|1:2,0:0:0:0:
118,283,88051,5,6,1:2:0:0:
179,217,88375,2,0,P|191:173|184:129,1,89.9999999999999,10|2,0:0|1:2,0:0:0:0:
106,83,89024,2,0,P|182:38|266:93,1,180,10|10,0:0|0:0,0:0:0:0:
319,140,89997,1,2,1:2:0:0:
403,108,90321,1,10,0:0:0:0:
450,184,90646,6,0,L|444:292,1,89.9999999999999,6|10,1:2|0:0,0:0:0:0:
379,335,91294,2,0,P|334:341|291:329,1,89.9999999999999,2|10,1:2|0:0,0:0:0:0:
224,270,91943,2,0,B|206:207|206:207|241:89,1,180,2|2,1:2|1:2,0:0:0:0:
202,14,92916,1,8,0:0:0:0:
119,49,93240,5,4,1:2:0:0:
32,24,93565,2,0,L|34:129,1,89.9999999999999,10|10,0:0|0:0,0:0:0:0:
88,185,94213,1,10,0:0:0:0:
28,252,94537,2,0,L|30:357,1,89.9999999999999,2|10,0:0|0:0,0:0:0:0:
117,361,95186,2,0,L|115:271,1,89.9999999999999,10|10,0:0|0:0,0:0:0:0:
178,207,95835,6,0,B|232:183|232:183|361:205,1,180,10|2,0:0|1:2,0:0:0:0:
468,340,97132,1,6,1:2:0:0:
256,192,97294,12,0,102808,0:0:0:0:
