osu file format v14

[General]
AudioFilename: audio.mp3
AudioLeadIn: 0
PreviewTime: 127943
Countdown: 0
SampleSet: Soft
StackLeniency: 0.7
Mode: 3
LetterboxInBreaks: 0
SpecialStyle: 0
WidescreenStoryboard: 1

[Editor]
Bookmarks: 126970
DistanceSpacing: 1
BeatDivisor: 4
GridSize: 4
TimelineZoom: 2.7

[Metadata]
Title:Ao To Natsu
TitleUnicode:青と夏
Artist:Mrs. GREEN APPLE
ArtistUnicode:Mrs. GREEN APPLE
Creator:emO_Oticon
Version:Our Blue Has Begun
Source:青夏 きみに恋した30日
Tags:j pop jpop j-pop japanese pop blue and summer days in love with you ost original soundtrack ao natsu: kimi ni koi shita thirty nichi ミセスグリーンアップル motoki omori 大森元貴 hiroto wakai 若井滉斗 ayaka yamanaka 山中綾華 ryoka fujisawa 藤澤涼架
BeatmapID:4222185
BeatmapSetID:1510465

[Difficulty]
HPDrainRate:8
CircleSize:4
OverallDifficulty:7
ApproachRate:5
SliderMultiplier:1.4
SliderTickRate:1

[Events]
//Background and Video events
0,0,"223.jpg",0,0
//Break Periods
//Storyboard Layer 0 (Background)
//Storyboard Layer 1 (Fail)
//Storyboard Layer 2 (Pass)
//Storyboard Layer 3 (Foreground)
//Storyboard Layer 4 (Overlay)
//Storyboard Sound Samples

[TimingPoints]
565,324.324324324324,4,2,0,0,1,0
1781,324.324324324324,4,2,0,0,1,0
46537,-100,4,2,0,0,0,1
67294,-100,4,2,0,0,0,0
126970,-285.714285714286,4,2,0,0,0,0
127618,-200,4,2,0,0,0,0
127699,-153.846153846154,4,2,0,0,0,0
127780,-125,4,2,0,0,0,0
127862,-105.263157894737,4,2,0,0,0,0
127943,-100,4,2,0,0,0,0
128267,-100,4,2,0,0,0,1
147726,-100,4,2,0,0,0,0
212591,-100,4,2,0,0,0,1
233348,-100,4,2,0,0,0,0

[HitObjects]
64,192,565,128,0,1537:0:0:0:0:
448,192,565,128,0,1537:0:0:0:0:
320,192,1619,1,0,0:0:0:0:
448,192,1619,1,0,0:0:0:0:
64,192,1700,1,0,0:0:0:0:
192,192,1700,1,0,0:0:0:0:
320,192,1781,128,0,2186:0:0:0:0:
64,192,1781,128,0,2024:0:0:0:0:
448,192,1781,128,0,2024:0:0:0:0:
64,192,2105,128,0,2186:0:0:0:0:
448,192,2105,128,0,2348:0:0:0:0:
192,192,2105,1,0,0:0:0:0:
192,192,2267,128,0,2348:0:0:0:0:
64,192,2267,1,0,0:0:0:0:
320,192,2267,128,0,2510:0:0:0:0:
192,192,2429,1,0,0:0:0:0:
64,192,2429,128,0,2510:0:0:0:0:
448,192,2429,128,0,2672:0:0:0:0:
192,192,2591,128,0,2672:0:0:0:0:
64,192,2591,1,0,0:0:0:0:
320,192,2591,128,0,2835:0:0:0:0:
64,192,2753,128,0,2835:0:0:0:0:
192,192,2753,128,0,2997:0:0:0:0:
448,192,2753,128,0,2835:0:0:0:0:
64,192,2916,1,0,0:0:0:0:
448,192,2916,1,0,0:0:0:0:
320,192,2916,128,0,2997:0:0:0:0:
64,192,3078,128,0,3645:0:0:0:0:
192,192,3078,128,0,3483:0:0:0:0:
448,192,3078,128,0,3159:0:0:0:0:
320,192,3078,1,0,0:0:0:0:
320,192,3240,128,0,3321:0:0:0:0:
448,192,3240,1,0,0:0:0:0:
448,192,3402,128,0,3483:0:0:0:0:
320,192,3402,1,0,0:0:0:0:
320,192,3564,128,0,3645:0:0:0:0:
192,192,3564,1,0,0:0:0:0:
448,192,3564,1,0,0:0:0:0:
448,192,3726,128,0,3970:0:0:0:0:
192,192,3726,128,0,3808:0:0:0:0:
64,192,3726,1,0,0:0:0:0:
320,192,3726,1,0,0:0:0:0:
320,192,3889,128,0,4132:0:0:0:0:
64,192,3889,128,0,3970:0:0:0:0:
192,192,3889,1,0,0:0:0:0:
192,192,4051,128,0,4294:0:0:0:0:
448,192,4051,128,0,4132:0:0:0:0:
64,192,4051,1,0,0:0:0:0:
64,192,4213,128,0,4294:0:0:0:0:
320,192,4213,128,0,4294:0:0:0:0:
448,192,4213,1,0,0:0:0:0:
64,192,4375,128,0,4618:0:0:0:0:
320,192,4375,128,0,4618:0:0:0:0:
192,192,4375,128,0,4618:0:0:0:0:
448,192,4375,128,0,4618:0:0:0:0:
64,192,4699,1,0,0:0:0:0:
448,192,4699,1,0,0:0:0:0:
320,192,4699,128,0,4780:0:0:0:0:
192,192,4780,128,0,4943:0:0:0:0:
448,192,4862,128,0,4943:0:0:0:0:
64,192,4862,1,0,0:0:0:0:
320,192,4943,128,0,5105:0:0:0:0:
64,192,5024,128,0,5105:0:0:0:0:
448,192,5024,1,0,0:0:0:0:
192,192,5105,128,0,5267:0:0:0:0:
448,192,5186,128,0,5267:0:0:0:0:
64,192,5186,1,0,0:0:0:0:
320,192,5267,128,0,5429:0:0:0:0:
64,192,5348,128,0,5429:0:0:0:0:
448,192,5348,1,0,0:0:0:0:
192,192,5429,128,0,5591:0:0:0:0:
64,192,5510,1,0,0:0:0:0:
448,192,5510,1,0,0:0:0:0:
320,192,5591,128,0,5672:0:0:0:0:
448,192,5672,128,0,5916:0:0:0:0:
64,192,5672,128,0,5753:0:0:0:0:
192,192,5753,128,0,5835:0:0:0:0:
320,192,5835,128,0,5916:0:0:0:0:
64,192,5835,1,0,0:0:0:0:
192,192,5916,128,0,5997:0:0:0:0:
64,192,5997,128,0,6240:0:0:0:0:
448,192,5997,128,0,6078:0:0:0:0:
320,192,6078,128,0,6159:0:0:0:0:
192,192,6159,128,0,6240:0:0:0:0:
448,192,6159,1,0,0:0:0:0:
320,192,6240,128,0,6321:0:0:0:0:
448,192,6321,128,0,6402:0:0:0:0:
64,192,6321,128,0,6402:0:0:0:0:
192,192,6402,128,0,6483:0:0:0:0:
64,192,6483,1,0,0:0:0:0:
448,192,6483,1,0,0:0:0:0:
320,192,6483,128,0,6564:0:0:0:0:
192,192,6564,128,0,6726:0:0:0:0:
64,192,6645,128,0,6726:0:0:0:0:
448,192,6645,128,0,6726:0:0:0:0:
320,192,6645,1,0,0:0:0:0:
320,192,6808,128,0,6889:0:0:0:0:
448,192,6808,1,0,0:0:0:0:
64,192,6808,1,0,0:0:0:0:
192,192,6808,1,0,0:0:0:0:
64,192,6970,128,0,7213:0:0:0:0:
448,192,6970,128,0,7537:0:0:0:0:
192,192,6970,128,0,7051:0:0:0:0:
320,192,6970,1,0,0:0:0:0:
192,192,7132,128,0,7375:0:0:0:0:
320,192,7294,128,0,7537:0:0:0:0:
64,192,7294,1,0,0:0:0:0:
64,192,7456,128,0,7699:0:0:0:0:
192,192,7456,1,0,0:0:0:0:
320,192,7618,128,0,7862:0:0:0:0:
448,192,7618,1,0,0:0:0:0:
192,192,7618,128,0,7699:0:0:0:0:
192,192,7780,128,0,8024:0:0:0:0:
64,192,7780,1,0,0:0:0:0:
448,192,7780,128,0,7862:0:0:0:0:
64,192,7943,128,0,8186:0:0:0:0:
320,192,7943,128,0,8024:0:0:0:0:
448,192,7943,1,0,0:0:0:0:
320,192,8105,1,0,0:0:0:0:
192,192,8105,128,0,8186:0:0:0:0:
448,192,8105,128,0,8186:0:0:0:0:
64,192,8267,128,0,8510:0:0:0:0:
448,192,8267,128,0,8835:0:0:0:0:
320,192,8267,128,0,8348:0:0:0:0:
192,192,8267,1,0,0:0:0:0:
192,192,8429,128,0,8672:0:0:0:0:
320,192,8429,1,0,0:0:0:0:
320,192,8591,128,0,8835:0:0:0:0:
64,192,8591,1,0,0:0:0:0:
64,192,8753,128,0,8997:0:0:0:0:
192,192,8753,1,0,0:0:0:0:
320,192,8916,128,0,9159:0:0:0:0:
192,192,8916,128,0,8997:0:0:0:0:
448,192,8916,128,0,8997:0:0:0:0:
192,192,9078,128,0,9321:0:0:0:0:
64,192,9078,1,0,0:0:0:0:
448,192,9078,1,0,0:0:0:0:
64,192,9240,128,0,9483:0:0:0:0:
320,192,9240,1,0,0:0:0:0:
448,192,9240,128,0,9321:0:0:0:0:
320,192,9402,128,0,9483:0:0:0:0:
192,192,9402,1,0,0:0:0:0:
448,192,9402,1,0,0:0:0:0:
64,192,9564,1,0,0:0:0:0:
192,192,9564,128,0,9645:0:0:0:0:
320,192,9564,1,0,0:0:0:0:
448,192,9564,1,0,0:0:0:0:
320,192,9645,128,0,9808:0:0:0:0:
448,192,9645,128,0,9808:0:0:0:0:
64,192,9726,128,0,9808:0:0:0:0:
192,192,9726,1,0,0:0:0:0:
448,192,9889,128,0,10132:0:0:0:0:
64,192,9889,128,0,10132:0:0:0:0:
192,192,9889,128,0,10132:0:0:0:0:
320,192,9889,1,0,0:0:0:0:
320,192,10213,128,0,10456:0:0:0:0:
448,192,10213,128,0,10456:0:0:0:0:
64,192,10213,1,0,0:0:0:0:
192,192,10294,128,0,10456:0:0:0:0:
64,192,10375,128,0,10456:0:0:0:0:
320,192,10537,128,0,10780:0:0:0:0:
64,192,10537,128,0,10780:0:0:0:0:
448,192,10537,128,0,10780:0:0:0:0:
192,192,10537,128,0,10780:0:0:0:0:
64,192,10862,128,0,10943:0:0:0:0:
192,192,10862,1,0,0:0:0:0:
448,192,10943,128,0,11024:0:0:0:0:
320,192,10943,1,0,0:0:0:0:
192,192,11024,128,0,11105:0:0:0:0:
64,192,11024,1,0,0:0:0:0:
320,192,11105,128,0,11186:0:0:0:0:
448,192,11105,1,0,0:0:0:0:
64,192,11186,128,0,11348:0:0:0:0:
192,192,11186,1,0,0:0:0:0:
448,192,11267,128,0,11429:0:0:0:0:
320,192,11267,1,0,0:0:0:0:
192,192,11348,128,0,11429:0:0:0:0:
320,192,11429,128,0,11510:0:0:0:0:
448,192,11510,1,0,0:0:0:0:
64,192,11510,1,0,0:0:0:0:
320,192,11652,1,0,0:0:0:0:
192,192,11672,1,0,0:0:0:0:
448,192,11814,1,0,0:0:0:0:
64,192,11835,1,0,0:0:0:0:
320,192,11976,1,0,0:0:0:0:
192,192,11997,1,0,0:0:0:0:
448,192,12159,128,0,12240:0:0:0:0:
64,192,12159,128,0,12240:0:0:0:0:
320,192,12240,128,0,12321:0:0:0:0:
192,192,12321,128,0,12402:0:0:0:0:
448,192,12321,1,0,0:0:0:0:
64,192,12321,1,0,0:0:0:0:
320,192,12402,128,0,12483:0:0:0:0:
64,192,12483,128,0,12564:0:0:0:0:
448,192,12483,128,0,12564:0:0:0:0:
192,192,12564,128,0,12645:0:0:0:0:
320,192,12645,128,0,12726:0:0:0:0:
64,192,12645,1,0,0:0:0:0:
448,192,12645,1,0,0:0:0:0:
192,192,12726,128,0,12808:0:0:0:0:
448,192,12808,128,0,12889:0:0:0:0:
64,192,12808,128,0,12889:0:0:0:0:
320,192,12889,128,0,12970:0:0:0:0:
192,192,12970,128,0,13051:0:0:0:0:
64,192,12970,1,0,0:0:0:0:
448,192,12970,1,0,0:0:0:0:
320,192,13051,128,0,13132:0:0:0:0:
64,192,13132,128,0,13213:0:0:0:0:
448,192,13132,128,0,13213:0:0:0:0:
192,192,13213,128,0,13294:0:0:0:0:
320,192,13294,128,0,13375:0:0:0:0:
64,192,13294,1,0,0:0:0:0:
448,192,13294,1,0,0:0:0:0:
192,192,13375,128,0,13456:0:0:0:0:
448,192,13456,128,0,13618:0:0:0:0:
64,192,13456,128,0,13537:0:0:0:0:
320,192,13537,128,0,13699:0:0:0:0:
192,192,13618,128,0,13780:0:0:0:0:
64,192,13618,1,0,0:0:0:0:
448,192,13699,1,0,0:0:0:0:
64,192,13780,128,0,13943:0:0:0:0:
320,192,13780,1,0,0:0:0:0:
192,192,13862,128,0,14024:0:0:0:0:
320,192,13943,128,0,14105:0:0:0:0:
448,192,13943,1,0,0:0:0:0:
64,192,14024,1,0,0:0:0:0:
448,192,14105,128,0,14267:0:0:0:0:
192,192,14105,1,0,0:0:0:0:
320,192,14186,128,0,14348:0:0:0:0:
192,192,14267,128,0,14429:0:0:0:0:
64,192,14267,1,0,0:0:0:0:
448,192,14348,1,0,0:0:0:0:
64,192,14429,128,0,14591:0:0:0:0:
320,192,14429,1,0,0:0:0:0:
192,192,14510,128,0,14672:0:0:0:0:
320,192,14591,128,0,14753:0:0:0:0:
448,192,14591,1,0,0:0:0:0:
64,192,14753,128,0,14997:0:0:0:0:
192,192,14753,1,0,0:0:0:0:
448,192,14753,1,0,0:0:0:0:
320,192,14835,1,0,0:0:0:0:
192,192,14916,128,0,14997:0:0:0:0:
448,192,14916,1,0,0:0:0:0:
320,192,14997,128,0,15159:0:0:0:0:
448,192,15078,128,0,15321:0:0:0:0:
192,192,15078,128,0,15159:0:0:0:0:
64,192,15078,1,0,0:0:0:0:
320,192,15240,128,0,15321:0:0:0:0:
192,192,15240,1,0,0:0:0:0:
64,192,15240,128,0,15321:0:0:0:0:
448,192,15402,128,0,15645:0:0:0:0:
320,192,15402,1,0,0:0:0:0:
64,192,15402,1,0,0:0:0:0:
192,192,15483,1,0,0:0:0:0:
320,192,15564,128,0,15645:0:0:0:0:
64,192,15564,1,0,0:0:0:0:
192,192,15645,128,0,15808:0:0:0:0:
64,192,15726,128,0,15970:0:0:0:0:
320,192,15726,128,0,15808:0:0:0:0:
448,192,15726,1,0,0:0:0:0:
192,192,15889,128,0,15970:0:0:0:0:
320,192,15889,1,0,0:0:0:0:
448,192,15889,128,0,15970:0:0:0:0:
192,192,16051,128,0,16132:0:0:0:0:
64,192,16051,1,0,0:0:0:0:
320,192,16132,128,0,16294:0:0:0:0:
448,192,16132,1,0,0:0:0:0:
192,192,16213,1,0,0:0:0:0:
64,192,16213,128,0,16375:0:0:0:0:
448,192,16294,128,0,16456:0:0:0:0:
192,192,16375,128,0,16537:0:0:0:0:
320,192,16375,1,0,0:0:0:0:
64,192,16456,1,0,0:0:0:0:
320,192,16537,128,0,16618:0:0:0:0:
448,192,16537,1,0,0:0:0:0:
192,192,16618,128,0,16821:0:0:0:0:
64,192,16618,128,0,16659:0:0:0:0:
448,192,16699,128,0,16902:0:0:0:0:
320,192,16699,128,0,16780:0:0:0:0:
64,192,16780,128,0,16862:0:0:0:0:
320,192,16862,128,0,16943:0:0:0:0:
64,192,16943,128,0,16983:0:0:0:0:
192,192,16943,128,0,17145:0:0:0:0:
448,192,17024,128,0,17186:0:0:0:0:
320,192,17024,128,0,17105:0:0:0:0:
64,192,17105,128,0,17186:0:0:0:0:
320,192,17186,128,0,17267:0:0:0:0:
192,192,17267,128,0,17348:0:0:0:0:
64,192,17348,128,0,17429:0:0:0:0:
320,192,17348,128,0,17591:0:0:0:0:
448,192,17348,128,0,17591:0:0:0:0:
64,192,17510,1,0,0:0:0:0:
192,192,17510,1,0,0:0:0:0:
64,192,17672,128,0,17753:0:0:0:0:
192,192,17672,128,0,17835:0:0:0:0:
448,192,17672,1,0,0:0:0:0:
320,192,17753,128,0,17916:0:0:0:0:
448,192,17835,128,0,18078:0:0:0:0:
64,192,17835,1,0,0:0:0:0:
192,192,17916,1,0,0:0:0:0:
320,192,17997,128,0,18159:0:0:0:0:
64,192,17997,1,0,0:0:0:0:
192,192,18078,128,0,18240:0:0:0:0:
64,192,18159,128,0,18402:0:0:0:0:
448,192,18159,1,0,0:0:0:0:
320,192,18240,1,0,0:0:0:0:
192,192,18321,128,0,18483:0:0:0:0:
448,192,18321,1,0,0:0:0:0:
320,192,18402,128,0,18564:0:0:0:0:
448,192,18483,128,0,18645:0:0:0:0:
64,192,18483,1,0,0:0:0:0:
192,192,18564,128,0,18645:0:0:0:0:
64,192,18645,128,0,18808:0:0:0:0:
320,192,18645,1,0,0:0:0:0:
192,192,18726,128,0,18889:0:0:0:0:
448,192,18726,1,0,0:0:0:0:
320,192,18808,128,0,18970:0:0:0:0:
448,192,18889,128,0,19132:0:0:0:0:
64,192,18889,1,0,0:0:0:0:
192,192,18970,1,0,0:0:0:0:
320,192,19051,128,0,19213:0:0:0:0:
64,192,19051,1,0,0:0:0:0:
192,192,19132,128,0,19294:0:0:0:0:
64,192,19213,128,0,19456:0:0:0:0:
448,192,19213,1,0,0:0:0:0:
320,192,19294,1,0,0:0:0:0:
192,192,19375,128,0,19537:0:0:0:0:
448,192,19375,1,0,0:0:0:0:
320,192,19456,128,0,19618:0:0:0:0:
448,192,19537,128,0,19780:0:0:0:0:
64,192,19537,1,0,0:0:0:0:
192,192,19618,1,0,0:0:0:0:
320,192,19699,128,0,19862:0:0:0:0:
64,192,19699,1,0,0:0:0:0:
192,192,19780,128,0,19943:0:0:0:0:
64,192,19943,128,0,20024:0:0:0:0:
448,192,19943,128,0,20186:0:0:0:0:
320,192,19943,1,0,0:0:0:0:
192,192,20024,128,0,20105:0:0:0:0:
320,192,20105,128,0,20186:0:0:0:0:
64,192,20105,1,0,0:0:0:0:
192,192,20186,1,0,0:0:0:0:
448,192,20267,128,0,20510:0:0:0:0:
64,192,20267,128,0,20348:0:0:0:0:
320,192,20267,1,0,0:0:0:0:
192,192,20348,128,0,20429:0:0:0:0:
320,192,20429,128,0,20510:0:0:0:0:
64,192,20429,1,0,0:0:0:0:
192,192,20510,1,0,0:0:0:0:
64,192,20591,128,0,20753:0:0:0:0:
320,192,20591,128,0,20672:0:0:0:0:
448,192,20672,128,0,20916:0:0:0:0:
192,192,20753,128,0,20835:0:0:0:0:
320,192,20753,1,0,0:0:0:0:
64,192,20835,128,0,21078:0:0:0:0:
320,192,20916,128,0,20997:0:0:0:0:
192,192,20916,1,0,0:0:0:0:
448,192,20997,128,0,21159:0:0:0:0:
192,192,21078,128,0,21159:0:0:0:0:
320,192,21078,1,0,0:0:0:0:
64,192,21159,128,0,21402:0:0:0:0:
192,192,21240,128,0,21402:0:0:0:0:
320,192,21240,128,0,21402:0:0:0:0:
448,192,21240,128,0,21402:0:0:0:0:
192,192,21483,1,0,0:0:0:0:
320,192,21483,1,0,0:0:0:0:
192,192,21564,128,0,21889:0:0:0:0:
320,192,21564,128,0,22051:0:0:0:0:
64,192,21564,128,0,21808:0:0:0:0:
448,192,21564,128,0,21808:0:0:0:0:
64,192,21889,1,0,0:0:0:0:
448,192,21889,128,0,21970:0:0:0:0:
192,192,21970,1,0,0:0:0:0:
448,192,22051,1,0,0:0:0:0:
64,192,22051,128,0,22132:0:0:0:0:
192,192,22132,1,0,0:0:0:0:
320,192,22132,128,0,22213:0:0:0:0:
64,192,22213,128,0,22294:0:0:0:0:
448,192,22213,128,0,22294:0:0:0:0:
192,192,22375,128,0,22456:0:0:0:0:
320,192,22375,128,0,22456:0:0:0:0:
448,192,22537,128,0,22780:0:0:0:0:
320,192,22537,1,0,0:0:0:0:
64,192,22537,128,0,22780:0:0:0:0:
192,192,22699,1,0,0:0:0:0:
320,192,22862,128,0,23105:0:0:0:0:
448,192,22862,1,0,0:0:0:0:
64,192,22862,1,0,0:0:0:0:
192,192,23024,1,0,0:0:0:0:
448,192,23186,128,0,23429:0:0:0:0:
64,192,23186,1,0,0:0:0:0:
320,192,23186,1,0,0:0:0:0:
192,192,23348,1,0,0:0:0:0:
64,192,23510,1,0,0:0:0:0:
448,192,23510,128,0,23591:0:0:0:0:
320,192,23510,1,0,0:0:0:0:
320,192,23672,128,0,23753:0:0:0:0:
192,192,23672,1,0,0:0:0:0:
64,192,23835,128,0,24159:0:0:0:0:
192,192,23835,128,0,23916:0:0:0:0:
448,192,23835,1,0,0:0:0:0:
320,192,23835,1,0,0:0:0:0:
320,192,23997,128,0,24159:0:0:0:0:
448,192,24159,1,0,0:0:0:0:
192,192,24159,128,0,24321:0:0:0:0:
320,192,24321,128,0,24483:0:0:0:0:
64,192,24483,128,0,24808:0:0:0:0:
192,192,24483,1,0,0:0:0:0:
448,192,24483,1,0,0:0:0:0:
320,192,24645,128,0,24808:0:0:0:0:
192,192,24808,128,0,24970:0:0:0:0:
448,192,24808,1,0,0:0:0:0:
320,192,24970,128,0,25132:0:0:0:0:
64,192,25132,128,0,25375:0:0:0:0:
192,192,25132,1,0,0:0:0:0:
448,192,25132,1,0,0:0:0:0:
320,192,25294,1,0,0:0:0:0:
448,192,25456,1,0,0:0:0:0:
64,192,25456,1,0,0:0:0:0:
192,192,25456,128,0,25699:0:0:0:0:
320,192,25618,1,0,0:0:0:0:
64,192,25780,128,0,26024:0:0:0:0:
448,192,25780,1,0,0:0:0:0:
192,192,25780,1,0,0:0:0:0:
320,192,25943,1,0,0:0:0:0:
448,192,26105,1,0,0:0:0:0:
64,192,26105,128,0,26186:0:0:0:0:
192,192,26105,1,0,0:0:0:0:
192,192,26267,128,0,26348:0:0:0:0:
320,192,26267,1,0,0:0:0:0:
64,192,26429,128,0,26672:0:0:0:0:
448,192,26429,128,0,26510:0:0:0:0:
192,192,26429,1,0,0:0:0:0:
320,192,26591,128,0,26672:0:0:0:0:
448,192,26753,128,0,26997:0:0:0:0:
64,192,26753,128,0,26835:0:0:0:0:
320,192,26753,1,0,0:0:0:0:
192,192,26916,128,0,26997:0:0:0:0:
320,192,27058,1,0,0:0:0:0:
448,192,27078,128,0,27240:0:0:0:0:
64,192,27078,128,0,27240:0:0:0:0:
192,192,27078,1,0,0:0:0:0:
192,192,27301,1,0,0:0:0:0:
64,192,27321,128,0,27483:0:0:0:0:
448,192,27321,128,0,27483:0:0:0:0:
320,192,27321,1,0,0:0:0:0:
320,192,27544,1,0,0:0:0:0:
64,192,27564,1,0,0:0:0:0:
448,192,27564,1,0,0:0:0:0:
192,192,27564,1,0,0:0:0:0:
64,192,27726,128,0,27970:0:0:0:0:
320,192,27726,1,0,0:0:0:0:
448,192,27726,128,0,27970:0:0:0:0:
192,192,27889,128,0,27970:0:0:0:0:
192,192,28051,128,0,28294:0:0:0:0:
64,192,28051,1,0,0:0:0:0:
448,192,28051,1,0,0:0:0:0:
320,192,28213,128,0,28294:0:0:0:0:
320,192,28375,128,0,28618:0:0:0:0:
64,192,28375,1,0,0:0:0:0:
448,192,28375,1,0,0:0:0:0:
192,192,28537,128,0,28618:0:0:0:0:
448,192,28699,1,0,0:0:0:0:
64,192,28699,1,0,0:0:0:0:
192,192,28780,1,0,0:0:0:0:
320,192,28780,1,0,0:0:0:0:
448,192,28862,1,0,0:0:0:0:
64,192,28862,1,0,0:0:0:0:
64,192,29024,1,0,0:0:0:0:
192,192,29024,1,0,0:0:0:0:
448,192,29024,128,0,29267:0:0:0:0:
320,192,29186,128,0,29267:0:0:0:0:
320,192,29348,128,0,29591:0:0:0:0:
448,192,29348,1,0,0:0:0:0:
64,192,29348,1,0,0:0:0:0:
192,192,29510,128,0,29591:0:0:0:0:
192,192,29672,128,0,29916:0:0:0:0:
448,192,29672,1,0,0:0:0:0:
64,192,29672,1,0,0:0:0:0:
320,192,29835,128,0,29916:0:0:0:0:
448,192,29997,1,0,0:0:0:0:
64,192,29997,1,0,0:0:0:0:
320,192,30078,1,0,0:0:0:0:
192,192,30078,1,0,0:0:0:0:
448,192,30159,1,0,0:0:0:0:
64,192,30159,1,0,0:0:0:0:
320,192,30321,128,0,30726:0:0:0:0:
64,192,30321,128,0,30402:0:0:0:0:
448,192,30321,128,0,30402:0:0:0:0:
192,192,30321,128,0,30402:0:0:0:0:
64,192,30483,1,0,0:0:0:0:
448,192,30645,128,0,31051:0:0:0:0:
192,192,30645,128,0,30726:0:0:0:0:
64,192,30645,128,0,30726:0:0:0:0:
192,192,30808,1,0,0:0:0:0:
320,192,30970,128,0,31051:0:0:0:0:
192,192,30970,128,0,31375:0:0:0:0:
64,192,30970,128,0,31051:0:0:0:0:
320,192,31132,1,0,0:0:0:0:
320,192,31294,128,0,31862:0:0:0:0:
64,192,31294,128,0,31375:0:0:0:0:
448,192,31294,128,0,31375:0:0:0:0:
192,192,31456,1,0,0:0:0:0:
64,192,31618,128,0,31862:0:0:0:0:
192,192,31618,128,0,31862:0:0:0:0:
448,192,31618,128,0,31862:0:0:0:0:
192,192,31943,128,0,32267:0:0:0:0:
320,192,31943,128,0,32105:0:0:0:0:
448,192,31943,128,0,32105:0:0:0:0:
64,192,31943,128,0,32267:0:0:0:0:
320,192,32267,128,0,32429:0:0:0:0:
448,192,32267,128,0,32429:0:0:0:0:
64,192,32429,1,0,0:0:0:0:
192,192,32429,1,0,0:0:0:0:
320,192,32510,1,0,0:0:0:0:
448,192,32510,1,0,0:0:0:0:
64,192,32591,128,0,32753:0:0:0:0:
192,192,32591,128,0,32753:0:0:0:0:
320,192,32753,1,0,0:0:0:0:
448,192,32753,1,0,0:0:0:0:
64,192,32835,1,0,0:0:0:0:
192,192,32835,1,0,0:0:0:0:
448,192,32916,128,0,33159:0:0:0:0:
320,192,32916,1,0,0:0:0:0:
192,192,33078,1,0,0:0:0:0:
320,192,33240,128,0,33483:0:0:0:0:
448,192,33240,1,0,0:0:0:0:
64,192,33240,1,0,0:0:0:0:
192,192,33402,1,0,0:0:0:0:
192,192,33564,128,0,33889:0:0:0:0:
64,192,33564,1,0,0:0:0:0:
448,192,33564,1,0,0:0:0:0:
320,192,33564,128,0,33645:0:0:0:0:
320,192,33726,1,0,0:0:0:0:
448,192,33889,1,0,0:0:0:0:
64,192,33889,1,0,0:0:0:0:
192,192,33970,1,0,0:0:0:0:
320,192,33970,1,0,0:0:0:0:
64,192,34051,1,0,0:0:0:0:
448,192,34051,1,0,0:0:0:0:
64,192,34213,128,0,34456:0:0:0:0:
192,192,34213,128,0,34294:0:0:0:0:
320,192,34213,1,0,0:0:0:0:
448,192,34213,1,0,0:0:0:0:
192,192,34375,1,0,0:0:0:0:
192,192,34537,128,0,34780:0:0:0:0:
320,192,34537,128,0,34618:0:0:0:0:
64,192,34537,1,0,0:0:0:0:
448,192,34537,1,0,0:0:0:0:
320,192,34699,1,0,0:0:0:0:
320,192,34862,128,0,35105:0:0:0:0:
448,192,34862,128,0,34943:0:0:0:0:
64,192,34862,1,0,0:0:0:0:
192,192,34862,1,0,0:0:0:0:
64,192,35024,128,0,35429:0:0:0:0:
192,192,35024,128,0,35105:0:0:0:0:
448,192,35186,128,0,35429:0:0:0:0:
320,192,35186,128,0,35429:0:0:0:0:
64,192,35510,128,0,35753:0:0:0:0:
192,192,35510,1,0,0:0:0:0:
448,192,35510,1,0,0:0:0:0:
320,192,35672,1,0,0:0:0:0:
192,192,35835,128,0,36078:0:0:0:0:
64,192,35835,1,0,0:0:0:0:
448,192,35835,1,0,0:0:0:0:
320,192,35997,1,0,0:0:0:0:
320,192,36159,128,0,36483:0:0:0:0:
448,192,36159,1,0,0:0:0:0:
64,192,36159,1,0,0:0:0:0:
192,192,36159,128,0,36240:0:0:0:0:
192,192,36321,1,0,0:0:0:0:
64,192,36483,1,0,0:0:0:0:
448,192,36483,1,0,0:0:0:0:
192,192,36564,1,0,0:0:0:0:
320,192,36564,1,0,0:0:0:0:
64,192,36645,1,0,0:0:0:0:
448,192,36645,1,0,0:0:0:0:
448,192,36808,128,0,37051:0:0:0:0:
64,192,36808,128,0,36889:0:0:0:0:
192,192,36808,1,0,0:0:0:0:
320,192,36808,128,0,36889:0:0:0:0:
320,192,36970,1,0,0:0:0:0:
320,192,37132,128,0,37375:0:0:0:0:
192,192,37132,128,0,37213:0:0:0:0:
448,192,37132,1,0,0:0:0:0:
64,192,37132,1,0,0:0:0:0:
192,192,37294,1,0,0:0:0:0:
64,192,37456,128,0,37537:0:0:0:0:
192,192,37456,128,0,37699:0:0:0:0:
448,192,37456,1,0,0:0:0:0:
320,192,37456,1,0,0:0:0:0:
320,192,37618,128,0,37699:0:0:0:0:
448,192,37618,1,0,0:0:0:0:
192,192,37780,128,0,38024:0:0:0:0:
64,192,37780,128,0,38024:0:0:0:0:
320,192,37780,128,0,38024:0:0:0:0:
448,192,37780,128,0,38024:0:0:0:0:
448,192,38105,128,0,38348:0:0:0:0:
320,192,38105,128,0,38186:0:0:0:0:
64,192,38105,128,0,38145:0:0:0:0:
192,192,38105,1,0,0:0:0:0:
192,192,38267,128,0,38308:0:0:0:0:
64,192,38429,128,0,38672:0:0:0:0:
192,192,38429,128,0,38510:0:0:0:0:
448,192,38429,128,0,38470:0:0:0:0:
320,192,38429,1,0,0:0:0:0:
320,192,38591,128,0,38632:0:0:0:0:
448,192,38753,128,0,39159:0:0:0:0:
320,192,38753,128,0,38835:0:0:0:0:
64,192,38753,128,0,38794:0:0:0:0:
192,192,38753,1,0,0:0:0:0:
192,192,38916,128,0,38956:0:0:0:0:
64,192,39078,128,0,39159:0:0:0:0:
320,192,39078,128,0,39118:0:0:0:0:
64,192,39240,1,0,0:0:0:0:
192,192,39240,128,0,39321:0:0:0:0:
448,192,39240,128,0,39280:0:0:0:0:
64,192,39402,128,0,39726:0:0:0:0:
320,192,39402,1,0,0:0:0:0:
448,192,39402,128,0,39645:0:0:0:0:
192,192,39564,1,0,0:0:0:0:
320,192,39564,128,0,39808:0:0:0:0:
192,192,39726,128,0,39970:0:0:0:0:
448,192,39726,128,0,39808:0:0:0:0:
320,192,39889,128,0,39970:0:0:0:0:
64,192,39889,1,0,0:0:0:0:
64,192,40051,128,0,40618:0:0:0:0:
192,192,40051,128,0,40618:0:0:0:0:
448,192,40051,128,0,40132:0:0:0:0:
320,192,40051,1,0,0:0:0:0:
448,192,40375,128,0,40618:0:0:0:0:
320,192,40375,128,0,40618:0:0:0:0:
320,192,40699,128,0,40862:0:0:0:0:
448,192,40699,1,0,0:0:0:0:
64,192,40699,1,0,0:0:0:0:
192,192,40780,1,0,0:0:0:0:
448,192,40862,128,0,40943:0:0:0:0:
64,192,40862,128,0,40943:0:0:0:0:
320,192,40943,128,0,41024:0:0:0:0:
192,192,41024,128,0,41186:0:0:0:0:
64,192,41024,1,0,0:0:0:0:
448,192,41024,1,0,0:0:0:0:
320,192,41105,1,0,0:0:0:0:
64,192,41186,128,0,41267:0:0:0:0:
448,192,41186,128,0,41267:0:0:0:0:
192,192,41267,128,0,41348:0:0:0:0:
320,192,41348,128,0,41510:0:0:0:0:
448,192,41348,1,0,0:0:0:0:
64,192,41348,1,0,0:0:0:0:
192,192,41429,1,0,0:0:0:0:
448,192,41510,128,0,41591:0:0:0:0:
64,192,41510,128,0,41591:0:0:0:0:
320,192,41591,128,0,41672:0:0:0:0:
192,192,41672,128,0,41835:0:0:0:0:
64,192,41672,1,0,0:0:0:0:
448,192,41672,1,0,0:0:0:0:
320,192,41753,1,0,0:0:0:0:
64,192,41835,128,0,41916:0:0:0:0:
448,192,41835,128,0,41916:0:0:0:0:
192,192,41916,128,0,41997:0:0:0:0:
320,192,41997,128,0,42159:0:0:0:0:
448,192,41997,1,0,0:0:0:0:
64,192,41997,1,0,0:0:0:0:
192,192,42078,128,0,42240:0:0:0:0:
448,192,42159,128,0,42240:0:0:0:0:
64,192,42159,128,0,42240:0:0:0:0:
320,192,42240,128,0,42321:0:0:0:0:
192,192,42321,128,0,42483:0:0:0:0:
64,192,42321,1,0,0:0:0:0:
448,192,42321,1,0,0:0:0:0:
320,192,42402,128,0,42564:0:0:0:0:
64,192,42483,128,0,42564:0:0:0:0:
448,192,42483,128,0,42564:0:0:0:0:
192,192,42564,128,0,42645:0:0:0:0:
320,192,42645,128,0,42808:0:0:0:0:
64,192,42645,1,0,0:0:0:0:
448,192,42645,128,0,42726:0:0:0:0:
192,192,42726,128,0,42889:0:0:0:0:
64,192,42808,128,0,42889:0:0:0:0:
448,192,42808,128,0,42970:0:0:0:0:
320,192,42889,128,0,43051:0:0:0:0:
192,192,42970,128,0,43051:0:0:0:0:
64,192,42970,128,0,43132:0:0:0:0:
448,192,43051,128,0,43213:0:0:0:0:
320,192,43132,128,0,43213:0:0:0:0:
192,192,43132,128,0,43213:0:0:0:0:
64,192,43213,128,0,43375:0:0:0:0:
448,192,43294,128,0,43537:0:0:0:0:
192,192,43294,128,0,43375:0:0:0:0:
320,192,43294,1,0,0:0:0:0:
320,192,43456,128,0,43699:0:0:0:0:
64,192,43456,128,0,43537:0:0:0:0:
192,192,43456,1,0,0:0:0:0:
192,192,43618,128,0,43862:0:0:0:0:
64,192,43618,1,0,0:0:0:0:
448,192,43618,128,0,43699:0:0:0:0:
448,192,43780,128,0,44024:0:0:0:0:
64,192,43780,128,0,43862:0:0:0:0:
320,192,43780,1,0,0:0:0:0:
64,192,43943,128,0,44186:0:0:0:0:
320,192,43943,128,0,44024:0:0:0:0:
192,192,43943,1,0,0:0:0:0:
192,192,44105,128,0,44348:0:0:0:0:
448,192,44105,128,0,44186:0:0:0:0:
320,192,44105,1,0,0:0:0:0:
320,192,44267,128,0,44510:0:0:0:0:
448,192,44267,1,0,0:0:0:0:
64,192,44267,128,0,44348:0:0:0:0:
192,192,44429,128,0,44510:0:0:0:0:
64,192,44429,1,0,0:0:0:0:
448,192,44429,128,0,44510:0:0:0:0:
192,192,44591,128,0,44835:0:0:0:0:
64,192,44591,128,0,44753:0:0:0:0:
320,192,44591,1,0,0:0:0:0:
448,192,44672,128,0,44835:0:0:0:0:
320,192,44753,128,0,44835:0:0:0:0:
64,192,44835,1,0,0:0:0:0:
320,192,44916,128,0,45159:0:0:0:0:
448,192,44916,128,0,45078:0:0:0:0:
192,192,44916,1,0,0:0:0:0:
64,192,44997,128,0,45159:0:0:0:0:
192,192,45078,128,0,45159:0:0:0:0:
448,192,45159,128,0,45240:0:0:0:0:
64,192,45240,128,0,45321:0:0:0:0:
320,192,45240,128,0,45321:0:0:0:0:
192,192,45321,1,0,0:0:0:0:
448,192,45321,128,0,45564:0:0:0:0:
64,192,45402,128,0,45483:0:0:0:0:
320,192,45402,1,0,0:0:0:0:
192,192,45483,128,0,45564:0:0:0:0:
64,192,45564,1,0,0:0:0:0:
320,192,45564,128,0,45645:0:0:0:0:
192,192,45645,128,0,45726:0:0:0:0:
448,192,45645,1,0,0:0:0:0:
64,192,45726,128,0,45808:0:0:0:0:
320,192,45726,1,0,0:0:0:0:
448,192,45808,128,0,46051:0:0:0:0:
192,192,45808,1,0,0:0:0:0:
320,192,45889,128,0,46132:0:0:0:0:
64,192,45889,1,0,0:0:0:0:
192,192,45970,128,0,46132:0:0:0:0:
64,192,46051,128,0,46456:0:0:0:0:
448,192,46132,128,0,46456:0:0:0:0:
320,192,46213,128,0,46456:0:0:0:0:
192,192,46213,128,0,46456:0:0:0:0:
448,192,46537,128,0,46780:0:0:0:0:
320,192,46537,128,0,46618:0:0:0:0:
64,192,46537,1,0,0:0:0:0:
192,192,46618,1,0,0:0:0:0:
320,192,46699,1,0,0:0:0:0:
64,192,46699,128,0,46780:0:0:0:0:
192,192,46780,128,0,46862:0:0:0:0:
320,192,46862,128,0,46943:0:0:0:0:
64,192,46862,128,0,47105:0:0:0:0:
448,192,46862,1,0,0:0:0:0:
192,192,46943,1,0,0:0:0:0:
320,192,47024,128,0,47105:0:0:0:0:
448,192,47024,128,0,47105:0:0:0:0:
64,192,47186,128,0,47429:0:0:0:0:
192,192,47186,128,0,47267:0:0:0:0:
448,192,47186,1,0,0:0:0:0:
320,192,47267,1,0,0:0:0:0:
448,192,47348,128,0,47429:0:0:0:0:
192,192,47348,1,0,0:0:0:0:
320,192,47429,128,0,47510:0:0:0:0:
192,192,47510,128,0,47591:0:0:0:0:
448,192,47510,128,0,47753:0:0:0:0:
64,192,47510,1,0,0:0:0:0:
320,192,47591,1,0,0:0:0:0:
64,192,47672,128,0,47753:0:0:0:0:
192,192,47672,128,0,47753:0:0:0:0:
64,192,47835,128,0,48078:0:0:0:0:
448,192,47835,128,0,47997:0:0:0:0:
320,192,47835,1,0,0:0:0:0:
192,192,47916,1,0,0:0:0:0:
320,192,47997,128,0,48078:0:0:0:0:
192,192,48078,128,0,48159:0:0:0:0:
64,192,48159,128,0,48321:0:0:0:0:
448,192,48159,128,0,48402:0:0:0:0:
320,192,48240,1,0,0:0:0:0:
192,192,48321,128,0,48402:0:0:0:0:
320,192,48402,128,0,48483:0:0:0:0:
64,192,48483,128,0,48726:0:0:0:0:
448,192,48483,128,0,48726:0:0:0:0:
192,192,48483,128,0,48564:0:0:0:0:
320,192,48564,1,0,0:0:0:0:
192,192,48645,1,0,0:0:0:0:
320,192,48726,128,0,48808:0:0:0:0:
192,192,48808,128,0,48889:0:0:0:0:
64,192,48808,128,0,49051:0:0:0:0:
448,192,48808,1,0,0:0:0:0:
320,192,48889,1,0,0:0:0:0:
192,192,48970,1,0,0:0:0:0:
448,192,48970,1,0,0:0:0:0:
448,192,49132,128,0,49375:0:0:0:0:
320,192,49132,1,0,0:0:0:0:
64,192,49132,1,0,0:0:0:0:
192,192,49213,1,0,0:0:0:0:
320,192,49294,128,0,49375:0:0:0:0:
64,192,49294,128,0,49375:0:0:0:0:
64,192,49456,128,0,49699:0:0:0:0:
192,192,49456,1,0,0:0:0:0:
448,192,49456,1,0,0:0:0:0:
320,192,49537,1,0,0:0:0:0:
448,192,49618,128,0,49699:0:0:0:0:
192,192,49618,128,0,49699:0:0:0:0:
320,192,49780,128,0,50024:0:0:0:0:
448,192,49780,1,0,0:0:0:0:
64,192,49780,1,0,0:0:0:0:
192,192,49862,1,0,0:0:0:0:
64,192,49943,128,0,50024:0:0:0:0:
448,192,49943,128,0,50024:0:0:0:0:
192,192,50105,128,0,50348:0:0:0:0:
64,192,50105,1,0,0:0:0:0:
448,192,50105,1,0,0:0:0:0:
320,192,50186,1,0,0:0:0:0:
448,192,50267,128,0,50348:0:0:0:0:
64,192,50267,128,0,50348:0:0:0:0:
448,192,50429,128,0,50753:0:0:0:0:
64,192,50429,1,0,0:0:0:0:
320,192,50429,128,0,50510:0:0:0:0:
192,192,50510,1,0,0:0:0:0:
320,192,50591,1,0,0:0:0:0:
64,192,50591,128,0,50753:0:0:0:0:
192,192,50672,128,0,50835:0:0:0:0:
320,192,50753,1,0,0:0:0:0:
448,192,50835,128,0,50997:0:0:0:0:
64,192,50835,1,0,0:0:0:0:
192,192,50916,1,0,0:0:0:0:
320,192,50916,128,0,51078:0:0:0:0:
64,192,51078,128,0,51402:0:0:0:0:
192,192,51078,128,0,51159:0:0:0:0:
448,192,51078,1,0,0:0:0:0:
320,192,51159,1,0,0:0:0:0:
192,192,51240,1,0,0:0:0:0:
448,192,51240,128,0,51402:0:0:0:0:
320,192,51321,128,0,51483:0:0:0:0:
192,192,51402,128,0,51564:0:0:0:0:
64,192,51483,128,0,51645:0:0:0:0:
448,192,51483,1,0,0:0:0:0:
320,192,51564,1,0,0:0:0:0:
448,192,51645,1,0,0:0:0:0:
64,192,51726,128,0,51808:0:0:0:0:
192,192,51726,128,0,51889:0:0:0:0:
320,192,51808,1,0,0:0:0:0:
448,192,51808,128,0,51970:0:0:0:0:
64,192,51889,1,0,0:0:0:0:
192,192,51970,1,0,0:0:0:0:
320,192,51970,128,0,52132:0:0:0:0:
64,192,52051,128,0,52213:0:0:0:0:
448,192,52051,1,0,0:0:0:0:
192,192,52132,128,0,52294:0:0:0:0:
320,192,52213,1,0,0:0:0:0:
448,192,52213,128,0,52294:0:0:0:0:
64,192,52294,128,0,52375:0:0:0:0:
448,192,52375,128,0,52456:0:0:0:0:
320,192,52375,128,0,52537:0:0:0:0:
64,192,52456,128,0,52618:0:0:0:0:
192,192,52456,1,0,0:0:0:0:
448,192,52537,1,0,0:0:0:0:
320,192,52618,1,0,0:0:0:0:
192,192,52618,128,0,52780:0:0:0:0:
64,192,52699,1,0,0:0:0:0:
448,192,52699,128,0,52862:0:0:0:0:
320,192,52780,128,0,52943:0:0:0:0:
64,192,52862,128,0,52943:0:0:0:0:
192,192,52862,1,0,0:0:0:0:
448,192,52943,128,0,53024:0:0:0:0:
192,192,53024,128,0,53186:0:0:0:0:
64,192,53024,1,0,0:0:0:0:
448,192,53105,128,0,53308:0:0:0:0:
320,192,53105,1,0,0:0:0:0:
64,192,53186,128,0,53267:0:0:0:0:
320,192,53267,128,0,53429:0:0:0:0:
192,192,53348,128,0,53429:0:0:0:0:
64,192,53348,1,0,0:0:0:0:
448,192,53429,128,0,53591:0:0:0:0:
64,192,53510,128,0,53672:0:0:0:0:
192,192,53510,1,0,0:0:0:0:
320,192,53672,128,0,53835:0:0:0:0:
448,192,53672,1,0,0:0:0:0:
64,192,53753,128,0,53997:0:0:0:0:
192,192,53753,1,0,0:0:0:0:
448,192,53835,128,0,53916:0:0:0:0:
192,192,53916,128,0,54078:0:0:0:0:
320,192,53997,128,0,54078:0:0:0:0:
448,192,53997,128,0,54321:0:0:0:0:
64,192,54159,128,0,54240:0:0:0:0:
192,192,54159,128,0,54240:0:0:0:0:
320,192,54321,128,0,54402:0:0:0:0:
192,192,54321,1,0,0:0:0:0:
64,192,54321,128,0,54564:0:0:0:0:
448,192,54402,128,0,54483:0:0:0:0:
320,192,54483,128,0,54564:0:0:0:0:
192,192,54564,128,0,54726:0:0:0:0:
320,192,54645,128,0,54726:0:0:0:0:
448,192,54645,128,0,54889:0:0:0:0:
64,192,54726,128,0,54808:0:0:0:0:
192,192,54808,128,0,54889:0:0:0:0:
320,192,54889,128,0,55051:0:0:0:0:
192,192,54970,128,0,55132:0:0:0:0:
64,192,54970,1,0,0:0:0:0:
448,192,55051,128,0,55213:0:0:0:0:
320,192,55132,1,0,0:0:0:0:
64,192,55132,128,0,55213:0:0:0:0:
192,192,55213,128,0,55375:0:0:0:0:
320,192,55294,128,0,55456:0:0:0:0:
448,192,55294,1,0,0:0:0:0:
64,192,55375,128,0,55537:0:0:0:0:
192,192,55456,1,0,0:0:0:0:
448,192,55456,128,0,55537:0:0:0:0:
320,192,55537,128,0,55618:0:0:0:0:
64,192,55618,128,0,55862:0:0:0:0:
192,192,55618,128,0,55862:0:0:0:0:
448,192,55618,128,0,55862:0:0:0:0:
320,192,55862,1,0,0:0:0:0:
192,192,55943,128,0,56186:0:0:0:0:
448,192,55943,128,0,56186:0:0:0:0:
64,192,55943,128,0,56186:0:0:0:0:
320,192,56186,1,0,0:0:0:0:
64,192,56267,1,0,0:0:0:0:
192,192,56267,128,0,56348:0:0:0:0:
320,192,56348,1,0,0:0:0:0:
448,192,56348,128,0,56429:0:0:0:0:
192,192,56429,1,0,0:0:0:0:
64,192,56429,128,0,56510:0:0:0:0:
320,192,56510,128,0,56591:0:0:0:0:
64,192,56591,128,0,56835:0:0:0:0:
448,192,56591,128,0,56835:0:0:0:0:
192,192,56591,1,0,0:0:0:0:
192,192,56753,128,0,56835:0:0:0:0:
320,192,56753,128,0,56835:0:0:0:0:
448,192,56916,128,0,56997:0:0:0:0:
320,192,56916,128,0,56997:0:0:0:0:
192,192,56916,1,0,0:0:0:0:
64,192,56997,128,0,57159:0:0:0:0:
320,192,57078,128,0,57240:0:0:0:0:
448,192,57078,1,0,0:0:0:0:
192,192,57159,1,0,0:0:0:0:
448,192,57240,128,0,57402:0:0:0:0:
64,192,57240,128,0,57321:0:0:0:0:
192,192,57321,128,0,57483:0:0:0:0:
64,192,57402,1,0,0:0:0:0:
320,192,57402,1,0,0:0:0:0:
448,192,57483,128,0,57564:0:0:0:0:
64,192,57564,128,0,57645:0:0:0:0:
192,192,57564,128,0,57645:0:0:0:0:
320,192,57564,1,0,0:0:0:0:
448,192,57645,128,0,57808:0:0:0:0:
192,192,57726,128,0,57889:0:0:0:0:
64,192,57726,1,0,0:0:0:0:
320,192,57808,1,0,0:0:0:0:
448,192,57889,128,0,57970:0:0:0:0:
64,192,57889,128,0,58051:0:0:0:0:
320,192,57970,128,0,58132:0:0:0:0:
448,192,58051,1,0,0:0:0:0:
192,192,58051,1,0,0:0:0:0:
64,192,58132,128,0,58213:0:0:0:0:
320,192,58213,128,0,58294:0:0:0:0:
448,192,58213,128,0,58294:0:0:0:0:
192,192,58294,128,0,58456:0:0:0:0:
64,192,58294,1,0,0:0:0:0:
448,192,58375,128,0,58537:0:0:0:0:
320,192,58375,1,0,0:0:0:0:
64,192,58456,128,0,58537:0:0:0:0:
320,192,58537,128,0,58618:0:0:0:0:
192,192,58537,1,0,0:0:0:0:
448,192,58618,128,0,58780:0:0:0:0:
64,192,58618,128,0,58699:0:0:0:0:
192,192,58699,128,0,58862:0:0:0:0:
320,192,58699,1,0,0:0:0:0:
64,192,58780,1,0,0:0:0:0:
448,192,58862,128,0,59105:0:0:0:0:
320,192,58862,128,0,58943:0:0:0:0:
64,192,58943,1,0,0:0:0:0:
192,192,59024,1,0,0:0:0:0:
320,192,59105,128,0,59267:0:0:0:0:
64,192,59186,128,0,59429:0:0:0:0:
192,192,59186,128,0,59267:0:0:0:0:
448,192,59267,1,0,0:0:0:0:
320,192,59348,1,0,0:0:0:0:
192,192,59429,128,0,59510:0:0:0:0:
448,192,59510,128,0,59753:0:0:0:0:
64,192,59510,1,0,0:0:0:0:
320,192,59510,1,0,0:0:0:0:
192,192,59591,1,0,0:0:0:0:
64,192,59672,128,0,59753:0:0:0:0:
320,192,59672,128,0,59753:0:0:0:0:
64,192,59835,128,0,60078:0:0:0:0:
448,192,59835,1,0,0:0:0:0:
192,192,59835,1,0,0:0:0:0:
320,192,59916,1,0,0:0:0:0:
448,192,59997,128,0,60078:0:0:0:0:
192,192,59997,128,0,60078:0:0:0:0:
320,192,60159,128,0,60402:0:0:0:0:
448,192,60159,1,0,0:0:0:0:
64,192,60159,1,0,0:0:0:0:
192,192,60240,1,0,0:0:0:0:
64,192,60321,128,0,60402:0:0:0:0:
448,192,60321,128,0,60402:0:0:0:0:
192,192,60483,128,0,60726:0:0:0:0:
64,192,60483,1,0,0:0:0:0:
448,192,60483,1,0,0:0:0:0:
320,192,60564,1,0,0:0:0:0:
64,192,60645,128,0,60726:0:0:0:0:
448,192,60645,128,0,60726:0:0:0:0:
448,192,60808,128,0,61051:0:0:0:0:
64,192,60808,1,0,0:0:0:0:
320,192,60808,1,0,0:0:0:0:
192,192,60889,1,0,0:0:0:0:
64,192,60970,128,0,61213:0:0:0:0:
320,192,60970,128,0,61051:0:0:0:0:
448,192,61132,128,0,61375:0:0:0:0:
192,192,61132,1,0,0:0:0:0:
320,192,61213,1,0,0:0:0:0:
64,192,61294,128,0,61375:0:0:0:0:
192,192,61294,128,0,61456:0:0:0:0:
320,192,61375,128,0,61537:0:0:0:0:
448,192,61456,128,0,61537:0:0:0:0:
64,192,61456,128,0,61618:0:0:0:0:
192,192,61537,128,0,61699:0:0:0:0:
320,192,61618,128,0,61699:0:0:0:0:
448,192,61618,128,0,61780:0:0:0:0:
64,192,61699,128,0,61862:0:0:0:0:
192,192,61780,128,0,61862:0:0:0:0:
320,192,61780,128,0,62024:0:0:0:0:
448,192,61862,128,0,62024:0:0:0:0:
64,192,61943,128,0,62024:0:0:0:0:
192,192,61943,128,0,62024:0:0:0:0:
64,192,62105,128,0,62348:0:0:0:0:
192,192,62105,128,0,62348:0:0:0:0:
320,192,62105,1,0,0:0:0:0:
448,192,62105,1,0,0:0:0:0:
320,192,62267,128,0,62348:0:0:0:0:
448,192,62267,128,0,62348:0:0:0:0:
320,192,62429,128,0,62672:0:0:0:0:
64,192,62429,1,0,0:0:0:0:
192,192,62429,1,0,0:0:0:0:
448,192,62429,128,0,62672:0:0:0:0:
64,192,62591,128,0,62672:0:0:0:0:
192,192,62591,128,0,62672:0:0:0:0:
192,192,62753,128,0,62997:0:0:0:0:
320,192,62753,128,0,62997:0:0:0:0:
64,192,62753,1,0,0:0:0:0:
448,192,62753,1,0,0:0:0:0:
64,192,62916,128,0,62997:0:0:0:0:
448,192,62916,128,0,62997:0:0:0:0:
64,192,63078,128,0,63321:0:0:0:0:
448,192,63078,128,0,63321:0:0:0:0:
192,192,63078,1,0,0:0:0:0:
320,192,63078,1,0,0:0:0:0:
192,192,63240,128,0,63321:0:0:0:0:
320,192,63240,128,0,63321:0:0:0:0:
320,192,63402,128,0,63645:0:0:0:0:
64,192,63402,128,0,63645:0:0:0:0:
192,192,63402,1,0,0:0:0:0:
448,192,63402,1,0,0:0:0:0:
192,192,63564,128,0,63645:0:0:0:0:
448,192,63564,128,0,63645:0:0:0:0:
448,192,63726,128,0,63970:0:0:0:0:
192,192,63726,128,0,63970:0:0:0:0:
320,192,63726,1,0,0:0:0:0:
64,192,63726,1,0,0:0:0:0:
64,192,63889,128,0,63970:0:0:0:0:
320,192,63889,128,0,63970:0:0:0:0:
64,192,64051,128,0,64294:0:0:0:0:
448,192,64051,128,0,64294:0:0:0:0:
320,192,64051,1,0,0:0:0:0:
192,192,64132,1,0,0:0:0:0:
320,192,64213,128,0,64294:0:0:0:0:
192,192,64375,1,0,0:0:0:0:
448,192,64375,128,0,64618:0:0:0:0:
64,192,64375,128,0,64618:0:0:0:0:
320,192,64456,1,0,0:0:0:0:
192,192,64537,128,0,64618:0:0:0:0:
448,192,64699,128,0,64943:0:0:0:0:
64,192,64699,1,0,0:0:0:0:
320,192,64699,128,0,64943:0:0:0:0:
192,192,64699,1,0,0:0:0:0:
192,192,64862,128,0,64943:0:0:0:0:
64,192,64862,128,0,64943:0:0:0:0:
64,192,65024,128,0,65267:0:0:0:0:
448,192,65024,128,0,65267:0:0:0:0:
192,192,65024,1,0,0:0:0:0:
320,192,65024,1,0,0:0:0:0:
320,192,65186,128,0,65267:0:0:0:0:
192,192,65186,128,0,65267:0:0:0:0:
64,192,65348,128,0,65591:0:0:0:0:
192,192,65348,128,0,65591:0:0:0:0:
320,192,65348,1,0,0:0:0:0:
448,192,65348,1,0,0:0:0:0:
320,192,65510,128,0,65591:0:0:0:0:
448,192,65510,128,0,65591:0:0:0:0:
192,192,65672,128,0,65916:0:0:0:0:
320,192,65672,128,0,65916:0:0:0:0:
448,192,65672,1,0,0:0:0:0:
64,192,65672,1,0,0:0:0:0:
64,192,65835,128,0,65916:0:0:0:0:
448,192,65835,128,0,65916:0:0:0:0:
64,192,65997,128,0,66240:0:0:0:0:
192,192,65997,128,0,66240:0:0:0:0:
320,192,65997,128,0,66078:0:0:0:0:
448,192,65997,128,0,66078:0:0:0:0:
448,192,66159,128,0,66240:0:0:0:0:
320,192,66159,128,0,66240:0:0:0:0:
320,192,66321,128,0,66564:0:0:0:0:
448,192,66321,128,0,66564:0:0:0:0:
192,192,66321,128,0,66402:0:0:0:0:
64,192,66321,128,0,66402:0:0:0:0:
64,192,66483,128,0,66564:0:0:0:0:
192,192,66483,128,0,66564:0:0:0:0:
320,192,66645,128,0,66726:0:0:0:0:
64,192,66645,128,0,66726:0:0:0:0:
192,192,66726,1,0,0:0:0:0:
448,192,66726,128,0,66808:0:0:0:0:
320,192,66808,1,0,0:0:0:0:
64,192,66808,128,0,66889:0:0:0:0:
192,192,66889,1,0,0:0:0:0:
448,192,66889,128,0,66970:0:0:0:0:
320,192,66970,1,0,0:0:0:0:
64,192,66970,128,0,67051:0:0:0:0:
192,192,67051,1,0,0:0:0:0:
448,192,67051,128,0,67213:0:0:0:0:
64,192,67132,128,0,67213:0:0:0:0:
320,192,67132,1,0,0:0:0:0:
192,192,67213,1,0,0:0:0:0:
64,192,67294,128,0,67862:0:0:0:0:
448,192,67294,128,0,67862:0:0:0:0:
320,192,67294,128,0,67862:0:0:0:0:
192,192,67862,1,0,0:0:0:0:
192,192,67943,128,0,68510:0:0:0:0:
64,192,67943,128,0,68510:0:0:0:0:
448,192,67943,128,0,68510:0:0:0:0:
320,192,67943,1,0,0:0:0:0:
320,192,68510,1,0,0:0:0:0:
320,192,68591,128,0,69159:0:0:0:0:
64,192,68591,128,0,69159:0:0:0:0:
448,192,68591,128,0,69118:0:0:0:0:
192,192,68591,128,0,69118:0:0:0:0:
192,192,69159,1,0,0:0:0:0:
448,192,69159,1,0,0:0:0:0:
320,192,69199,1,0,0:0:0:0:
64,192,69199,1,0,0:0:0:0:
192,192,69240,128,0,69808:0:0:0:0:
448,192,69240,128,0,69808:0:0:0:0:
320,192,69808,1,0,0:0:0:0:
64,192,69808,1,0,0:0:0:0:
320,192,69889,128,0,70456:0:0:0:0:
64,192,69889,128,0,70456:0:0:0:0:
448,192,69889,1,0,0:0:0:0:
192,192,69889,1,0,0:0:0:0:
448,192,70456,1,0,0:0:0:0:
192,192,70456,1,0,0:0:0:0:
192,192,70537,128,0,71105:0:0:0:0:
320,192,70537,128,0,71105:0:0:0:0:
448,192,70537,128,0,71105:0:0:0:0:
64,192,70537,1,0,0:0:0:0:
448,192,71186,128,0,71470:0:0:0:0:
320,192,71186,128,0,71470:0:0:0:0:
192,192,71186,128,0,71470:0:0:0:0:
64,192,71186,128,0,71470:0:0:0:0:
448,192,71510,128,0,71794:0:0:0:0:
320,192,71510,128,0,71794:0:0:0:0:
192,192,71510,128,0,71794:0:0:0:0:
64,192,71510,128,0,71794:0:0:0:0:
192,192,71835,128,0,72382:0:0:0:0:
320,192,71855,128,0,72402:0:0:0:0:
64,192,72483,128,0,72808:0:0:0:0:
448,192,72483,128,0,72564:0:0:0:0:
192,192,72483,128,0,72564:0:0:0:0:
320,192,72564,128,0,72726:0:0:0:0:
192,192,72645,1,0,0:0:0:0:
448,192,72726,128,0,72889:0:0:0:0:
192,192,72808,128,0,72970:0:0:0:0:
320,192,72889,1,0,0:0:0:0:
64,192,72970,128,0,73132:0:0:0:0:
448,192,72970,128,0,73051:0:0:0:0:
320,192,73051,128,0,73213:0:0:0:0:
192,192,73132,1,0,0:0:0:0:
448,192,73213,128,0,73375:0:0:0:0:
64,192,73213,128,0,73294:0:0:0:0:
192,192,73294,128,0,73456:0:0:0:0:
320,192,73375,1,0,0:0:0:0:
64,192,73456,128,0,73618:0:0:0:0:
448,192,73456,128,0,73537:0:0:0:0:
320,192,73537,128,0,73699:0:0:0:0:
192,192,73618,1,0,0:0:0:0:
448,192,73699,128,0,73862:0:0:0:0:
64,192,73699,128,0,73862:0:0:0:0:
192,192,73780,128,0,73983:0:0:0:0:
320,192,73862,128,0,73902:0:0:0:0:
448,192,73943,128,0,74105:0:0:0:0:
64,192,73943,128,0,74105:0:0:0:0:
320,192,74024,128,0,74226:0:0:0:0:
192,192,74105,128,0,74145:0:0:0:0:
64,192,74186,128,0,74348:0:0:0:0:
448,192,74186,128,0,74348:0:0:0:0:
192,192,74267,128,0,74470:0:0:0:0:
320,192,74348,128,0,74389:0:0:0:0:
64,192,74429,128,0,74591:0:0:0:0:
448,192,74429,128,0,74591:0:0:0:0:
320,192,74510,128,0,74713:0:0:0:0:
192,192,74591,128,0,74632:0:0:0:0:
448,192,74672,128,0,74835:0:0:0:0:
64,192,74672,128,0,74835:0:0:0:0:
192,192,74753,128,0,74956:0:0:0:0:
320,192,74835,128,0,74875:0:0:0:0:
64,192,74916,128,0,74997:0:0:0:0:
448,192,74916,128,0,74997:0:0:0:0:
448,192,75078,128,0,75321:0:0:0:0:
64,192,75078,128,0,75118:0:0:0:0:
320,192,75078,128,0,75159:0:0:0:0:
192,192,75159,128,0,75199:0:0:0:0:
64,192,75240,128,0,75402:0:0:0:0:
320,192,75240,128,0,75280:0:0:0:0:
192,192,75321,128,0,75483:0:0:0:0:
448,192,75402,128,0,75564:0:0:0:0:
320,192,75402,128,0,75564:0:0:0:0:
64,192,75483,1,0,0:0:0:0:
192,192,75564,1,0,0:0:0:0:
320,192,75645,1,0,0:0:0:0:
448,192,75726,128,0,75767:0:0:0:0:
64,192,75726,128,0,75970:0:0:0:0:
192,192,75726,128,0,75808:0:0:0:0:
320,192,75808,128,0,75848:0:0:0:0:
448,192,75889,128,0,76051:0:0:0:0:
192,192,75889,128,0,75929:0:0:0:0:
320,192,75970,128,0,76132:0:0:0:0:
64,192,76051,128,0,76213:0:0:0:0:
192,192,76051,128,0,76213:0:0:0:0:
448,192,76132,1,0,0:0:0:0:
320,192,76213,1,0,0:0:0:0:
192,192,76294,1,0,0:0:0:0:
320,192,76375,128,0,76537:0:0:0:0:
448,192,76375,1,0,0:0:0:0:
64,192,76456,128,0,76618:0:0:0:0:
192,192,76456,128,0,76497:0:0:0:0:
448,192,76537,128,0,76699:0:0:0:0:
192,192,76618,128,0,76780:0:0:0:0:
320,192,76699,128,0,76862:0:0:0:0:
64,192,76699,128,0,76740:0:0:0:0:
64,192,76862,128,0,77064:0:0:0:0:
448,192,76862,128,0,76983:0:0:0:0:
192,192,76862,1,0,0:0:0:0:
320,192,76943,128,0,77064:0:0:0:0:
192,192,77024,128,0,77145:0:0:0:0:
448,192,77105,128,0,77308:0:0:0:0:
320,192,77105,128,0,77145:0:0:0:0:
64,192,77186,128,0,77389:0:0:0:0:
192,192,77186,128,0,77226:0:0:0:0:
320,192,77267,128,0,77389:0:0:0:0:
192,192,77348,128,0,77470:0:0:0:0:
448,192,77429,128,0,77551:0:0:0:0:
320,192,77429,128,0,77470:0:0:0:0:
64,192,77510,128,0,77632:0:0:0:0:
192,192,77510,128,0,77551:0:0:0:0:
448,192,77591,128,0,77672:0:0:0:0:
192,192,77672,128,0,77916:0:0:0:0:
64,192,77672,128,0,77916:0:0:0:0:
320,192,77672,1,0,0:0:0:0:
448,192,77835,1,0,0:0:0:0:
320,192,77835,128,0,77916:0:0:0:0:
448,192,77997,128,0,78159:0:0:0:0:
320,192,77997,128,0,78078:0:0:0:0:
64,192,77997,1,0,0:0:0:0:
192,192,78078,128,0,78240:0:0:0:0:
64,192,78159,1,0,0:0:0:0:
320,192,78240,128,0,78321:0:0:0:0:
64,192,78321,128,0,78483:0:0:0:0:
192,192,78321,128,0,78402:0:0:0:0:
448,192,78321,1,0,0:0:0:0:
320,192,78402,128,0,78564:0:0:0:0:
448,192,78483,1,0,0:0:0:0:
192,192,78564,128,0,78645:0:0:0:0:
448,192,78645,128,0,78808:0:0:0:0:
320,192,78645,128,0,78726:0:0:0:0:
64,192,78645,1,0,0:0:0:0:
192,192,78726,128,0,78889:0:0:0:0:
64,192,78808,1,0,0:0:0:0:
320,192,78889,128,0,78970:0:0:0:0:
64,192,78970,128,0,79132:0:0:0:0:
192,192,78970,128,0,79051:0:0:0:0:
448,192,78970,1,0,0:0:0:0:
320,192,79051,128,0,79213:0:0:0:0:
448,192,79132,1,0,0:0:0:0:
192,192,79213,128,0,79294:0:0:0:0:
320,192,79294,128,0,79375:0:0:0:0:
448,192,79294,128,0,79375:0:0:0:0:
64,192,79294,128,0,79375:0:0:0:0:
192,192,79375,128,0,79537:0:0:0:0:
64,192,79456,128,0,79497:0:0:0:0:
448,192,79456,128,0,79537:0:0:0:0:
320,192,79537,128,0,79618:0:0:0:0:
192,192,79618,128,0,79699:0:0:0:0:
64,192,79618,128,0,79699:0:0:0:0:
448,192,79618,128,0,79699:0:0:0:0:
320,192,79699,128,0,79862:0:0:0:0:
448,192,79780,128,0,79821:0:0:0:0:
64,192,79780,128,0,79862:0:0:0:0:
192,192,79862,128,0,79943:0:0:0:0:
320,192,79943,128,0,80024:0:0:0:0:
448,192,79943,128,0,80024:0:0:0:0:
64,192,79943,128,0,80024:0:0:0:0:
192,192,80024,128,0,80186:0:0:0:0:
64,192,80105,128,0,80145:0:0:0:0:
448,192,80105,128,0,80186:0:0:0:0:
320,192,80186,128,0,80267:0:0:0:0:
64,192,80267,128,0,80389:0:0:0:0:
192,192,80267,128,0,80389:0:0:0:0:
448,192,80267,1,0,0:0:0:0:
448,192,80348,128,0,80510:0:0:0:0:
64,192,80429,128,0,80510:0:0:0:0:
320,192,80429,128,0,80510:0:0:0:0:
192,192,80510,128,0,80591:0:0:0:0:
320,192,80591,128,0,80713:0:0:0:0:
448,192,80591,128,0,80713:0:0:0:0:
64,192,80591,1,0,0:0:0:0:
64,192,80672,128,0,80835:0:0:0:0:
448,192,80753,128,0,80835:0:0:0:0:
192,192,80753,128,0,80835:0:0:0:0:
320,192,80835,128,0,80916:0:0:0:0:
448,192,80916,128,0,81078:0:0:0:0:
192,192,80916,128,0,80997:0:0:0:0:
64,192,80997,128,0,81240:0:0:0:0:
320,192,81078,128,0,81159:0:0:0:0:
192,192,81078,1,0,0:0:0:0:
448,192,81159,128,0,81402:0:0:0:0:
192,192,81240,128,0,81321:0:0:0:0:
320,192,81240,1,0,0:0:0:0:
64,192,81321,128,0,81483:0:0:0:0:
320,192,81402,128,0,81483:0:0:0:0:
192,192,81402,1,0,0:0:0:0:
448,192,81483,128,0,81808:0:0:0:0:
320,192,81564,128,0,81889:0:0:0:0:
192,192,81564,128,0,81997:0:0:0:0:
64,192,81564,128,0,82105:0:0:0:0:
448,192,81889,128,0,81943:0:0:0:0:
320,192,81997,128,0,82051:0:0:0:0:
448,192,82051,128,0,82159:0:0:0:0:
192,192,82105,128,0,82159:0:0:0:0:
320,192,82159,128,0,82267:0:0:0:0:
64,192,82213,128,0,82267:0:0:0:0:
448,192,82213,1,0,0:0:0:0:
192,192,82267,128,0,82375:0:0:0:0:
320,192,82321,1,0,0:0:0:0:
64,192,82375,128,0,82483:0:0:0:0:
448,192,82375,128,0,82483:0:0:0:0:
192,192,82429,1,0,0:0:0:0:
320,192,82483,128,0,82591:0:0:0:0:
448,192,82537,1,0,0:0:0:0:
64,192,82537,1,0,0:0:0:0:
192,192,82591,128,0,82699:0:0:0:0:
320,192,82645,1,0,0:0:0:0:
64,192,82699,128,0,82808:0:0:0:0:
448,192,82699,128,0,82808:0:0:0:0:
192,192,82753,1,0,0:0:0:0:
320,192,82808,128,0,82862:0:0:0:0:
448,192,82862,1,0,0:0:0:0:
64,192,82862,128,0,83105:0:0:0:0:
448,192,83024,128,0,83267:0:0:0:0:
320,192,83024,1,0,0:0:0:0:
64,192,83186,128,0,83429:0:0:0:0:
192,192,83186,1,0,0:0:0:0:
448,192,83348,128,0,83591:0:0:0:0:
320,192,83348,1,0,0:0:0:0:
64,192,83510,128,0,83753:0:0:0:0:
192,192,83510,1,0,0:0:0:0:
448,192,83672,128,0,83916:0:0:0:0:
320,192,83672,1,0,0:0:0:0:
64,192,83835,128,0,84078:0:0:0:0:
192,192,83835,1,0,0:0:0:0:
448,192,83997,128,0,84240:0:0:0:0:
320,192,83997,1,0,0:0:0:0:
64,192,84159,128,0,84402:0:0:0:0:
192,192,84159,128,0,84402:0:0:0:0:
448,192,84321,128,0,84564:0:0:0:0:
320,192,84321,1,0,0:0:0:0:
64,192,84483,128,0,84726:0:0:0:0:
192,192,84483,128,0,84726:0:0:0:0:
448,192,84645,128,0,84726:0:0:0:0:
320,192,84645,1,0,0:0:0:0:
320,192,84808,128,0,85375:0:0:0:0:
64,192,84808,128,0,85375:0:0:0:0:
448,192,84808,128,0,85375:0:0:0:0:
192,192,84808,1,0,0:0:0:0:
320,192,85456,128,0,85699:0:0:0:0:
448,192,85456,1,0,0:0:0:0:
192,192,85618,128,0,85862:0:0:0:0:
64,192,85618,1,0,0:0:0:0:
320,192,85780,128,0,86024:0:0:0:0:
448,192,85780,1,0,0:0:0:0:
192,192,85943,128,0,86186:0:0:0:0:
64,192,85943,1,0,0:0:0:0:
320,192,86105,128,0,86348:0:0:0:0:
448,192,86105,1,0,0:0:0:0:
192,192,86267,128,0,86510:0:0:0:0:
64,192,86267,1,0,0:0:0:0:
320,192,86429,128,0,86672:0:0:0:0:
448,192,86429,1,0,0:0:0:0:
192,192,86591,128,0,86835:0:0:0:0:
64,192,86591,1,0,0:0:0:0:
320,192,86753,128,0,86997:0:0:0:0:
448,192,86753,128,0,86997:0:0:0:0:
192,192,86916,128,0,87159:0:0:0:0:
64,192,86916,1,0,0:0:0:0:
320,192,87078,128,0,87321:0:0:0:0:
448,192,87078,128,0,87321:0:0:0:0:
192,192,87240,128,0,87321:0:0:0:0:
64,192,87240,1,0,0:0:0:0:
192,192,87402,128,0,87970:0:0:0:0:
320,192,87402,1,0,0:0:0:0:
64,192,87402,1,0,0:0:0:0:
448,192,87402,1,0,0:0:0:0:
64,192,88051,128,0,88294:0:0:0:0:
192,192,88051,1,0,0:0:0:0:
320,192,88213,128,0,88456:0:0:0:0:
448,192,88213,1,0,0:0:0:0:
64,192,88375,128,0,88618:0:0:0:0:
192,192,88375,1,0,0:0:0:0:
320,192,88537,128,0,88780:0:0:0:0:
448,192,88537,1,0,0:0:0:0:
64,192,88699,128,0,88943:0:0:0:0:
192,192,88699,1,0,0:0:0:0:
320,192,88862,128,0,89105:0:0:0:0:
448,192,88862,1,0,0:0:0:0:
64,192,89024,128,0,89267:0:0:0:0:
192,192,89024,1,0,0:0:0:0:
320,192,89186,128,0,89429:0:0:0:0:
448,192,89186,1,0,0:0:0:0:
64,192,89348,128,0,89591:0:0:0:0:
192,192,89348,128,0,89591:0:0:0:0:
320,192,89510,128,0,89753:0:0:0:0:
448,192,89510,1,0,0:0:0:0:
64,192,89672,128,0,89916:0:0:0:0:
192,192,89672,128,0,89916:0:0:0:0:
320,192,89835,128,0,89916:0:0:0:0:
448,192,89835,1,0,0:0:0:0:
64,192,89997,128,0,90564:0:0:0:0:
320,192,89997,128,0,90564:0:0:0:0:
448,192,89997,128,0,90564:0:0:0:0:
192,192,89997,1,0,0:0:0:0:
192,192,90321,128,0,90564:0:0:0:0:
64,192,90645,128,0,91213:0:0:0:0:
192,192,90645,128,0,90889:0:0:0:0:
320,192,90645,128,0,90808:0:0:0:0:
448,192,90645,128,0,90726:0:0:0:0:
448,192,90889,1,0,0:0:0:0:
192,192,90970,128,0,91213:0:0:0:0:
320,192,91051,128,0,91213:0:0:0:0:
448,192,91132,128,0,91213:0:0:0:0:
448,192,91294,128,0,91862:0:0:0:0:
320,192,91294,128,0,91537:0:0:0:0:
192,192,91294,128,0,91456:0:0:0:0:
64,192,91294,128,0,91375:0:0:0:0:
64,192,91537,1,0,0:0:0:0:
320,192,91618,128,0,91862:0:0:0:0:
192,192,91699,128,0,91862:0:0:0:0:
64,192,91780,128,0,91862:0:0:0:0:
192,192,91943,128,0,92375:0:0:0:0:
320,192,91943,128,0,92267:0:0:0:0:
64,192,91943,128,0,92483:0:0:0:0:
448,192,91943,128,0,92159:0:0:0:0:
448,192,92267,128,0,92321:0:0:0:0:
320,192,92375,128,0,92429:0:0:0:0:
448,192,92429,128,0,92537:0:0:0:0:
192,192,92483,128,0,92537:0:0:0:0:
320,192,92537,128,0,92672:0:0:0:0:
448,192,92591,1,0,0:0:0:0:
64,192,92591,128,0,92672:0:0:0:0:
192,192,92672,128,0,92835:0:0:0:0:
320,192,92753,128,0,92835:0:0:0:0:
64,192,92753,1,0,0:0:0:0:
448,192,92835,128,0,92916:0:0:0:0:
64,192,92916,128,0,93159:0:0:0:0:
192,192,92916,128,0,92997:0:0:0:0:
320,192,92916,1,0,0:0:0:0:
448,192,92997,1,0,0:0:0:0:
320,192,93078,128,0,93240:0:0:0:0:
192,192,93078,1,0,0:0:0:0:
448,192,93159,128,0,93240:0:0:0:0:
192,192,93240,128,0,93402:0:0:0:0:
64,192,93240,1,0,0:0:0:0:
448,192,93402,1,0,0:0:0:0:
320,192,93564,1,0,0:0:0:0:
192,192,93564,128,0,93726:0:0:0:0:
64,192,93564,1,0,0:0:0:0:
448,192,93726,1,0,0:0:0:0:
64,192,93889,1,0,0:0:0:0:
192,192,93889,128,0,94213:0:0:0:0:
320,192,93889,128,0,93970:0:0:0:0:
64,192,94213,1,0,0:0:0:0:
320,192,94213,1,0,0:0:0:0:
192,192,94375,1,0,0:0:0:0:
64,192,94537,128,0,94780:0:0:0:0:
448,192,94537,1,0,0:0:0:0:
320,192,94537,1,0,0:0:0:0:
320,192,94699,128,0,94780:0:0:0:0:
192,192,94862,128,0,95105:0:0:0:0:
448,192,94862,1,0,0:0:0:0:
64,192,94862,1,0,0:0:0:0:
320,192,95024,128,0,95105:0:0:0:0:
448,192,95186,128,0,95753:0:0:0:0:
320,192,95186,1,0,0:0:0:0:
64,192,95186,1,0,0:0:0:0:
192,192,95186,1,0,0:0:0:0:
192,192,95348,128,0,95429:0:0:0:0:
64,192,95510,128,0,95753:0:0:0:0:
320,192,95510,128,0,95753:0:0:0:0:
192,192,95510,1,0,0:0:0:0:
320,192,95835,128,0,96078:0:0:0:0:
448,192,95835,1,0,0:0:0:0:
64,192,95835,1,0,0:0:0:0:
192,192,95997,128,0,96078:0:0:0:0:
320,192,96159,128,0,96402:0:0:0:0:
448,192,96159,1,0,0:0:0:0:
64,192,96159,1,0,0:0:0:0:
192,192,96321,128,0,96402:0:0:0:0:
320,192,96483,128,0,96726:0:0:0:0:
448,192,96483,1,0,0:0:0:0:
64,192,96645,128,0,96889:0:0:0:0:
192,192,96645,1,0,0:0:0:0:
448,192,96808,128,0,97051:0:0:0:0:
320,192,96808,1,0,0:0:0:0:
64,192,96970,128,0,97051:0:0:0:0:
192,192,96970,1,0,0:0:0:0:
320,192,97132,128,0,97375:0:0:0:0:
64,192,97132,1,0,0:0:0:0:
448,192,97132,1,0,0:0:0:0:
192,192,97294,128,0,97375:0:0:0:0:
192,192,97456,128,0,97699:0:0:0:0:
448,192,97456,1,0,0:0:0:0:
64,192,97456,1,0,0:0:0:0:
320,192,97618,128,0,97699:0:0:0:0:
64,192,97780,128,0,98348:0:0:0:0:
320,192,97780,1,0,0:0:0:0:
192,192,97780,1,0,0:0:0:0:
448,192,97780,128,0,98024:0:0:0:0:
192,192,97943,1,0,0:0:0:0:
320,192,98105,1,0,0:0:0:0:
192,192,98105,128,0,98348:0:0:0:0:
448,192,98105,128,0,98348:0:0:0:0:
320,192,98429,128,0,98672:0:0:0:0:
448,192,98429,128,0,98672:0:0:0:0:
64,192,98429,128,0,98510:0:0:0:0:
192,192,98429,128,0,98510:0:0:0:0:
64,192,98591,1,0,0:0:0:0:
448,192,98753,128,0,99159:0:0:0:0:
64,192,98753,128,0,98835:0:0:0:0:
320,192,98753,128,0,98835:0:0:0:0:
192,192,98753,128,0,98835:0:0:0:0:
192,192,98916,1,0,0:0:0:0:
64,192,99078,128,0,99645:0:0:0:0:
320,192,99078,128,0,99159:0:0:0:0:
192,192,99078,128,0,99159:0:0:0:0:
320,192,99240,1,0,0:0:0:0:
448,192,99240,128,0,99645:0:0:0:0:
192,192,99402,128,0,99645:0:0:0:0:
320,192,99564,128,0,99645:0:0:0:0:
64,192,99726,128,0,99970:0:0:0:0:
192,192,99726,1,0,0:0:0:0:
320,192,99726,128,0,99808:0:0:0:0:
192,192,99889,128,0,100132:0:0:0:0:
448,192,99889,128,0,99970:0:0:0:0:
320,192,99889,1,0,0:0:0:0:
320,192,100051,128,0,100294:0:0:0:0:
64,192,100051,1,0,0:0:0:0:
448,192,100213,128,0,100456:0:0:0:0:
64,192,100213,128,0,100294:0:0:0:0:
192,192,100213,1,0,0:0:0:0:
64,192,100375,128,0,100943:0:0:0:0:
192,192,100375,128,0,100456:0:0:0:0:
320,192,100375,1,0,0:0:0:0:
448,192,100699,128,0,100943:0:0:0:0:
320,192,100699,128,0,100780:0:0:0:0:
192,192,100699,1,0,0:0:0:0:
320,192,101024,128,0,101429:0:0:0:0:
448,192,101024,128,0,101429:0:0:0:0:
64,192,101024,128,0,101105:0:0:0:0:
192,192,101024,1,0,0:0:0:0:
192,192,101186,128,0,101267:0:0:0:0:
64,192,101348,128,0,101591:0:0:0:0:
192,192,101348,128,0,101591:0:0:0:0:
320,192,101510,128,0,101591:0:0:0:0:
448,192,101510,128,0,101591:0:0:0:0:
448,192,101672,128,0,101753:0:0:0:0:
64,192,101672,128,0,102078:0:0:0:0:
192,192,101672,128,0,102078:0:0:0:0:
320,192,101672,1,0,0:0:0:0:
320,192,101835,128,0,101916:0:0:0:0:
448,192,101997,128,0,102240:0:0:0:0:
320,192,101997,128,0,102240:0:0:0:0:
64,192,102159,128,0,102240:0:0:0:0:
192,192,102159,128,0,102240:0:0:0:0:
320,192,102321,128,0,102564:0:0:0:0:
192,192,102321,128,0,102564:0:0:0:0:
448,192,102483,128,0,102564:0:0:0:0:
64,192,102483,128,0,102564:0:0:0:0:
448,192,102645,128,0,102889:0:0:0:0:
64,192,102645,128,0,103051:0:0:0:0:
320,192,102645,128,0,103213:0:0:0:0:
192,192,102645,128,0,103375:0:0:0:0:
448,192,102970,1,0,0:0:0:0:
64,192,103132,1,0,0:0:0:0:
320,192,103294,1,0,0:0:0:0:
192,192,103456,1,0,0:0:0:0:
320,192,103456,1,0,0:0:0:0:
64,192,103456,128,0,103537:0:0:0:0:
448,192,103456,128,0,103537:0:0:0:0:
320,192,103618,128,0,104510:0:0:0:0:
192,192,103618,128,0,104024:0:0:0:0:
448,192,103618,128,0,103862:0:0:0:0:
64,192,103618,128,0,104024:0:0:0:0:
448,192,103943,1,0,0:0:0:0:
64,192,104105,1,0,0:0:0:0:
192,192,104105,1,0,0:0:0:0:
448,192,104105,128,0,104510:0:0:0:0:
64,192,104267,128,0,104835:0:0:0:0:
192,192,104267,128,0,104510:0:0:0:0:
320,192,104591,128,0,105159:0:0:0:0:
192,192,104591,128,0,104835:0:0:0:0:
448,192,104591,1,0,0:0:0:0:
448,192,104916,128,0,105483:0:0:0:0:
64,192,104916,128,0,105483:0:0:0:0:
192,192,104916,1,0,0:0:0:0:
192,192,105240,128,0,105483:0:0:0:0:
320,192,105240,1,0,0:0:0:0:
320,192,105564,128,0,105808:0:0:0:0:
192,192,105564,1,0,0:0:0:0:
64,192,105564,128,0,105808:0:0:0:0:
448,192,105564,128,0,105808:0:0:0:0:
192,192,105726,128,0,105970:0:0:0:0:
64,192,105889,128,0,106132:0:0:0:0:
320,192,105889,128,0,106132:0:0:0:0:
448,192,105889,128,0,106132:0:0:0:0:
192,192,106051,128,0,107105:0:0:0:0:
64,192,106213,128,0,106456:0:0:0:0:
448,192,106213,128,0,106618:0:0:0:0:
320,192,106213,128,0,106618:0:0:0:0:
64,192,106537,1,0,0:0:0:0:
320,192,106699,1,0,0:0:0:0:
448,192,106699,1,0,0:0:0:0:
64,192,106699,128,0,107105:0:0:0:0:
320,192,106862,128,0,107429:0:0:0:0:
448,192,106862,128,0,107429:0:0:0:0:
64,192,107186,128,0,107753:0:0:0:0:
192,192,107186,1,0,0:0:0:0:
192,192,107510,128,0,107753:0:0:0:0:
320,192,107510,128,0,107997:0:0:0:0:
448,192,107510,128,0,107753:0:0:0:0:
64,192,107835,128,0,108078:0:0:0:0:
448,192,107835,128,0,108078:0:0:0:0:
192,192,107835,128,0,108078:0:0:0:0:
320,192,108078,1,0,0:0:0:0:
448,192,108159,128,0,108321:0:0:0:0:
64,192,108159,128,0,108321:0:0:0:0:
192,192,108159,128,0,108321:0:0:0:0:
320,192,108321,1,0,0:0:0:0:
448,192,108402,128,0,108564:0:0:0:0:
64,192,108402,128,0,108564:0:0:0:0:
192,192,108402,128,0,108564:0:0:0:0:
320,192,108564,1,0,0:0:0:0:
448,192,108645,128,0,108726:0:0:0:0:
64,192,108645,128,0,108726:0:0:0:0:
192,192,108645,128,0,108726:0:0:0:0:
320,192,108808,128,0,109375:0:0:0:0:
448,192,108808,128,0,109699:0:0:0:0:
64,192,108808,128,0,109213:0:0:0:0:
192,192,108808,128,0,109051:0:0:0:0:
192,192,109132,1,0,0:0:0:0:
64,192,109294,1,0,0:0:0:0:
192,192,109294,1,0,0:0:0:0:
64,192,109456,128,0,110024:0:0:0:0:
192,192,109456,128,0,109862:0:0:0:0:
320,192,109456,1,0,0:0:0:0:
320,192,109780,128,0,110348:0:0:0:0:
448,192,109780,1,0,0:0:0:0:
192,192,109943,1,0,0:0:0:0:
448,192,110105,128,0,110672:0:0:0:0:
64,192,110105,128,0,110672:0:0:0:0:
192,192,110105,128,0,110348:0:0:0:0:
320,192,110429,128,0,110997:0:0:0:0:
192,192,110429,1,0,0:0:0:0:
192,192,110753,128,0,110997:0:0:0:0:
448,192,110753,1,0,0:0:0:0:
64,192,110753,128,0,111321:0:0:0:0:
320,192,111078,128,0,111321:0:0:0:0:
448,192,111078,128,0,111321:0:0:0:0:
192,192,111078,1,0,0:0:0:0:
192,192,111402,128,0,111645:0:0:0:0:
64,192,111402,128,0,111645:0:0:0:0:
320,192,111402,1,0,0:0:0:0:
448,192,111402,128,0,111645:0:0:0:0:
320,192,111564,128,0,111970:0:0:0:0:
64,192,111726,128,0,111970:0:0:0:0:
192,192,111726,128,0,111970:0:0:0:0:
448,192,111726,128,0,111970:0:0:0:0:
448,192,112051,128,0,112294:0:0:0:0:
320,192,112051,128,0,112294:0:0:0:0:
192,192,112051,1,0,0:0:0:0:
64,192,112051,128,0,112294:0:0:0:0:
192,192,112213,128,0,112780:0:0:0:0:
320,192,112375,128,0,112618:0:0:0:0:
448,192,112375,128,0,112618:0:0:0:0:
64,192,112375,128,0,112618:0:0:0:0:
64,192,112699,128,0,112780:0:0:0:0:
320,192,112699,128,0,112943:0:0:0:0:
448,192,112699,128,0,113105:0:0:0:0:
192,192,112862,128,0,112943:0:0:0:0:
64,192,112862,1,0,0:0:0:0:
320,192,113024,128,0,113105:0:0:0:0:
64,192,113024,128,0,113267:0:0:0:0:
448,192,113186,128,0,113267:0:0:0:0:
192,192,113186,128,0,113267:0:0:0:0:
320,192,113348,128,0,113591:0:0:0:0:
448,192,113348,128,0,113916:0:0:0:0:
64,192,113348,128,0,113429:0:0:0:0:
192,192,113348,1,0,0:0:0:0:
192,192,113510,128,0,113591:0:0:0:0:
64,192,113510,1,0,0:0:0:0:
64,192,113672,128,0,113916:0:0:0:0:
320,192,113672,1,0,0:0:0:0:
192,192,113753,1,0,0:0:0:0:
320,192,113835,128,0,113916:0:0:0:0:
192,192,113916,1,0,0:0:0:0:
64,192,113997,128,0,114078:0:0:0:0:
320,192,113997,128,0,114240:0:0:0:0:
448,192,113997,1,0,0:0:0:0:
64,192,114159,1,0,0:0:0:0:
64,192,114321,1,0,0:0:0:0:
448,192,114321,128,0,114564:0:0:0:0:
192,192,114321,128,0,114402:0:0:0:0:
320,192,114321,1,0,0:0:0:0:
192,192,114483,1,0,0:0:0:0:
448,192,114645,1,0,0:0:0:0:
320,192,114645,128,0,114726:0:0:0:0:
64,192,114645,128,0,115051:0:0:0:0:
192,192,114645,1,0,0:0:0:0:
320,192,114808,1,0,0:0:0:0:
448,192,114970,128,0,115051:0:0:0:0:
192,192,114970,128,0,115051:0:0:0:0:
320,192,114970,1,0,0:0:0:0:
448,192,115132,1,0,0:0:0:0:
64,192,115132,1,0,0:0:0:0:
192,192,115294,1,0,0:0:0:0:
64,192,115294,128,0,115375:0:0:0:0:
320,192,115294,128,0,115537:0:0:0:0:
448,192,115294,1,0,0:0:0:0:
192,192,115456,1,0,0:0:0:0:
448,192,115618,128,0,115862:0:0:0:0:
64,192,115618,1,0,0:0:0:0:
192,192,115618,128,0,115699:0:0:0:0:
320,192,115618,1,0,0:0:0:0:
192,192,115780,1,0,0:0:0:0:
320,192,115943,128,0,116186:0:0:0:0:
64,192,115943,128,0,116024:0:0:0:0:
192,192,115943,1,0,0:0:0:0:
448,192,115943,1,0,0:0:0:0:
192,192,116105,1,0,0:0:0:0:
448,192,116267,128,0,116510:0:0:0:0:
64,192,116267,1,0,0:0:0:0:
192,192,116267,128,0,116348:0:0:0:0:
320,192,116267,1,0,0:0:0:0:
192,192,116429,1,0,0:0:0:0:
448,192,116591,128,0,116672:0:0:0:0:
192,192,116591,128,0,116672:0:0:0:0:
64,192,116591,128,0,116835:0:0:0:0:
320,192,116591,1,0,0:0:0:0:
192,192,116753,128,0,116997:0:0:0:0:
448,192,116753,1,0,0:0:0:0:
448,192,116916,1,0,0:0:0:0:
320,192,116916,128,0,116997:0:0:0:0:
64,192,116916,128,0,117159:0:0:0:0:
192,192,117078,128,0,117321:0:0:0:0:
320,192,117078,1,0,0:0:0:0:
320,192,117240,128,0,117483:0:0:0:0:
64,192,117240,128,0,117321:0:0:0:0:
448,192,117240,128,0,117321:0:0:0:0:
192,192,117402,128,0,117564:0:0:0:0:
448,192,117402,1,0,0:0:0:0:
64,192,117402,1,0,0:0:0:0:
64,192,117564,128,0,117808:0:0:0:0:
448,192,117564,128,0,117808:0:0:0:0:
320,192,117564,1,0,0:0:0:0:
320,192,117645,128,0,117808:0:0:0:0:
192,192,117726,128,0,117808:0:0:0:0:
192,192,117889,128,0,118132:0:0:0:0:
64,192,117889,1,0,0:0:0:0:
448,192,117889,1,0,0:0:0:0:
320,192,117889,128,0,118132:0:0:0:0:
64,192,118051,128,0,118132:0:0:0:0:
448,192,118051,128,0,118132:0:0:0:0:
64,192,118213,128,0,118456:0:0:0:0:
448,192,118213,128,0,118456:0:0:0:0:
320,192,118213,1,0,0:0:0:0:
192,192,118213,1,0,0:0:0:0:
192,192,118294,128,0,118456:0:0:0:0:
320,192,118375,128,0,118456:0:0:0:0:
192,192,118537,1,0,0:0:0:0:
64,192,118537,1,0,0:0:0:0:
320,192,118537,1,0,0:0:0:0:
448,192,118537,1,0,0:0:0:0:
64,192,118699,1,0,0:0:0:0:
448,192,118699,1,0,0:0:0:0:
192,192,118862,1,0,0:0:0:0:
320,192,118862,1,0,0:0:0:0:
64,192,119186,128,0,119267:0:0:0:0:
448,192,119186,128,0,119267:0:0:0:0:
192,192,119186,128,0,119348:0:0:0:0:
320,192,119267,128,0,119429:0:0:0:0:
64,192,119348,1,0,0:0:0:0:
448,192,119348,1,0,0:0:0:0:
192,192,119429,128,0,119672:0:0:0:0:
64,192,119510,128,0,119591:0:0:0:0:
448,192,119510,128,0,119591:0:0:0:0:
320,192,119591,128,0,119753:0:0:0:0:
64,192,119672,1,0,0:0:0:0:
448,192,119672,1,0,0:0:0:0:
192,192,119753,128,0,119997:0:0:0:0:
64,192,119835,128,0,119916:0:0:0:0:
448,192,119835,128,0,119916:0:0:0:0:
320,192,119916,128,0,120078:0:0:0:0:
64,192,119997,1,0,0:0:0:0:
448,192,119997,1,0,0:0:0:0:
192,192,120078,128,0,120240:0:0:0:0:
64,192,120159,128,0,120240:0:0:0:0:
448,192,120159,128,0,120321:0:0:0:0:
320,192,120240,128,0,120402:0:0:0:0:
192,192,120321,128,0,120483:0:0:0:0:
64,192,120483,128,0,120564:0:0:0:0:
448,192,120483,128,0,120564:0:0:0:0:
320,192,120483,128,0,120645:0:0:0:0:
192,192,120564,128,0,120726:0:0:0:0:
448,192,120645,1,0,0:0:0:0:
64,192,120645,1,0,0:0:0:0:
320,192,120726,128,0,120970:0:0:0:0:
64,192,120808,128,0,120889:0:0:0:0:
448,192,120808,128,0,120889:0:0:0:0:
192,192,120889,128,0,121051:0:0:0:0:
448,192,120970,1,0,0:0:0:0:
64,192,120970,1,0,0:0:0:0:
320,192,121051,128,0,121294:0:0:0:0:
448,192,121132,128,0,121213:0:0:0:0:
64,192,121132,128,0,121213:0:0:0:0:
192,192,121213,128,0,121375:0:0:0:0:
448,192,121294,1,0,0:0:0:0:
64,192,121294,1,0,0:0:0:0:
320,192,121375,128,0,121537:0:0:0:0:
448,192,121456,128,0,121537:0:0:0:0:
64,192,121456,128,0,121618:0:0:0:0:
192,192,121537,128,0,121699:0:0:0:0:
448,192,121618,128,0,121780:0:0:0:0:
320,192,121699,128,0,121862:0:0:0:0:
64,192,121699,1,0,0:0:0:0:
192,192,121780,128,0,122024:0:0:0:0:
64,192,121862,128,0,121943:0:0:0:0:
448,192,121862,1,0,0:0:0:0:
320,192,121943,128,0,122105:0:0:0:0:
448,192,122024,128,0,122186:0:0:0:0:
64,192,122105,128,0,122267:0:0:0:0:
192,192,122186,128,0,122348:0:0:0:0:
320,192,122267,128,0,122510:0:0:0:0:
448,192,122348,128,0,122429:0:0:0:0:
64,192,122348,1,0,0:0:0:0:
192,192,122429,128,0,122591:0:0:0:0:
64,192,122510,128,0,122672:0:0:0:0:
448,192,122510,128,0,122551:0:0:0:0:
320,192,122591,128,0,122632:0:0:0:0:
192,192,122672,128,0,122713:0:0:0:0:
448,192,122672,128,0,122835:0:0:0:0:
64,192,122753,128,0,122794:0:0:0:0:
320,192,122753,128,0,122916:0:0:0:0:
192,192,122835,128,0,122875:0:0:0:0:
64,192,122916,128,0,123078:0:0:0:0:
448,192,122916,128,0,122956:0:0:0:0:
192,192,122997,128,0,123159:0:0:0:0:
320,192,122997,128,0,123037:0:0:0:0:
448,192,123078,128,0,123240:0:0:0:0:
320,192,123159,128,0,123321:0:0:0:0:
64,192,123159,1,0,0:0:0:0:
192,192,123240,128,0,123402:0:0:0:0:
64,192,123321,128,0,123483:0:0:0:0:
448,192,123321,1,0,0:0:0:0:
448,192,123402,128,0,123889:0:0:0:0:
320,192,123402,128,0,123808:0:0:0:0:
192,192,123483,1,0,0:0:0:0:
64,192,123564,1,0,0:0:0:0:
64,192,123726,128,0,123808:0:0:0:0:
192,192,123808,128,0,123889:0:0:0:0:
320,192,123889,128,0,123970:0:0:0:0:
64,192,123889,1,0,0:0:0:0:
448,192,123970,128,0,124294:0:0:0:0:
192,192,123970,1,0,0:0:0:0:
320,192,124051,128,0,124294:0:0:0:0:
64,192,124051,1,0,0:0:0:0:
192,192,124132,128,0,124294:0:0:0:0:
64,192,124213,128,0,124294:0:0:0:0:
64,192,124375,128,0,124456:0:0:0:0:
448,192,124375,128,0,124456:0:0:0:0:
320,192,124375,128,0,124456:0:0:0:0:
64,192,124537,128,0,124618:0:0:0:0:
448,192,124537,128,0,124618:0:0:0:0:
320,192,124537,128,0,124618:0:0:0:0:
64,192,124699,128,0,124780:0:0:0:0:
448,192,124699,128,0,124780:0:0:0:0:
320,192,124699,128,0,124780:0:0:0:0:
64,192,124862,1,0,0:0:0:0:
192,192,124862,1,0,0:0:0:0:
448,192,124862,1,0,0:0:0:0:
320,192,124943,1,0,0:0:0:0:
64,192,125024,128,0,125105:0:0:0:0:
192,192,125024,128,0,125105:0:0:0:0:
448,192,125024,128,0,125105:0:0:0:0:
64,192,125186,128,0,125267:0:0:0:0:
192,192,125186,128,0,125267:0:0:0:0:
448,192,125186,128,0,125267:0:0:0:0:
64,192,125348,1,0,0:0:0:0:
320,192,125348,1,0,0:0:0:0:
448,192,125348,1,0,0:0:0:0:
192,192,125429,1,0,0:0:0:0:
320,192,125510,128,0,125591:0:0:0:0:
448,192,125510,128,0,125591:0:0:0:0:
64,192,125510,128,0,125591:0:0:0:0:
192,192,125672,128,0,125916:0:0:0:0:
64,192,125672,128,0,125916:0:0:0:0:
320,192,125672,128,0,125916:0:0:0:0:
448,192,125672,128,0,125916:0:0:0:0:
64,192,125997,128,0,126078:0:0:0:0:
192,192,125997,128,0,126078:0:0:0:0:
320,192,125997,1,0,0:0:0:0:
448,192,126078,1,0,0:0:0:0:
192,192,126159,128,0,126240:0:0:0:0:
320,192,126159,128,0,126240:0:0:0:0:
64,192,126240,1,0,0:0:0:0:
320,192,126321,128,0,126402:0:0:0:0:
448,192,126321,128,0,126402:0:0:0:0:
192,192,126321,1,0,0:0:0:0:
64,192,126402,1,0,0:0:0:0:
192,192,126483,128,0,126564:0:0:0:0:
320,192,126483,128,0,126564:0:0:0:0:
448,192,126564,1,0,0:0:0:0:
64,192,126645,128,0,126726:0:0:0:0:
192,192,126645,128,0,126726:0:0:0:0:
320,192,126645,1,0,0:0:0:0:
448,192,126726,1,0,0:0:0:0:
192,192,126808,128,0,126889:0:0:0:0:
320,192,126808,128,0,126889:0:0:0:0:
64,192,126808,1,0,0:0:0:0:
320,192,126970,128,0,127862:0:0:0:0:
192,192,126970,128,0,127841:0:0:0:0:
64,192,126970,128,0,127862:0:0:0:0:
448,192,126970,128,0,127821:0:0:0:0:
64,192,127943,1,0,0:0:0:0:
192,192,127943,1,0,0:0:0:0:
320,192,127943,1,0,0:0:0:0:
448,192,127943,1,0,0:0:0:0:
448,192,128267,128,0,128348:0:0:0:0:
320,192,128267,128,0,128348:0:0:0:0:
64,192,128267,1,0,0:0:0:0:
192,192,128348,1,0,0:0:0:0:
320,192,128429,1,0,0:0:0:0:
64,192,128429,128,0,128510:0:0:0:0:
448,192,128429,128,0,128672:0:0:0:0:
192,192,128510,128,0,128591:0:0:0:0:
320,192,128591,128,0,128672:0:0:0:0:
64,192,128591,128,0,128835:0:0:0:0:
192,192,128672,1,0,0:0:0:0:
448,192,128753,128,0,128835:0:0:0:0:
320,192,128753,128,0,128916:0:0:0:0:
192,192,128835,128,0,128997:0:0:0:0:
448,192,128916,1,0,0:0:0:0:
64,192,128916,128,0,128997:0:0:0:0:
320,192,128997,1,0,0:0:0:0:
448,192,129078,128,0,129159:0:0:0:0:
192,192,129078,1,0,0:0:0:0:
64,192,129078,128,0,129321:0:0:0:0:
320,192,129159,128,0,129240:0:0:0:0:
192,192,129240,128,0,129321:0:0:0:0:
448,192,129240,128,0,129483:0:0:0:0:
320,192,129321,1,0,0:0:0:0:
64,192,129402,128,0,129483:0:0:0:0:
192,192,129402,128,0,129564:0:0:0:0:
320,192,129483,128,0,129645:0:0:0:0:
64,192,129564,128,0,129808:0:0:0:0:
448,192,129564,128,0,129645:0:0:0:0:
192,192,129645,1,0,0:0:0:0:
320,192,129726,128,0,129889:0:0:0:0:
448,192,129726,1,0,0:0:0:0:
192,192,129808,128,0,129970:0:0:0:0:
64,192,129889,128,0,129970:0:0:0:0:
448,192,129889,128,0,130132:0:0:0:0:
320,192,129970,1,0,0:0:0:0:
192,192,130051,128,0,130213:0:0:0:0:
64,192,130051,1,0,0:0:0:0:
320,192,130132,128,0,130294:0:0:0:0:
64,192,130213,128,0,130456:0:0:0:0:
448,192,130213,128,0,130294:0:0:0:0:
192,192,130294,1,0,0:0:0:0:
320,192,130375,128,0,130537:0:0:0:0:
448,192,130375,1,0,0:0:0:0:
192,192,130456,128,0,130618:0:0:0:0:
64,192,130537,128,0,130780:0:0:0:0:
448,192,130537,1,0,0:0:0:0:
320,192,130618,1,0,0:0:0:0:
192,192,130699,128,0,130780:0:0:0:0:
448,192,130699,128,0,130780:0:0:0:0:
448,192,130862,128,0,131145:0:0:0:0:
64,192,130862,1,0,0:0:0:0:
320,192,130862,1,0,0:0:0:0:
192,192,130943,1,0,0:0:0:0:
320,192,131024,128,0,131145:0:0:0:0:
64,192,131024,128,0,131145:0:0:0:0:
64,192,131186,128,0,131470:0:0:0:0:
192,192,131186,1,0,0:0:0:0:
448,192,131186,1,0,0:0:0:0:
320,192,131267,1,0,0:0:0:0:
448,192,131348,128,0,131470:0:0:0:0:
192,192,131348,128,0,131470:0:0:0:0:
320,192,131510,128,0,131794:0:0:0:0:
64,192,131510,1,0,0:0:0:0:
448,192,131510,1,0,0:0:0:0:
192,192,131591,1,0,0:0:0:0:
64,192,131672,128,0,131794:0:0:0:0:
448,192,131672,128,0,131794:0:0:0:0:
192,192,131835,128,0,132118:0:0:0:0:
64,192,131835,1,0,0:0:0:0:
448,192,131835,1,0,0:0:0:0:
320,192,131916,1,0,0:0:0:0:
448,192,131997,128,0,132118:0:0:0:0:
64,192,131997,128,0,132118:0:0:0:0:
448,192,132159,128,0,132402:0:0:0:0:
64,192,132159,1,0,0:0:0:0:
320,192,132159,128,0,132240:0:0:0:0:
192,192,132240,1,0,0:0:0:0:
320,192,132321,128,0,132483:0:0:0:0:
64,192,132321,1,0,0:0:0:0:
192,192,132402,128,0,132564:0:0:0:0:
64,192,132483,128,0,132726:0:0:0:0:
448,192,132483,1,0,0:0:0:0:
320,192,132564,1,0,0:0:0:0:
448,192,132645,128,0,132726:0:0:0:0:
192,192,132645,128,0,132726:0:0:0:0:
320,192,132726,1,0,0:0:0:0:
64,192,132808,128,0,133051:0:0:0:0:
192,192,132808,128,0,132889:0:0:0:0:
448,192,132808,1,0,0:0:0:0:
320,192,132889,1,0,0:0:0:0:
192,192,132970,128,0,133132:0:0:0:0:
448,192,132970,1,0,0:0:0:0:
320,192,133051,128,0,133213:0:0:0:0:
448,192,133132,128,0,133375:0:0:0:0:
64,192,133132,1,0,0:0:0:0:
192,192,133213,1,0,0:0:0:0:
64,192,133294,128,0,133375:0:0:0:0:
320,192,133294,128,0,133375:0:0:0:0:
192,192,133375,1,0,0:0:0:0:
448,192,133456,128,0,133537:0:0:0:0:
64,192,133456,128,0,133537:0:0:0:0:
320,192,133537,128,0,133699:0:0:0:0:
192,192,133537,1,0,0:0:0:0:
448,192,133618,1,0,0:0:0:0:
64,192,133618,128,0,133699:0:0:0:0:
192,192,133699,128,0,133862:0:0:0:0:
448,192,133780,128,0,133862:0:0:0:0:
64,192,133780,1,0,0:0:0:0:
320,192,133862,128,0,133943:0:0:0:0:
64,192,133943,128,0,134024:0:0:0:0:
448,192,133943,1,0,0:0:0:0:
192,192,133943,128,0,134024:0:0:0:0:
320,192,134024,128,0,134105:0:0:0:0:
448,192,134105,128,0,134186:0:0:0:0:
64,192,134105,128,0,134186:0:0:0:0:
192,192,134186,128,0,134348:0:0:0:0:
320,192,134186,1,0,0:0:0:0:
64,192,134267,1,0,0:0:0:0:
448,192,134267,128,0,134348:0:0:0:0:
320,192,134348,128,0,134510:0:0:0:0:
448,192,134429,1,0,0:0:0:0:
64,192,134429,128,0,134510:0:0:0:0:
192,192,134510,128,0,134591:0:0:0:0:
448,192,134591,128,0,134672:0:0:0:0:
320,192,134591,128,0,134672:0:0:0:0:
64,192,134591,1,0,0:0:0:0:
192,192,134672,128,0,134753:0:0:0:0:
448,192,134753,128,0,134916:0:0:0:0:
64,192,134753,128,0,134835:0:0:0:0:
320,192,134753,1,0,0:0:0:0:
192,192,134835,128,0,134997:0:0:0:0:
64,192,134916,1,0,0:0:0:0:
320,192,134916,128,0,134997:0:0:0:0:
448,192,134997,128,0,135159:0:0:0:0:
320,192,135078,1,0,0:0:0:0:
64,192,135078,128,0,135240:0:0:0:0:
192,192,135159,128,0,135240:0:0:0:0:
448,192,135240,1,0,0:0:0:0:
320,192,135240,128,0,135402:0:0:0:0:
64,192,135321,128,0,135402:0:0:0:0:
448,192,135402,1,0,0:0:0:0:
192,192,135402,128,0,135564:0:0:0:0:
320,192,135483,128,0,135645:0:0:0:0:
448,192,135564,128,0,135645:0:0:0:0:
64,192,135564,128,0,135645:0:0:0:0:
448,192,135726,1,0,0:0:0:0:
64,192,135726,1,0,0:0:0:0:
320,192,135726,128,0,135889:0:0:0:0:
192,192,135808,128,0,135970:0:0:0:0:
448,192,135889,128,0,135970:0:0:0:0:
64,192,135889,128,0,135970:0:0:0:0:
448,192,136051,128,0,136294:0:0:0:0:
64,192,136051,128,0,136132:0:0:0:0:
192,192,136051,1,0,0:0:0:0:
320,192,136132,1,0,0:0:0:0:
64,192,136213,128,0,136294:0:0:0:0:
192,192,136213,128,0,136375:0:0:0:0:
320,192,136294,128,0,136456:0:0:0:0:
64,192,136375,128,0,136618:0:0:0:0:
448,192,136375,128,0,136456:0:0:0:0:
192,192,136456,1,0,0:0:0:0:
448,192,136537,128,0,136618:0:0:0:0:
320,192,136537,128,0,136699:0:0:0:0:
192,192,136618,128,0,136699:0:0:0:0:
448,192,136699,128,0,136862:0:0:0:0:
64,192,136699,128,0,136780:0:0:0:0:
192,192,136780,128,0,136943:0:0:0:0:
64,192,136862,1,0,0:0:0:0:
320,192,136862,128,0,137024:0:0:0:0:
448,192,136943,128,0,137105:0:0:0:0:
192,192,137024,1,0,0:0:0:0:
64,192,137024,128,0,137186:0:0:0:0:
320,192,137105,128,0,137267:0:0:0:0:
192,192,137186,128,0,137267:0:0:0:0:
448,192,137186,1,0,0:0:0:0:
64,192,137267,128,0,137348:0:0:0:0:
448,192,137348,128,0,137591:0:0:0:0:
320,192,137348,128,0,137591:0:0:0:0:
192,192,137348,128,0,137591:0:0:0:0:
192,192,137672,128,0,137916:0:0:0:0:
448,192,137672,128,0,137916:0:0:0:0:
64,192,137672,128,0,137916:0:0:0:0:
320,192,137672,1,0,0:0:0:0:
320,192,137916,1,0,0:0:0:0:
192,192,137997,1,0,0:0:0:0:
64,192,137997,128,0,138078:0:0:0:0:
448,192,137997,1,0,0:0:0:0:
320,192,138078,128,0,138159:0:0:0:0:
64,192,138159,1,0,0:0:0:0:
192,192,138159,128,0,138240:0:0:0:0:
448,192,138159,1,0,0:0:0:0:
320,192,138240,128,0,138321:0:0:0:0:
64,192,138321,128,0,138564:0:0:0:0:
448,192,138321,128,0,138564:0:0:0:0:
192,192,138321,1,0,0:0:0:0:
192,192,138483,128,0,138564:0:0:0:0:
320,192,138483,128,0,138564:0:0:0:0:
448,192,138645,128,0,138726:0:0:0:0:
320,192,138645,128,0,138726:0:0:0:0:
64,192,138645,1,0,0:0:0:0:
192,192,138726,128,0,138889:0:0:0:0:
320,192,138808,128,0,138970:0:0:0:0:
64,192,138808,1,0,0:0:0:0:
448,192,138889,1,0,0:0:0:0:
64,192,138970,128,0,139051:0:0:0:0:
192,192,138970,128,0,139051:0:0:0:0:
448,192,139051,128,0,139213:0:0:0:0:
320,192,139051,1,0,0:0:0:0:
64,192,139132,1,0,0:0:0:0:
192,192,139132,128,0,139213:0:0:0:0:
320,192,139213,128,0,139294:0:0:0:0:
64,192,139294,128,0,139375:0:0:0:0:
192,192,139294,128,0,139375:0:0:0:0:
448,192,139294,1,0,0:0:0:0:
320,192,139375,128,0,139537:0:0:0:0:
192,192,139456,128,0,139618:0:0:0:0:
448,192,139456,1,0,0:0:0:0:
64,192,139537,1,0,0:0:0:0:
448,192,139618,128,0,139699:0:0:0:0:
320,192,139618,128,0,139699:0:0:0:0:
64,192,139699,128,0,139862:0:0:0:0:
192,192,139699,1,0,0:0:0:0:
448,192,139780,1,0,0:0:0:0:
320,192,139780,128,0,139862:0:0:0:0:
192,192,139862,128,0,139943:0:0:0:0:
320,192,139943,128,0,140105:0:0:0:0:
448,192,139943,1,0,0:0:0:0:
64,192,140024,128,0,140186:0:0:0:0:
192,192,140024,1,0,0:0:0:0:
448,192,140105,128,0,140267:0:0:0:0:
192,192,140186,128,0,140267:0:0:0:0:
320,192,140267,128,0,140348:0:0:0:0:
64,192,140267,128,0,140429:0:0:0:0:
448,192,140348,128,0,140510:0:0:0:0:
192,192,140429,128,0,140510:0:0:0:0:
320,192,140510,128,0,140591:0:0:0:0:
192,192,140591,128,0,140753:0:0:0:0:
64,192,140591,1,0,0:0:0:0:
320,192,140672,1,0,0:0:0:0:
448,192,140672,128,0,140835:0:0:0:0:
64,192,140753,128,0,140916:0:0:0:0:
320,192,140835,128,0,140916:0:0:0:0:
192,192,140916,128,0,140997:0:0:0:0:
448,192,140916,128,0,141078:0:0:0:0:
64,192,140997,128,0,141159:0:0:0:0:
320,192,141078,128,0,141159:0:0:0:0:
192,192,141159,128,0,141240:0:0:0:0:
448,192,141240,128,0,141524:0:0:0:0:
64,192,141240,1,0,0:0:0:0:
320,192,141240,1,0,0:0:0:0:
192,192,141321,1,0,0:0:0:0:
64,192,141402,128,0,141524:0:0:0:0:
320,192,141402,128,0,141524:0:0:0:0:
64,192,141564,128,0,141848:0:0:0:0:
192,192,141564,1,0,0:0:0:0:
448,192,141564,1,0,0:0:0:0:
320,192,141645,1,0,0:0:0:0:
448,192,141726,128,0,141848:0:0:0:0:
192,192,141726,128,0,141848:0:0:0:0:
320,192,141889,128,0,142172:0:0:0:0:
64,192,141889,1,0,0:0:0:0:
448,192,141889,1,0,0:0:0:0:
192,192,141970,1,0,0:0:0:0:
64,192,142051,128,0,142172:0:0:0:0:
448,192,142051,128,0,142172:0:0:0:0:
192,192,142213,128,0,142497:0:0:0:0:
64,192,142213,1,0,0:0:0:0:
448,192,142213,1,0,0:0:0:0:
320,192,142294,1,0,0:0:0:0:
64,192,142375,128,0,142497:0:0:0:0:
448,192,142375,128,0,142497:0:0:0:0:
448,192,142537,128,0,142780:0:0:0:0:
64,192,142537,128,0,142618:0:0:0:0:
320,192,142537,1,0,0:0:0:0:
192,192,142618,128,0,142699:0:0:0:0:
64,192,142699,128,0,142943:0:0:0:0:
320,192,142699,128,0,142780:0:0:0:0:
448,192,142862,128,0,143024:0:0:0:0:
192,192,142862,1,0,0:0:0:0:
320,192,142943,128,0,143105:0:0:0:0:
64,192,143024,128,0,143105:0:0:0:0:
192,192,143024,128,0,143186:0:0:0:0:
448,192,143105,128,0,143267:0:0:0:0:
320,192,143186,128,0,143267:0:0:0:0:
64,192,143186,128,0,143348:0:0:0:0:
192,192,143267,128,0,143429:0:0:0:0:
448,192,143348,128,0,143429:0:0:0:0:
320,192,143348,128,0,143510:0:0:0:0:
64,192,143429,128,0,143591:0:0:0:0:
192,192,143510,128,0,143591:0:0:0:0:
448,192,143510,128,0,143753:0:0:0:0:
320,192,143591,128,0,143753:0:0:0:0:
64,192,143672,128,0,143753:0:0:0:0:
192,192,143672,128,0,143753:0:0:0:0:
64,192,143835,128,0,144078:0:0:0:0:
192,192,143835,128,0,144078:0:0:0:0:
448,192,143835,1,0,0:0:0:0:
320,192,143916,128,0,144078:0:0:0:0:
448,192,143997,128,0,144078:0:0:0:0:
320,192,144159,128,0,144402:0:0:0:0:
448,192,144159,128,0,144402:0:0:0:0:
64,192,144159,1,0,0:0:0:0:
192,192,144240,128,0,144402:0:0:0:0:
64,192,144321,128,0,144402:0:0:0:0:
64,192,144483,128,0,144726:0:0:0:0:
448,192,144483,128,0,144726:0:0:0:0:
320,192,144483,1,0,0:0:0:0:
192,192,144564,128,0,144726:0:0:0:0:
320,192,144645,128,0,144726:0:0:0:0:
64,192,144808,128,0,145051:0:0:0:0:
448,192,144808,128,0,145051:0:0:0:0:
192,192,144808,1,0,0:0:0:0:
320,192,144889,128,0,145051:0:0:0:0:
192,192,144970,128,0,145051:0:0:0:0:
64,192,145132,128,0,145375:0:0:0:0:
192,192,145132,128,0,145375:0:0:0:0:
448,192,145132,1,0,0:0:0:0:
320,192,145213,128,0,145375:0:0:0:0:
448,192,145294,128,0,145375:0:0:0:0:
320,192,145456,128,0,145699:0:0:0:0:
448,192,145456,128,0,145699:0:0:0:0:
64,192,145456,1,0,0:0:0:0:
192,192,145537,128,0,145699:0:0:0:0:
64,192,145618,128,0,145699:0:0:0:0:
64,192,145780,128,0,146064:0:0:0:0:
192,192,145780,128,0,146064:0:0:0:0:
448,192,145780,1,0,0:0:0:0:
320,192,145862,128,0,146064:0:0:0:0:
448,192,145943,128,0,146064:0:0:0:0:
448,192,146105,128,0,146389:0:0:0:0:
320,192,146105,128,0,146389:0:0:0:0:
64,192,146105,1,0,0:0:0:0:
192,192,146186,128,0,146389:0:0:0:0:
64,192,146267,128,0,146389:0:0:0:0:
448,192,146429,128,0,146672:0:0:0:0:
64,192,146429,128,0,146510:0:0:0:0:
192,192,146510,128,0,146591:0:0:0:0:
64,192,146591,1,0,0:0:0:0:
320,192,146591,128,0,146672:0:0:0:0:
192,192,146672,1,0,0:0:0:0:
64,192,146753,128,0,146997:0:0:0:0:
320,192,146753,128,0,146997:0:0:0:0:
448,192,146753,128,0,146997:0:0:0:0:
448,192,147078,1,0,0:0:0:0:
192,192,147078,128,0,147321:0:0:0:0:
64,192,147078,128,0,147159:0:0:0:0:
320,192,147240,128,0,147483:0:0:0:0:
448,192,147240,128,0,147321:0:0:0:0:
64,192,147402,128,0,147645:0:0:0:0:
192,192,147402,1,0,0:0:0:0:
448,192,147564,128,0,147645:0:0:0:0:
192,192,147564,128,0,147645:0:0:0:0:
320,192,147564,1,0,0:0:0:0:
320,192,147726,128,0,148335:0:0:0:0:
448,192,147726,128,0,148618:0:0:0:0:
192,192,147726,128,0,148314:0:0:0:0:
64,192,147726,128,0,148294:0:0:0:0:
64,192,148375,128,0,148943:0:0:0:0:
192,192,148395,128,0,148436:0:0:0:0:
320,192,148416,1,0,0:0:0:0:
192,192,148699,1,0,0:0:0:0:
448,192,148699,128,0,148943:0:0:0:0:
320,192,148699,128,0,148780:0:0:0:0:
192,192,149024,128,0,149429:0:0:0:0:
448,192,149024,128,0,149105:0:0:0:0:
320,192,149024,1,0,0:0:0:0:
64,192,149024,1,0,0:0:0:0:
320,192,149348,128,0,149753:0:0:0:0:
448,192,149348,1,0,0:0:0:0:
64,192,149348,128,0,149429:0:0:0:0:
64,192,149510,1,0,0:0:0:0:
448,192,149672,128,0,150159:0:0:0:0:
192,192,149672,128,0,149753:0:0:0:0:
64,192,149672,1,0,0:0:0:0:
192,192,149835,1,0,0:0:0:0:
320,192,149997,128,0,150078:0:0:0:0:
192,192,149997,1,0,0:0:0:0:
64,192,149997,128,0,150402:0:0:0:0:
320,192,150159,1,0,0:0:0:0:
320,192,150321,128,0,150726:0:0:0:0:
448,192,150321,128,0,150726:0:0:0:0:
192,192,150321,128,0,150402:0:0:0:0:
192,192,150645,128,0,151051:0:0:0:0:
64,192,150645,128,0,150726:0:0:0:0:
448,192,150970,128,0,151213:0:0:0:0:
64,192,150970,128,0,151375:0:0:0:0:
320,192,150970,128,0,151051:0:0:0:0:
448,192,151294,128,0,151537:0:0:0:0:
192,192,151294,128,0,151375:0:0:0:0:
320,192,151294,1,0,0:0:0:0:
320,192,151456,128,0,151537:0:0:0:0:
64,192,151456,128,0,151699:0:0:0:0:
320,192,151618,128,0,152024:0:0:0:0:
192,192,151618,128,0,151699:0:0:0:0:
448,192,151618,1,0,0:0:0:0:
192,192,151943,128,0,152348:0:0:0:0:
64,192,151943,128,0,152024:0:0:0:0:
448,192,151943,128,0,152024:0:0:0:0:
320,192,152186,1,0,0:0:0:0:
64,192,152267,128,0,152510:0:0:0:0:
448,192,152267,128,0,152348:0:0:0:0:
320,192,152348,128,0,152510:0:0:0:0:
192,192,152429,1,0,0:0:0:0:
448,192,152510,128,0,152672:0:0:0:0:
192,192,152591,128,0,152672:0:0:0:0:
64,192,152591,1,0,0:0:0:0:
320,192,152672,128,0,152835:0:0:0:0:
64,192,152753,128,0,152997:0:0:0:0:
192,192,152753,1,0,0:0:0:0:
448,192,152835,128,0,153078:0:0:0:0:
320,192,152916,128,0,152997:0:0:0:0:
192,192,152997,128,0,153240:0:0:0:0:
64,192,153078,128,0,153159:0:0:0:0:
320,192,153159,128,0,153402:0:0:0:0:
448,192,153240,128,0,153321:0:0:0:0:
64,192,153321,128,0,153564:0:0:0:0:
192,192,153402,128,0,153483:0:0:0:0:
448,192,153402,1,0,0:0:0:0:
320,192,153483,1,0,0:0:0:0:
192,192,153564,1,0,0:0:0:0:
448,192,153564,128,0,153726:0:0:0:0:
64,192,153645,1,0,0:0:0:0:
320,192,153645,128,0,153808:0:0:0:0:
192,192,153726,128,0,154294:0:0:0:0:
64,192,153808,128,0,154294:0:0:0:0:
448,192,153889,128,0,153970:0:0:0:0:
320,192,153889,1,0,0:0:0:0:
448,192,154213,128,0,154618:0:0:0:0:
320,192,154213,128,0,154294:0:0:0:0:
320,192,154375,1,0,0:0:0:0:
320,192,154537,128,0,154943:0:0:0:0:
192,192,154537,128,0,154618:0:0:0:0:
64,192,154537,1,0,0:0:0:0:
192,192,154699,1,0,0:0:0:0:
192,192,154862,128,0,155267:0:0:0:0:
64,192,154862,128,0,154943:0:0:0:0:
448,192,154862,1,0,0:0:0:0:
64,192,155024,1,0,0:0:0:0:
448,192,155024,1,0,0:0:0:0:
64,192,155186,128,0,156078:0:0:0:0:
448,192,155186,128,0,155429:0:0:0:0:
320,192,155186,128,0,155267:0:0:0:0:
320,192,155348,1,0,0:0:0:0:
320,192,155490,128,0,156098:0:0:0:0:
448,192,155510,128,0,156726:0:0:0:0:
192,192,155530,1,0,0:0:0:0:
192,192,156139,128,0,156747:0:0:0:0:
64,192,156159,128,0,156726:0:0:0:0:
320,192,156179,1,0,0:0:0:0:
320,192,156787,128,0,157375:0:0:0:0:
64,192,156787,128,0,157375:0:0:0:0:
448,192,156808,128,0,157335:0:0:0:0:
192,192,156828,128,0,157355:0:0:0:0:
448,192,157416,1,0,0:0:0:0:
192,192,157436,128,0,157983:0:0:0:0:
320,192,157456,128,0,158003:0:0:0:0:
64,192,157476,1,0,0:0:0:0:
64,192,157943,128,0,158024:0:0:0:0:
448,192,157943,128,0,158024:0:0:0:0:
192,192,158105,128,0,158591:0:0:0:0:
448,192,158105,1,0,0:0:0:0:
320,192,158105,128,0,158186:0:0:0:0:
64,192,158105,1,0,0:0:0:0:
64,192,158591,128,0,158753:0:0:0:0:
320,192,158753,128,0,159240:0:0:0:0:
192,192,158753,1,0,0:0:0:0:
448,192,158753,128,0,158835:0:0:0:0:
192,192,159240,128,0,159402:0:0:0:0:
320,192,159402,128,0,160051:0:0:0:0:
448,192,159402,128,0,159483:0:0:0:0:
64,192,159402,128,0,160537:0:0:0:0:
192,192,159889,128,0,160051:0:0:0:0:
448,192,160051,128,0,160699:0:0:0:0:
192,192,160537,128,0,160699:0:0:0:0:
320,192,160699,128,0,161348:0:0:0:0:
64,192,160699,128,0,161186:0:0:0:0:
192,192,161186,128,0,161348:0:0:0:0:
448,192,161348,128,0,161835:0:0:0:0:
64,192,161348,128,0,161835:0:0:0:0:
192,192,161835,128,0,161997:0:0:0:0:
320,192,161997,128,0,163051:0:0:0:0:
64,192,161997,1,0,0:0:0:0:
448,192,161997,128,0,162078:0:0:0:0:
64,192,162321,128,0,163051:0:0:0:0:
192,192,162321,1,0,0:0:0:0:
448,192,162645,128,0,163051:0:0:0:0:
64,192,163132,128,0,163213:0:0:0:0:
192,192,163132,128,0,163213:0:0:0:0:
320,192,163132,128,0,163213:0:0:0:0:
448,192,163132,128,0,163213:0:0:0:0:
448,192,163294,128,0,163943:0:0:0:0:
64,192,163294,1,0,0:0:0:0:
320,192,163294,1,0,0:0:0:0:
192,192,163294,1,0,0:0:0:0:
192,192,163780,128,0,163943:0:0:0:0:
64,192,163780,128,0,163862:0:0:0:0:
320,192,163943,128,0,164591:0:0:0:0:
64,192,163943,1,0,0:0:0:0:
192,192,164429,128,0,164591:0:0:0:0:
448,192,164429,128,0,164510:0:0:0:0:
64,192,164591,128,0,165240:0:0:0:0:
448,192,164591,1,0,0:0:0:0:
320,192,165078,128,0,165240:0:0:0:0:
448,192,165078,128,0,165159:0:0:0:0:
192,192,165240,128,0,165889:0:0:0:0:
448,192,165240,1,0,0:0:0:0:
448,192,165726,128,0,165889:0:0:0:0:
320,192,165889,128,0,166375:0:0:0:0:
64,192,165889,128,0,166375:0:0:0:0:
192,192,166375,128,0,166537:0:0:0:0:
320,192,166537,128,0,167105:0:0:0:0:
448,192,166537,128,0,167105:0:0:0:0:
64,192,166537,128,0,166618:0:0:0:0:
192,192,167024,128,0,167105:0:0:0:0:
64,192,167024,128,0,167105:0:0:0:0:
192,192,167186,128,0,167591:0:0:0:0:
320,192,167186,128,0,167429:0:0:0:0:
64,192,167186,128,0,167753:0:0:0:0:
448,192,167186,128,0,167997:0:0:0:0:
320,192,167510,128,0,167916:0:0:0:0:
192,192,167672,128,0,167835:0:0:0:0:
64,192,167835,128,0,168240:0:0:0:0:
192,192,167916,128,0,168159:0:0:0:0:
320,192,167997,128,0,168078:0:0:0:0:
448,192,168078,128,0,168240:0:0:0:0:
320,192,168159,128,0,168402:0:0:0:0:
192,192,168240,128,0,168402:0:0:0:0:
448,192,168321,128,0,168402:0:0:0:0:
64,192,168321,128,0,168402:0:0:0:0:
320,192,168483,128,0,169051:0:0:0:0:
64,192,168483,128,0,168889:0:0:0:0:
192,192,168483,128,0,168564:0:0:0:0:
448,192,168483,128,0,168564:0:0:0:0:
64,192,168970,128,0,169132:0:0:0:0:
448,192,168970,128,0,169051:0:0:0:0:
192,192,169132,128,0,169699:0:0:0:0:
448,192,169132,128,0,169375:0:0:0:0:
320,192,169132,128,0,169213:0:0:0:0:
448,192,169456,128,0,169537:0:0:0:0:
64,192,169456,128,0,169537:0:0:0:0:
64,192,169618,128,0,169699:0:0:0:0:
448,192,169618,128,0,169780:0:0:0:0:
320,192,169780,128,0,170348:0:0:0:0:
64,192,169780,128,0,170348:0:0:0:0:
192,192,169780,128,0,169862:0:0:0:0:
192,192,170267,128,0,170348:0:0:0:0:
448,192,170267,128,0,170348:0:0:0:0:
64,192,170429,128,0,170916:0:0:0:0:
448,192,170429,128,0,170997:0:0:0:0:
192,192,170429,1,0,0:0:0:0:
320,192,170429,128,0,170510:0:0:0:0:
192,192,170916,128,0,170997:0:0:0:0:
320,192,170997,128,0,171078:0:0:0:0:
448,192,171078,128,0,171564:0:0:0:0:
64,192,171078,128,0,171645:0:0:0:0:
192,192,171078,1,0,0:0:0:0:
320,192,171564,128,0,171645:0:0:0:0:
192,192,171645,128,0,171726:0:0:0:0:
448,192,171726,128,0,172294:0:0:0:0:
320,192,171726,1,0,0:0:0:0:
64,192,171726,128,0,172213:0:0:0:0:
192,192,172213,128,0,172294:0:0:0:0:
320,192,172294,128,0,172375:0:0:0:0:
192,192,172375,1,0,0:0:0:0:
64,192,172375,128,0,173267:0:0:0:0:
448,192,172375,128,0,173267:0:0:0:0:
320,192,172699,128,0,173429:0:0:0:0:
192,192,173024,128,0,173429:0:0:0:0:
64,192,173348,128,0,173591:0:0:0:0:
448,192,173348,128,0,173591:0:0:0:0:
192,192,173510,128,0,173591:0:0:0:0:
320,192,173510,128,0,173591:0:0:0:0:
320,192,173672,128,0,174240:0:0:0:0:
192,192,173672,1,0,0:0:0:0:
64,192,173672,128,0,174078:0:0:0:0:
448,192,173672,1,0,0:0:0:0:
64,192,174159,128,0,174240:0:0:0:0:
448,192,174159,128,0,174240:0:0:0:0:
192,192,174159,128,0,174240:0:0:0:0:
192,192,174321,128,0,174889:0:0:0:0:
448,192,174321,128,0,174726:0:0:0:0:
320,192,174321,1,0,0:0:0:0:
64,192,174321,1,0,0:0:0:0:
64,192,174808,128,0,174889:0:0:0:0:
320,192,174808,128,0,174889:0:0:0:0:
448,192,174808,128,0,174889:0:0:0:0:
448,192,174970,128,0,175537:0:0:0:0:
64,192,174970,128,0,175375:0:0:0:0:
320,192,174970,1,0,0:0:0:0:
192,192,174970,1,0,0:0:0:0:
64,192,175456,128,0,175537:0:0:0:0:
192,192,175456,128,0,175537:0:0:0:0:
320,192,175456,128,0,175537:0:0:0:0:
64,192,175618,128,0,176186:0:0:0:0:
448,192,175618,128,0,176024:0:0:0:0:
192,192,175618,1,0,0:0:0:0:
320,192,175618,1,0,0:0:0:0:
192,192,176105,128,0,176186:0:0:0:0:
448,192,176105,128,0,176186:0:0:0:0:
320,192,176186,1,0,0:0:0:0:
192,192,176267,128,0,176672:0:0:0:0:
64,192,176267,128,0,176672:0:0:0:0:
448,192,176267,128,0,176835:0:0:0:0:
320,192,176753,128,0,176835:0:0:0:0:
64,192,176753,128,0,176835:0:0:0:0:
192,192,176835,1,0,0:0:0:0:
64,192,176916,128,0,177483:0:0:0:0:
320,192,176916,128,0,177321:0:0:0:0:
448,192,176916,128,0,177321:0:0:0:0:
192,192,177402,128,0,177483:0:0:0:0:
320,192,177402,128,0,177483:0:0:0:0:
448,192,177402,128,0,177483:0:0:0:0:
64,192,177564,128,0,177970:0:0:0:0:
192,192,177564,128,0,177970:0:0:0:0:
320,192,177564,128,0,177970:0:0:0:0:
448,192,177564,128,0,177970:0:0:0:0:
64,192,178051,1,0,0:0:0:0:
448,192,178051,1,0,0:0:0:0:
320,192,178132,1,0,0:0:0:0:
192,192,178132,1,0,0:0:0:0:
64,192,178213,128,0,178780:0:0:0:0:
448,192,178213,128,0,178780:0:0:0:0:
448,192,178862,1,0,0:0:0:0:
192,192,178862,128,0,178943:0:0:0:0:
64,192,178862,1,0,0:0:0:0:
320,192,178943,128,0,179024:0:0:0:0:
64,192,179024,128,0,179105:0:0:0:0:
448,192,179024,128,0,179105:0:0:0:0:
64,192,179186,1,0,0:0:0:0:
320,192,179186,128,0,179267:0:0:0:0:
448,192,179186,1,0,0:0:0:0:
192,192,179267,128,0,179348:0:0:0:0:
448,192,179348,128,0,179429:0:0:0:0:
64,192,179348,128,0,179429:0:0:0:0:
192,192,179510,128,0,179753:0:0:0:0:
448,192,179510,1,0,0:0:0:0:
64,192,179510,1,0,0:0:0:0:
320,192,179591,128,0,179672:0:0:0:0:
448,192,179672,128,0,179753:0:0:0:0:
64,192,179672,128,0,179753:0:0:0:0:
320,192,179835,128,0,180078:0:0:0:0:
64,192,179835,1,0,0:0:0:0:
448,192,179835,1,0,0:0:0:0:
192,192,179916,128,0,179997:0:0:0:0:
64,192,179997,128,0,180078:0:0:0:0:
448,192,179997,128,0,180078:0:0:0:0:
448,192,180159,128,0,180726:0:0:0:0:
64,192,180159,128,0,180240:0:0:0:0:
192,192,180159,128,0,180240:0:0:0:0:
320,192,180240,128,0,180402:0:0:0:0:
64,192,180321,128,0,180402:0:0:0:0:
192,192,180402,128,0,180483:0:0:0:0:
320,192,180483,128,0,180726:0:0:0:0:
64,192,180483,1,0,0:0:0:0:
192,192,180564,1,0,0:0:0:0:
64,192,180645,128,0,180726:0:0:0:0:
192,192,180726,1,0,0:0:0:0:
448,192,180808,1,0,0:0:0:0:
320,192,180808,128,0,180889:0:0:0:0:
64,192,180808,1,0,0:0:0:0:
192,192,180889,128,0,180970:0:0:0:0:
448,192,180970,128,0,181051:0:0:0:0:
64,192,180970,128,0,181051:0:0:0:0:
320,192,180970,1,0,0:0:0:0:
64,192,181132,1,0,0:0:0:0:
192,192,181132,128,0,181213:0:0:0:0:
448,192,181132,1,0,0:0:0:0:
320,192,181213,128,0,181294:0:0:0:0:
64,192,181294,128,0,181375:0:0:0:0:
192,192,181294,1,0,0:0:0:0:
448,192,181294,128,0,181375:0:0:0:0:
64,192,181456,1,0,0:0:0:0:
448,192,181456,128,0,181699:0:0:0:0:
320,192,181456,1,0,0:0:0:0:
192,192,181537,1,0,0:0:0:0:
64,192,181618,128,0,181699:0:0:0:0:
320,192,181618,128,0,181699:0:0:0:0:
64,192,181780,128,0,182024:0:0:0:0:
448,192,181780,1,0,0:0:0:0:
192,192,181780,1,0,0:0:0:0:
320,192,181862,1,0,0:0:0:0:
448,192,181943,128,0,182024:0:0:0:0:
192,192,181943,128,0,182024:0:0:0:0:
448,192,182105,128,0,182348:0:0:0:0:
320,192,182105,128,0,182348:0:0:0:0:
64,192,182105,1,0,0:0:0:0:
192,192,182186,1,0,0:0:0:0:
64,192,182267,128,0,182348:0:0:0:0:
64,192,182429,128,0,182672:0:0:0:0:
192,192,182429,128,0,182672:0:0:0:0:
448,192,182429,1,0,0:0:0:0:
320,192,182510,1,0,0:0:0:0:
448,192,182591,128,0,182672:0:0:0:0:
448,192,182753,128,0,182835:0:0:0:0:
192,192,182753,1,0,0:0:0:0:
64,192,182753,1,0,0:0:0:0:
320,192,182835,128,0,182916:0:0:0:0:
192,192,182916,128,0,182997:0:0:0:0:
448,192,182916,1,0,0:0:0:0:
64,192,182997,128,0,183078:0:0:0:0:
320,192,182997,1,0,0:0:0:0:
448,192,183078,128,0,183159:0:0:0:0:
192,192,183078,1,0,0:0:0:0:
320,192,183159,128,0,183240:0:0:0:0:
64,192,183159,128,0,183240:0:0:0:0:
448,192,183240,1,0,0:0:0:0:
192,192,183240,1,0,0:0:0:0:
64,192,183402,128,0,183483:0:0:0:0:
192,192,183402,128,0,183483:0:0:0:0:
448,192,183402,128,0,183483:0:0:0:0:
320,192,183402,1,0,0:0:0:0:
320,192,183564,128,0,183726:0:0:0:0:
64,192,183564,128,0,183726:0:0:0:0:
448,192,183564,128,0,183726:0:0:0:0:
192,192,183564,1,0,0:0:0:0:
448,192,184051,1,0,0:0:0:0:
192,192,184051,128,0,184132:0:0:0:0:
64,192,184051,1,0,0:0:0:0:
320,192,184132,128,0,184294:0:0:0:0:
64,192,184213,128,0,184294:0:0:0:0:
448,192,184213,128,0,184294:0:0:0:0:
192,192,184294,128,0,184375:0:0:0:0:
64,192,184375,1,0,0:0:0:0:
320,192,184375,128,0,184456:0:0:0:0:
448,192,184375,1,0,0:0:0:0:
192,192,184456,128,0,184618:0:0:0:0:
64,192,184537,128,0,184618:0:0:0:0:
448,192,184537,128,0,184618:0:0:0:0:
320,192,184618,128,0,184699:0:0:0:0:
64,192,184699,128,0,184780:0:0:0:0:
448,192,184699,1,0,0:0:0:0:
192,192,184699,128,0,184780:0:0:0:0:
320,192,184780,128,0,184943:0:0:0:0:
448,192,184862,128,0,184943:0:0:0:0:
64,192,184862,128,0,184943:0:0:0:0:
192,192,184943,128,0,185024:0:0:0:0:
448,192,185024,128,0,185105:0:0:0:0:
64,192,185024,1,0,0:0:0:0:
320,192,185024,128,0,185105:0:0:0:0:
192,192,185105,128,0,185267:0:0:0:0:
64,192,185186,128,0,185267:0:0:0:0:
448,192,185186,128,0,185267:0:0:0:0:
320,192,185267,128,0,185348:0:0:0:0:
64,192,185348,128,0,185429:0:0:0:0:
448,192,185348,128,0,185510:0:0:0:0:
192,192,185429,128,0,185591:0:0:0:0:
320,192,185429,1,0,0:0:0:0:
64,192,185510,128,0,185591:0:0:0:0:
320,192,185591,128,0,185672:0:0:0:0:
64,192,185672,128,0,185835:0:0:0:0:
448,192,185672,128,0,185753:0:0:0:0:
320,192,185753,128,0,185916:0:0:0:0:
192,192,185753,1,0,0:0:0:0:
448,192,185835,128,0,185916:0:0:0:0:
192,192,185916,128,0,185997:0:0:0:0:
64,192,185997,128,0,186078:0:0:0:0:
448,192,185997,128,0,186240:0:0:0:0:
320,192,185997,1,0,0:0:0:0:
192,192,186078,128,0,186159:0:0:0:0:
64,192,186159,1,0,0:0:0:0:
320,192,186159,128,0,186321:0:0:0:0:
192,192,186240,128,0,186402:0:0:0:0:
64,192,186321,128,0,186564:0:0:0:0:
448,192,186321,128,0,186402:0:0:0:0:
320,192,186402,128,0,186483:0:0:0:0:
192,192,186483,128,0,186645:0:0:0:0:
448,192,186483,1,0,0:0:0:0:
320,192,186564,128,0,186726:0:0:0:0:
448,192,186645,128,0,186808:0:0:0:0:
64,192,186645,1,0,0:0:0:0:
192,192,186726,1,0,0:0:0:0:
320,192,186808,1,0,0:0:0:0:
64,192,186808,128,0,186970:0:0:0:0:
448,192,186889,1,0,0:0:0:0:
192,192,186889,128,0,187051:0:0:0:0:
320,192,186970,128,0,187132:0:0:0:0:
448,192,187051,128,0,187213:0:0:0:0:
64,192,187051,1,0,0:0:0:0:
192,192,187132,1,0,0:0:0:0:
320,192,187213,1,0,0:0:0:0:
64,192,187294,128,0,187456:0:0:0:0:
192,192,187294,128,0,187375:0:0:0:0:
448,192,187294,1,0,0:0:0:0:
320,192,187375,1,0,0:0:0:0:
448,192,187456,128,0,187618:0:0:0:0:
192,192,187456,1,0,0:0:0:0:
320,192,187537,128,0,187699:0:0:0:0:
64,192,187537,1,0,0:0:0:0:
192,192,187618,128,0,187780:0:0:0:0:
64,192,187699,128,0,187862:0:0:0:0:
448,192,187699,1,0,0:0:0:0:
320,192,187780,1,0,0:0:0:0:
192,192,187862,1,0,0:0:0:0:
448,192,187943,128,0,188105:0:0:0:0:
320,192,187943,128,0,188024:0:0:0:0:
64,192,187943,128,0,187983:0:0:0:0:
192,192,188024,128,0,188064:0:0:0:0:
64,192,188105,128,0,188267:0:0:0:0:
320,192,188105,128,0,188145:0:0:0:0:
192,192,188186,128,0,188348:0:0:0:0:
448,192,188186,128,0,188226:0:0:0:0:
320,192,188267,128,0,188429:0:0:0:0:
448,192,188348,128,0,188510:0:0:0:0:
64,192,188348,128,0,188389:0:0:0:0:
192,192,188429,128,0,188470:0:0:0:0:
320,192,188510,128,0,188551:0:0:0:0:
64,192,188591,128,0,188699:0:0:0:0:
448,192,188591,128,0,188632:0:0:0:0:
192,192,188645,128,0,188753:0:0:0:0:
320,192,188699,128,0,188808:0:0:0:0:
448,192,188753,128,0,188862:0:0:0:0:
64,192,188753,128,0,188862:0:0:0:0:
192,192,188808,128,0,188916:0:0:0:0:
320,192,188862,128,0,188970:0:0:0:0:
448,192,188916,128,0,189024:0:0:0:0:
64,192,188916,128,0,189024:0:0:0:0:
192,192,188970,128,0,189078:0:0:0:0:
320,192,189024,128,0,189132:0:0:0:0:
448,192,189078,128,0,189186:0:0:0:0:
64,192,189078,128,0,189186:0:0:0:0:
192,192,189132,128,0,189240:0:0:0:0:
320,192,189186,128,0,189240:0:0:0:0:
448,192,189240,1,0,0:0:0:0:
64,192,189240,1,0,0:0:0:0:
64,192,189402,128,0,189483:0:0:0:0:
448,192,189402,128,0,189483:0:0:0:0:
192,192,189564,1,0,0:0:0:0:
320,192,189564,1,0,0:0:0:0:
64,192,189564,1,0,0:0:0:0:
448,192,189564,1,0,0:0:0:0:
192,192,189726,128,0,189808:0:0:0:0:
320,192,189726,128,0,189808:0:0:0:0:
64,192,189889,1,0,0:0:0:0:
192,192,189889,1,0,0:0:0:0:
320,192,189889,1,0,0:0:0:0:
448,192,189889,1,0,0:0:0:0:
64,192,190051,128,0,190132:0:0:0:0:
448,192,190051,128,0,190132:0:0:0:0:
64,192,190213,1,0,0:0:0:0:
192,192,190213,1,0,0:0:0:0:
448,192,190213,1,0,0:0:0:0:
320,192,190213,1,0,0:0:0:0:
320,192,190375,128,0,190456:0:0:0:0:
192,192,190375,128,0,190456:0:0:0:0:
64,192,190537,1,0,0:0:0:0:
192,192,190537,1,0,0:0:0:0:
320,192,190537,1,0,0:0:0:0:
448,192,190537,1,0,0:0:0:0:
64,192,190699,128,0,190780:0:0:0:0:
192,192,190699,128,0,190780:0:0:0:0:
320,192,190699,128,0,190780:0:0:0:0:
448,192,190699,128,0,190780:0:0:0:0:
64,192,190862,128,0,191024:0:0:0:0:
192,192,190862,128,0,191024:0:0:0:0:
320,192,190862,128,0,191024:0:0:0:0:
448,192,190862,128,0,191024:0:0:0:0:
64,192,191672,1,0,0:0:0:0:
448,192,191672,1,0,0:0:0:0:
192,192,191753,1,0,0:0:0:0:
320,192,191753,1,0,0:0:0:0:
448,192,191835,128,0,195645:0:0:0:0:
64,192,191835,128,0,195645:0:0:0:0:
192,192,195078,128,0,195645:0:0:0:0:
320,192,195078,128,0,195645:0:0:0:0:
192,192,195726,128,0,196294:0:0:0:0:
64,192,195726,128,0,196294:0:0:0:0:
448,192,195726,128,0,196294:0:0:0:0:
320,192,195726,1,0,0:0:0:0:
320,192,196375,128,0,196943:0:0:0:0:
192,192,196375,128,0,196943:0:0:0:0:
64,192,196375,128,0,196943:0:0:0:0:
448,192,196375,128,0,196943:0:0:0:0:
320,192,197024,128,0,197348:0:0:0:0:
448,192,197024,128,0,197672:0:0:0:0:
64,192,197024,128,0,197672:0:0:0:0:
192,192,197024,1,0,0:0:0:0:
192,192,197348,128,0,198240:0:0:0:0:
320,192,197672,128,0,198240:0:0:0:0:
448,192,197997,128,0,198240:0:0:0:0:
64,192,197997,128,0,198240:0:0:0:0:
448,192,198321,128,0,198970:0:0:0:0:
320,192,198321,1,0,0:0:0:0:
192,192,198321,128,0,198645:0:0:0:0:
64,192,198321,128,0,198970:0:0:0:0:
320,192,198645,128,0,199537:0:0:0:0:
192,192,198970,128,0,199537:0:0:0:0:
448,192,199294,128,0,199537:0:0:0:0:
64,192,199294,128,0,199537:0:0:0:0:
320,192,199618,128,0,199780:0:0:0:0:
448,192,199618,128,0,199943:0:0:0:0:
64,192,199618,128,0,199943:0:0:0:0:
192,192,199618,1,0,0:0:0:0:
192,192,199780,128,0,200186:0:0:0:0:
320,192,199943,128,0,200186:0:0:0:0:
448,192,200105,128,0,200186:0:0:0:0:
64,192,200105,128,0,200186:0:0:0:0:
192,192,200267,128,0,200429:0:0:0:0:
64,192,200267,128,0,200591:0:0:0:0:
448,192,200267,128,0,200591:0:0:0:0:
320,192,200267,1,0,0:0:0:0:
320,192,200429,128,0,200835:0:0:0:0:
192,192,200591,128,0,200835:0:0:0:0:
64,192,200753,128,0,200835:0:0:0:0:
448,192,200753,128,0,200835:0:0:0:0:
64,192,200916,128,0,201078:0:0:0:0:
448,192,200916,128,0,201078:0:0:0:0:
192,192,201078,128,0,201240:0:0:0:0:
320,192,201078,128,0,201240:0:0:0:0:
64,192,201240,128,0,201402:0:0:0:0:
448,192,201240,128,0,201402:0:0:0:0:
192,192,201402,128,0,201564:0:0:0:0:
320,192,201402,128,0,201564:0:0:0:0:
64,192,201564,1,0,0:0:0:0:
448,192,201564,1,0,0:0:0:0:
192,192,201645,1,0,0:0:0:0:
320,192,201645,1,0,0:0:0:0:
64,192,201726,1,0,0:0:0:0:
448,192,201726,1,0,0:0:0:0:
192,192,201808,1,0,0:0:0:0:
320,192,201808,1,0,0:0:0:0:
64,192,201889,128,0,202132:0:0:0:0:
448,192,201889,128,0,202132:0:0:0:0:
192,192,202213,128,0,202456:0:0:0:0:
64,192,202213,128,0,202294:0:0:0:0:
320,192,202213,1,0,0:0:0:0:
448,192,202213,128,0,202456:0:0:0:0:
320,192,202375,128,0,202456:0:0:0:0:
64,192,202375,1,0,0:0:0:0:
64,192,202537,128,0,202780:0:0:0:0:
192,192,202537,1,0,0:0:0:0:
448,192,202537,128,0,202780:0:0:0:0:
320,192,202537,128,0,202618:0:0:0:0:
192,192,202699,128,0,202780:0:0:0:0:
320,192,202699,1,0,0:0:0:0:
192,192,202862,128,0,203105:0:0:0:0:
64,192,202862,1,0,0:0:0:0:
320,192,202862,128,0,203105:0:0:0:0:
448,192,202862,128,0,202943:0:0:0:0:
64,192,203024,128,0,203105:0:0:0:0:
448,192,203024,1,0,0:0:0:0:
64,192,203186,128,0,203429:0:0:0:0:
448,192,203186,128,0,203429:0:0:0:0:
320,192,203186,1,0,0:0:0:0:
192,192,203186,128,0,203267:0:0:0:0:
320,192,203348,128,0,203429:0:0:0:0:
192,192,203348,1,0,0:0:0:0:
320,192,203510,128,0,203753:0:0:0:0:
448,192,203510,1,0,0:0:0:0:
64,192,203510,128,0,203591:0:0:0:0:
192,192,203510,128,0,203753:0:0:0:0:
448,192,203672,128,0,203753:0:0:0:0:
64,192,203672,1,0,0:0:0:0:
64,192,203835,128,0,204078:0:0:0:0:
320,192,203835,128,0,204078:0:0:0:0:
192,192,203835,1,0,0:0:0:0:
448,192,203835,128,0,203916:0:0:0:0:
192,192,203997,128,0,204078:0:0:0:0:
448,192,203997,1,0,0:0:0:0:
64,192,204159,128,0,204402:0:0:0:0:
192,192,204159,128,0,204402:0:0:0:0:
448,192,204159,128,0,204240:0:0:0:0:
320,192,204159,1,0,0:0:0:0:
320,192,204321,128,0,204402:0:0:0:0:
448,192,204321,1,0,0:0:0:0:
320,192,204483,128,0,204726:0:0:0:0:
448,192,204483,128,0,204726:0:0:0:0:
64,192,204483,128,0,204564:0:0:0:0:
192,192,204483,1,0,0:0:0:0:
192,192,204645,128,0,204726:0:0:0:0:
64,192,204645,1,0,0:0:0:0:
192,192,204808,128,0,205375:0:0:0:0:
448,192,204808,128,0,205051:0:0:0:0:
64,192,204808,128,0,204889:0:0:0:0:
320,192,204808,1,0,0:0:0:0:
320,192,204970,128,0,205051:0:0:0:0:
64,192,204970,1,0,0:0:0:0:
448,192,205132,1,0,0:0:0:0:
320,192,205132,128,0,205375:0:0:0:0:
64,192,205132,128,0,205375:0:0:0:0:
448,192,205294,128,0,205375:0:0:0:0:
320,192,205456,1,0,0:0:0:0:
448,192,205456,128,0,206024:0:0:0:0:
64,192,205456,128,0,205537:0:0:0:0:
192,192,205456,128,0,205699:0:0:0:0:
320,192,205618,128,0,205699:0:0:0:0:
64,192,205618,1,0,0:0:0:0:
320,192,205780,128,0,206024:0:0:0:0:
64,192,205780,128,0,206024:0:0:0:0:
192,192,205780,1,0,0:0:0:0:
192,192,205943,128,0,206024:0:0:0:0:
320,192,206105,128,0,206348:0:0:0:0:
448,192,206105,128,0,206186:0:0:0:0:
192,192,206105,1,0,0:0:0:0:
64,192,206105,128,0,206672:0:0:0:0:
192,192,206267,128,0,206348:0:0:0:0:
448,192,206267,1,0,0:0:0:0:
192,192,206429,128,0,206672:0:0:0:0:
448,192,206429,128,0,206672:0:0:0:0:
320,192,206429,1,0,0:0:0:0:
320,192,206591,128,0,206672:0:0:0:0:
64,192,206753,128,0,206835:0:0:0:0:
192,192,206753,1,0,0:0:0:0:
448,192,206835,128,0,206916:0:0:0:0:
320,192,206835,1,0,0:0:0:0:
64,192,206916,1,0,0:0:0:0:
192,192,206916,128,0,206997:0:0:0:0:
320,192,206997,128,0,207078:0:0:0:0:
448,192,206997,1,0,0:0:0:0:
64,192,207078,128,0,207159:0:0:0:0:
192,192,207078,1,0,0:0:0:0:
448,192,207159,128,0,207240:0:0:0:0:
320,192,207159,1,0,0:0:0:0:
192,192,207240,128,0,207321:0:0:0:0:
64,192,207240,1,0,0:0:0:0:
320,192,207321,128,0,207402:0:0:0:0:
192,192,207402,128,0,207686:0:0:0:0:
64,192,207402,128,0,207686:0:0:0:0:
448,192,207402,128,0,207524:0:0:0:0:
320,192,207564,128,0,207686:0:0:0:0:
448,192,207564,1,0,0:0:0:0:
64,192,207726,128,0,208010:0:0:0:0:
448,192,207726,128,0,208010:0:0:0:0:
192,192,207726,128,0,207848:0:0:0:0:
320,192,207726,1,0,0:0:0:0:
320,192,207889,128,0,208010:0:0:0:0:
192,192,207889,1,0,0:0:0:0:
320,192,208051,128,0,208335:0:0:0:0:
448,192,208051,128,0,208335:0:0:0:0:
192,192,208051,128,0,208172:0:0:0:0:
64,192,208051,1,0,0:0:0:0:
64,192,208213,128,0,208335:0:0:0:0:
192,192,208213,1,0,0:0:0:0:
448,192,208375,128,0,208659:0:0:0:0:
64,192,208375,128,0,208659:0:0:0:0:
320,192,208375,128,0,208497:0:0:0:0:
192,192,208375,1,0,0:0:0:0:
192,192,208537,128,0,208659:0:0:0:0:
320,192,208537,1,0,0:0:0:0:
192,192,208699,128,0,208983:0:0:0:0:
448,192,208699,1,0,0:0:0:0:
320,192,208699,128,0,208821:0:0:0:0:
64,192,208699,128,0,208983:0:0:0:0:
448,192,208862,128,0,208983:0:0:0:0:
320,192,208862,1,0,0:0:0:0:
448,192,209024,128,0,209308:0:0:0:0:
64,192,209024,128,0,209308:0:0:0:0:
320,192,209024,128,0,209145:0:0:0:0:
192,192,209024,1,0,0:0:0:0:
192,192,209186,128,0,209308:0:0:0:0:
320,192,209186,1,0,0:0:0:0:
320,192,209348,128,0,209632:0:0:0:0:
448,192,209348,128,0,209632:0:0:0:0:
64,192,209348,128,0,209470:0:0:0:0:
192,192,209348,128,0,209470:0:0:0:0:
64,192,209510,128,0,209632:0:0:0:0:
192,192,209510,128,0,209632:0:0:0:0:
192,192,209672,128,0,209956:0:0:0:0:
64,192,209672,128,0,209956:0:0:0:0:
320,192,209672,128,0,209794:0:0:0:0:
448,192,209672,128,0,209794:0:0:0:0:
320,192,209835,128,0,209956:0:0:0:0:
448,192,209835,128,0,209956:0:0:0:0:
448,192,209997,128,0,210240:0:0:0:0:
320,192,209997,128,0,210240:0:0:0:0:
64,192,209997,128,0,210078:0:0:0:0:
192,192,209997,1,0,0:0:0:0:
192,192,210159,128,0,210240:0:0:0:0:
64,192,210159,1,0,0:0:0:0:
64,192,210321,128,0,210564:0:0:0:0:
192,192,210321,1,0,0:0:0:0:
448,192,210321,1,0,0:0:0:0:
320,192,210402,128,0,210564:0:0:0:0:
192,192,210483,128,0,210564:0:0:0:0:
448,192,210483,128,0,210564:0:0:0:0:
192,192,210645,128,0,210889:0:0:0:0:
64,192,210645,128,0,210889:0:0:0:0:
320,192,210645,1,0,0:0:0:0:
448,192,210645,128,0,210726:0:0:0:0:
320,192,210808,128,0,210889:0:0:0:0:
448,192,210808,1,0,0:0:0:0:
320,192,210970,1,0,0:0:0:0:
448,192,210970,128,0,211213:0:0:0:0:
64,192,210970,1,0,0:0:0:0:
192,192,211051,128,0,211213:0:0:0:0:
320,192,211132,128,0,211213:0:0:0:0:
64,192,211132,128,0,211213:0:0:0:0:
192,192,211294,128,0,211537:0:0:0:0:
320,192,211294,128,0,211537:0:0:0:0:
64,192,211294,1,0,0:0:0:0:
448,192,211294,1,0,0:0:0:0:
64,192,211456,128,0,211537:0:0:0:0:
448,192,211456,128,0,211537:0:0:0:0:
64,192,211618,128,0,211726:0:0:0:0:
448,192,211618,1,0,0:0:0:0:
192,192,211672,128,0,211780:0:0:0:0:
320,192,211726,128,0,211835:0:0:0:0:
448,192,211780,128,0,211889:0:0:0:0:
192,192,211835,128,0,211943:0:0:0:0:
64,192,211889,128,0,211997:0:0:0:0:
448,192,211943,128,0,211997:0:0:0:0:
320,192,211997,128,0,212105:0:0:0:0:
192,192,212051,128,0,212186:0:0:0:0:
64,192,212105,128,0,212186:0:0:0:0:
448,192,212105,128,0,212186:0:0:0:0:
320,192,212186,128,0,212348:0:0:0:0:
448,192,212267,1,0,0:0:0:0:
64,192,212267,128,0,212348:0:0:0:0:
192,192,212348,128,0,212429:0:0:0:0:
64,192,212429,128,0,212510:0:0:0:0:
448,192,212429,128,0,212510:0:0:0:0:
320,192,212429,1,0,0:0:0:0:
320,192,212591,128,0,212713:0:0:0:0:
448,192,212591,128,0,212672:0:0:0:0:
64,192,212591,128,0,212672:0:0:0:0:
192,192,212672,128,0,212916:0:0:0:0:
64,192,212753,128,0,212835:0:0:0:0:
448,192,212753,128,0,212835:0:0:0:0:
320,192,212835,128,0,212997:0:0:0:0:
448,192,212916,128,0,213078:0:0:0:0:
64,192,212970,128,0,213078:0:0:0:0:
192,192,213024,128,0,213132:0:0:0:0:
320,192,213078,128,0,213186:0:0:0:0:
448,192,213132,128,0,213321:0:0:0:0:
64,192,213240,128,0,213321:0:0:0:0:
192,192,213240,128,0,213362:0:0:0:0:
320,192,213321,128,0,213564:0:0:0:0:
448,192,213402,128,0,213483:0:0:0:0:
64,192,213402,128,0,213443:0:0:0:0:
192,192,213483,128,0,213645:0:0:0:0:
64,192,213564,128,0,213726:0:0:0:0:
448,192,213618,128,0,213726:0:0:0:0:
320,192,213672,128,0,213780:0:0:0:0:
192,192,213726,128,0,213835:0:0:0:0:
64,192,213780,128,0,213943:0:0:0:0:
448,192,213835,128,0,213943:0:0:0:0:
320,192,213889,128,0,213997:0:0:0:0:
192,192,213943,128,0,214105:0:0:0:0:
64,192,213997,128,0,214051:0:0:0:0:
320,192,214051,128,0,214159:0:0:0:0:
448,192,214105,128,0,214213:0:0:0:0:
64,192,214159,128,0,214267:0:0:0:0:
192,192,214213,128,0,214321:0:0:0:0:
320,192,214267,128,0,214429:0:0:0:0:
448,192,214321,128,0,214375:0:0:0:0:
192,192,214375,128,0,214483:0:0:0:0:
64,192,214429,128,0,214537:0:0:0:0:
448,192,214483,128,0,214591:0:0:0:0:
320,192,214537,128,0,214645:0:0:0:0:
192,192,214591,128,0,214699:0:0:0:0:
64,192,214645,128,0,214753:0:0:0:0:
448,192,214699,128,0,214808:0:0:0:0:
320,192,214753,128,0,214862:0:0:0:0:
192,192,214808,128,0,214862:0:0:0:0:
64,192,214862,128,0,214970:0:0:0:0:
448,192,214862,128,0,215105:0:0:0:0:
320,192,214943,1,0,0:0:0:0:
192,192,215024,128,0,215105:0:0:0:0:
64,192,215024,128,0,215105:0:0:0:0:
64,192,215186,128,0,215510:0:0:0:0:
448,192,215186,1,0,0:0:0:0:
320,192,215186,128,0,215267:0:0:0:0:
192,192,215267,128,0,215429:0:0:0:0:
448,192,215348,128,0,215429:0:0:0:0:
320,192,215429,1,0,0:0:0:0:
448,192,215510,128,0,215875:0:0:0:0:
192,192,215510,128,0,215591:0:0:0:0:
320,192,215591,128,0,215753:0:0:0:0:
64,192,215672,128,0,215753:0:0:0:0:
192,192,215753,1,0,0:0:0:0:
64,192,215835,128,0,216240:0:0:0:0:
320,192,215835,128,0,215956:0:0:0:0:
192,192,215916,128,0,216037:0:0:0:0:
448,192,215997,128,0,216078:0:0:0:0:
320,192,216078,128,0,216159:0:0:0:0:
448,192,216159,128,0,216402:0:0:0:0:
192,192,216159,128,0,216280:0:0:0:0:
320,192,216240,128,0,216362:0:0:0:0:
64,192,216321,128,0,216402:0:0:0:0:
192,192,216402,128,0,216483:0:0:0:0:
448,192,216483,128,0,216726:0:0:0:0:
64,192,216483,1,0,0:0:0:0:
320,192,216483,128,0,216564:0:0:0:0:
192,192,216564,1,0,0:0:0:0:
320,192,216645,128,0,216808:0:0:0:0:
64,192,216645,128,0,216726:0:0:0:0:
192,192,216726,128,0,216889:0:0:0:0:
64,192,216808,128,0,217051:0:0:0:0:
448,192,216808,1,0,0:0:0:0:
320,192,216889,1,0,0:0:0:0:
448,192,216970,128,0,217051:0:0:0:0:
192,192,216970,128,0,217213:0:0:0:0:
320,192,217051,128,0,217132:0:0:0:0:
64,192,217132,128,0,217375:0:0:0:0:
448,192,217132,1,0,0:0:0:0:
320,192,217213,1,0,0:0:0:0:
192,192,217294,128,0,217456:0:0:0:0:
448,192,217294,128,0,217375:0:0:0:0:
320,192,217375,128,0,217537:0:0:0:0:
448,192,217456,128,0,217699:0:0:0:0:
64,192,217456,1,0,0:0:0:0:
192,192,217537,1,0,0:0:0:0:
64,192,217618,128,0,217699:0:0:0:0:
320,192,217618,128,0,217862:0:0:0:0:
192,192,217699,128,0,217780:0:0:0:0:
448,192,217780,128,0,217943:0:0:0:0:
64,192,217780,1,0,0:0:0:0:
192,192,217862,128,0,218024:0:0:0:0:
64,192,217943,128,0,218105:0:0:0:0:
320,192,217943,1,0,0:0:0:0:
448,192,218024,128,0,218105:0:0:0:0:
320,192,218105,128,0,218267:0:0:0:0:
192,192,218105,1,0,0:0:0:0:
64,192,218186,128,0,218348:0:0:0:0:
448,192,218186,1,0,0:0:0:0:
192,192,218267,128,0,218429:0:0:0:0:
448,192,218348,128,0,218510:0:0:0:0:
320,192,218348,1,0,0:0:0:0:
64,192,218429,128,0,218591:0:0:0:0:
320,192,218510,128,0,218672:0:0:0:0:
448,192,218591,128,0,218753:0:0:0:0:
192,192,218591,1,0,0:0:0:0:
64,192,218672,128,0,218753:0:0:0:0:
192,192,218753,128,0,218916:0:0:0:0:
320,192,218753,1,0,0:0:0:0:
448,192,218835,128,0,218997:0:0:0:0:
64,192,218835,1,0,0:0:0:0:
320,192,218916,128,0,219078:0:0:0:0:
192,192,218997,1,0,0:0:0:0:
64,192,218997,128,0,219159:0:0:0:0:
448,192,219078,128,0,219240:0:0:0:0:
192,192,219159,128,0,219321:0:0:0:0:
320,192,219240,128,0,219402:0:0:0:0:
64,192,219240,1,0,0:0:0:0:
448,192,219321,128,0,219483:0:0:0:0:
64,192,219402,128,0,219564:0:0:0:0:
192,192,219402,1,0,0:0:0:0:
320,192,219483,128,0,219645:0:0:0:0:
192,192,219564,128,0,219726:0:0:0:0:
448,192,219564,1,0,0:0:0:0:
64,192,219645,128,0,219808:0:0:0:0:
448,192,219726,128,0,219970:0:0:0:0:
320,192,219726,1,0,0:0:0:0:
64,192,219889,128,0,219970:0:0:0:0:
192,192,219889,128,0,219970:0:0:0:0:
320,192,219889,128,0,219970:0:0:0:0:
64,192,220051,128,0,220294:0:0:0:0:
192,192,220051,1,0,0:0:0:0:
320,192,220051,1,0,0:0:0:0:
448,192,220051,128,0,220132:0:0:0:0:
192,192,220213,128,0,220294:0:0:0:0:
448,192,220213,128,0,220294:0:0:0:0:
320,192,220213,128,0,220294:0:0:0:0:
448,192,220375,128,0,220618:0:0:0:0:
64,192,220375,128,0,220456:0:0:0:0:
320,192,220375,1,0,0:0:0:0:
192,192,220456,128,0,220537:0:0:0:0:
320,192,220537,128,0,220699:0:0:0:0:
64,192,220537,1,0,0:0:0:0:
192,192,220618,128,0,220780:0:0:0:0:
64,192,220699,128,0,220943:0:0:0:0:
448,192,220699,1,0,0:0:0:0:
320,192,220780,1,0,0:0:0:0:
192,192,220862,128,0,221024:0:0:0:0:
448,192,220862,1,0,0:0:0:0:
320,192,220943,128,0,221105:0:0:0:0:
448,192,221024,128,0,221267:0:0:0:0:
64,192,221024,1,0,0:0:0:0:
192,192,221105,1,0,0:0:0:0:
320,192,221186,128,0,221348:0:0:0:0:
64,192,221186,1,0,0:0:0:0:
192,192,221267,128,0,221348:0:0:0:0:
64,192,221348,128,0,221591:0:0:0:0:
448,192,221348,1,0,0:0:0:0:
320,192,221429,1,0,0:0:0:0:
192,192,221510,128,0,221672:0:0:0:0:
448,192,221510,1,0,0:0:0:0:
320,192,221591,128,0,221672:0:0:0:0:
448,192,221672,128,0,221916:0:0:0:0:
64,192,221672,128,0,221916:0:0:0:0:
320,192,221916,1,0,0:0:0:0:
192,192,221956,1,0,0:0:0:0:
64,192,221997,128,0,222240:0:0:0:0:
320,192,221997,128,0,222240:0:0:0:0:
448,192,221997,128,0,222240:0:0:0:0:
192,192,222240,1,0,0:0:0:0:
320,192,222280,1,0,0:0:0:0:
192,192,222321,128,0,222564:0:0:0:0:
64,192,222321,128,0,222564:0:0:0:0:
448,192,222321,128,0,222564:0:0:0:0:
320,192,222564,1,0,0:0:0:0:
192,192,222605,1,0,0:0:0:0:
64,192,222645,128,0,222889:0:0:0:0:
320,192,222645,128,0,222889:0:0:0:0:
448,192,222645,128,0,222889:0:0:0:0:
64,192,222970,128,0,223010:0:0:0:0:
192,192,222970,128,0,223051:0:0:0:0:
320,192,223010,128,0,223091:0:0:0:0:
448,192,223051,128,0,223213:0:0:0:0:
64,192,223132,128,0,223213:0:0:0:0:
192,192,223132,1,0,0:0:0:0:
320,192,223213,128,0,223375:0:0:0:0:
64,192,223294,1,0,0:0:0:0:
448,192,223294,1,0,0:0:0:0:
192,192,223375,128,0,223456:0:0:0:0:
448,192,223456,128,0,223537:0:0:0:0:
320,192,223456,1,0,0:0:0:0:
64,192,223456,128,0,223537:0:0:0:0:
192,192,223537,1,0,0:0:0:0:
320,192,223618,128,0,223699:0:0:0:0:
448,192,223618,128,0,223659:0:0:0:0:
192,192,223659,128,0,223740:0:0:0:0:
64,192,223699,128,0,223862:0:0:0:0:
448,192,223780,128,0,223862:0:0:0:0:
320,192,223780,1,0,0:0:0:0:
192,192,223862,128,0,224024:0:0:0:0:
448,192,223943,1,0,0:0:0:0:
64,192,223943,1,0,0:0:0:0:
320,192,224024,128,0,224105:0:0:0:0:
192,192,224105,1,0,0:0:0:0:
64,192,224105,128,0,224186:0:0:0:0:
448,192,224105,128,0,224186:0:0:0:0:
320,192,224186,1,0,0:0:0:0:
64,192,224267,128,0,224308:0:0:0:0:
192,192,224267,128,0,224348:0:0:0:0:
320,192,224308,128,0,224510:0:0:0:0:
448,192,224348,1,0,0:0:0:0:
64,192,224429,128,0,224510:0:0:0:0:
192,192,224429,1,0,0:0:0:0:
448,192,224510,128,0,224672:0:0:0:0:
64,192,224591,1,0,0:0:0:0:
192,192,224591,128,0,224672:0:0:0:0:
320,192,224672,128,0,224794:0:0:0:0:
64,192,224753,128,0,224875:0:0:0:0:
192,192,224753,128,0,224835:0:0:0:0:
448,192,224753,1,0,0:0:0:0:
320,192,224916,128,0,224997:0:0:0:0:
448,192,224916,128,0,224956:0:0:0:0:
192,192,224956,128,0,225159:0:0:0:0:
64,192,224997,1,0,0:0:0:0:
448,192,225078,128,0,225159:0:0:0:0:
320,192,225078,1,0,0:0:0:0:
64,192,225159,128,0,225321:0:0:0:0:
448,192,225240,1,0,0:0:0:0:
320,192,225240,128,0,225321:0:0:0:0:
192,192,225321,128,0,225443:0:0:0:0:
64,192,225402,1,0,0:0:0:0:
320,192,225402,128,0,225483:0:0:0:0:
448,192,225402,128,0,225524:0:0:0:0:
192,192,225564,128,0,225645:0:0:0:0:
64,192,225564,128,0,225605:0:0:0:0:
320,192,225605,128,0,225686:0:0:0:0:
448,192,225645,128,0,225970:0:0:0:0:
64,192,225726,128,0,225808:0:0:0:0:
192,192,225726,1,0,0:0:0:0:
320,192,225808,128,0,225889:0:0:0:0:
192,192,225889,128,0,226051:0:0:0:0:
64,192,225889,128,0,225970:0:0:0:0:
320,192,225970,128,0,226132:0:0:0:0:
448,192,226051,128,0,226132:0:0:0:0:
64,192,226051,1,0,0:0:0:0:
192,192,226132,1,0,0:0:0:0:
448,192,226213,128,0,226253:0:0:0:0:
320,192,226213,128,0,226294:0:0:0:0:
192,192,226253,128,0,226335:0:0:0:0:
64,192,226294,128,0,226618:0:0:0:0:
448,192,226375,128,0,226456:0:0:0:0:
320,192,226375,1,0,0:0:0:0:
192,192,226456,128,0,226537:0:0:0:0:
320,192,226537,128,0,226699:0:0:0:0:
448,192,226537,128,0,226618:0:0:0:0:
192,192,226618,128,0,226780:0:0:0:0:
64,192,226699,128,0,226780:0:0:0:0:
448,192,226699,1,0,0:0:0:0:
320,192,226780,1,0,0:0:0:0:
448,192,226862,1,0,0:0:0:0:
64,192,226862,128,0,226943:0:0:0:0:
192,192,226862,128,0,227024:0:0:0:0:
320,192,226943,128,0,227105:0:0:0:0:
448,192,227024,128,0,227105:0:0:0:0:
64,192,227024,1,0,0:0:0:0:
192,192,227105,1,0,0:0:0:0:
320,192,227186,128,0,227348:0:0:0:0:
64,192,227186,1,0,0:0:0:0:
448,192,227186,128,0,227267:0:0:0:0:
192,192,227267,128,0,227429:0:0:0:0:
64,192,227348,128,0,227429:0:0:0:0:
448,192,227348,1,0,0:0:0:0:
320,192,227429,1,0,0:0:0:0:
448,192,227510,128,0,227591:0:0:0:0:
64,192,227510,128,0,227591:0:0:0:0:
192,192,227510,128,0,227672:0:0:0:0:
320,192,227591,128,0,227753:0:0:0:0:
448,192,227672,128,0,227835:0:0:0:0:
64,192,227672,128,0,227835:0:0:0:0:
192,192,227753,128,0,227916:0:0:0:0:
320,192,227835,128,0,227916:0:0:0:0:
448,192,227916,128,0,228078:0:0:0:0:
64,192,227916,128,0,228078:0:0:0:0:
192,192,227997,128,0,228078:0:0:0:0:
320,192,227997,128,0,228078:0:0:0:0:
64,192,228159,128,0,228402:0:0:0:0:
192,192,228159,128,0,228402:0:0:0:0:
320,192,228159,1,0,0:0:0:0:
448,192,228159,1,0,0:0:0:0:
320,192,228321,128,0,228402:0:0:0:0:
448,192,228321,128,0,228402:0:0:0:0:
320,192,228483,128,0,228726:0:0:0:0:
448,192,228483,128,0,228726:0:0:0:0:
192,192,228483,1,0,0:0:0:0:
64,192,228483,1,0,0:0:0:0:
64,192,228645,128,0,228726:0:0:0:0:
192,192,228645,128,0,228726:0:0:0:0:
64,192,228808,128,0,229051:0:0:0:0:
448,192,228808,128,0,229051:0:0:0:0:
192,192,228808,1,0,0:0:0:0:
320,192,228808,1,0,0:0:0:0:
192,192,228970,128,0,229051:0:0:0:0:
320,192,228970,128,0,229051:0:0:0:0:
64,192,229132,128,0,229375:0:0:0:0:
192,192,229132,128,0,229375:0:0:0:0:
320,192,229132,1,0,0:0:0:0:
448,192,229132,1,0,0:0:0:0:
320,192,229294,128,0,229375:0:0:0:0:
448,192,229294,128,0,229375:0:0:0:0:
64,192,229456,128,0,229699:0:0:0:0:
448,192,229456,128,0,229699:0:0:0:0:
320,192,229456,1,0,0:0:0:0:
192,192,229456,1,0,0:0:0:0:
192,192,229618,128,0,229699:0:0:0:0:
320,192,229618,128,0,229699:0:0:0:0:
320,192,229780,128,0,230024:0:0:0:0:
448,192,229780,128,0,230024:0:0:0:0:
192,192,229780,1,0,0:0:0:0:
64,192,229780,1,0,0:0:0:0:
64,192,229943,128,0,230024:0:0:0:0:
192,192,229943,128,0,230024:0:0:0:0:
64,192,230105,128,0,230348:0:0:0:0:
192,192,230105,128,0,230348:0:0:0:0:
320,192,230105,1,0,0:0:0:0:
448,192,230105,1,0,0:0:0:0:
320,192,230186,128,0,230348:0:0:0:0:
448,192,230267,128,0,230348:0:0:0:0:
448,192,230429,128,0,230672:0:0:0:0:
320,192,230429,128,0,230672:0:0:0:0:
192,192,230429,1,0,0:0:0:0:
64,192,230429,1,0,0:0:0:0:
192,192,230510,128,0,230672:0:0:0:0:
64,192,230591,128,0,230672:0:0:0:0:
64,192,230753,128,0,230997:0:0:0:0:
448,192,230753,128,0,230997:0:0:0:0:
192,192,230753,1,0,0:0:0:0:
320,192,230753,1,0,0:0:0:0:
320,192,230916,128,0,230997:0:0:0:0:
192,192,230916,128,0,230997:0:0:0:0:
192,192,231078,128,0,231321:0:0:0:0:
320,192,231078,128,0,231321:0:0:0:0:
448,192,231078,1,0,0:0:0:0:
64,192,231078,1,0,0:0:0:0:
448,192,231159,128,0,231321:0:0:0:0:
64,192,231240,128,0,231321:0:0:0:0:
64,192,231402,128,0,231645:0:0:0:0:
448,192,231402,128,0,231645:0:0:0:0:
320,192,231402,1,0,0:0:0:0:
192,192,231402,1,0,0:0:0:0:
192,192,231564,128,0,231645:0:0:0:0:
320,192,231564,128,0,231645:0:0:0:0:
192,192,231726,128,0,231970:0:0:0:0:
320,192,231726,128,0,231970:0:0:0:0:
64,192,231726,1,0,0:0:0:0:
448,192,231726,1,0,0:0:0:0:
64,192,231808,128,0,231970:0:0:0:0:
448,192,231889,128,0,231970:0:0:0:0:
320,192,232051,128,0,232294:0:0:0:0:
448,192,232051,128,0,232294:0:0:0:0:
192,192,232051,1,0,0:0:0:0:
64,192,232051,1,0,0:0:0:0:
192,192,232132,128,0,232294:0:0:0:0:
64,192,232213,128,0,232294:0:0:0:0:
64,192,232375,128,0,232618:0:0:0:0:
192,192,232375,128,0,232618:0:0:0:0:
320,192,232375,1,0,0:0:0:0:
448,192,232375,1,0,0:0:0:0:
320,192,232456,128,0,232618:0:0:0:0:
448,192,232537,128,0,232618:0:0:0:0:
64,192,232699,128,0,232780:0:0:0:0:
192,192,232699,128,0,232780:0:0:0:0:
448,192,232780,128,0,232862:0:0:0:0:
320,192,232780,128,0,232862:0:0:0:0:
64,192,232862,128,0,232943:0:0:0:0:
192,192,232862,128,0,232943:0:0:0:0:
320,192,232943,128,0,233024:0:0:0:0:
448,192,232943,128,0,233024:0:0:0:0:
64,192,233024,128,0,233105:0:0:0:0:
192,192,233024,128,0,233105:0:0:0:0:
320,192,233105,128,0,233267:0:0:0:0:
448,192,233105,128,0,233267:0:0:0:0:
64,192,233186,128,0,233267:0:0:0:0:
192,192,233186,128,0,233267:0:0:0:0:
192,192,233348,128,0,233916:0:0:0:0:
320,192,233348,128,0,233916:0:0:0:0:
448,192,233348,1,0,0:0:0:0:
64,192,233348,1,0,0:0:0:0:
64,192,233916,1,0,0:0:0:0:
448,192,233916,1,0,0:0:0:0:
64,192,233997,128,0,234564:0:0:0:0:
448,192,233997,128,0,234564:0:0:0:0:
192,192,233997,1,0,0:0:0:0:
320,192,233997,1,0,0:0:0:0:
192,192,234564,1,0,0:0:0:0:
320,192,234564,1,0,0:0:0:0:
192,192,234645,128,0,235213:0:0:0:0:
64,192,234645,128,0,235172:0:0:0:0:
320,192,234645,128,0,235213:0:0:0:0:
448,192,234645,128,0,235213:0:0:0:0:
64,192,235213,1,0,0:0:0:0:
192,192,235253,1,0,0:0:0:0:
320,192,235294,128,0,235862:0:0:0:0:
448,192,235294,1,0,0:0:0:0:
64,192,235294,1,0,0:0:0:0:
192,192,235862,1,0,0:0:0:0:
192,192,235943,128,0,236510:0:0:0:0:
64,192,235943,128,0,236510:0:0:0:0:
320,192,235943,1,0,0:0:0:0:
448,192,235943,128,0,236510:0:0:0:0:
320,192,236510,1,0,0:0:0:0:
320,192,236591,128,0,237159:0:0:0:0:
448,192,236591,128,0,237159:0:0:0:0:
64,192,236591,128,0,237159:0:0:0:0:
192,192,236591,1,0,0:0:0:0:
192,192,237159,1,0,0:0:0:0:
192,192,237240,128,0,237808:0:0:0:0:
64,192,237240,128,0,237808:0:0:0:0:
320,192,237240,128,0,237808:0:0:0:0:
448,192,237240,128,0,237808:0:0:0:0:
192,192,237889,128,0,238456:0:0:0:0:
320,192,237889,128,0,238456:0:0:0:0:
64,192,237889,1,0,0:0:0:0:
448,192,237889,1,0,0:0:0:0:
192,192,238517,1,0,0:0:0:0:
448,192,238537,128,0,240970:0:0:0:0:
320,192,238537,1,0,0:0:0:0:
64,192,238558,1,0,0:0:0:0:
192,192,239166,1,0,0:0:0:0:
320,192,239186,128,0,241294:0:0:0:0:
64,192,239206,1,0,0:0:0:0:
192,192,239835,128,0,240645:0:0:0:0:
64,192,239855,128,0,240321:0:0:0:0:
64,192,240483,128,0,240645:0:0:0:0:
64,192,240808,128,0,243645:0:0:0:0:
448,192,241132,128,0,241294:0:0:0:0:
448,192,241456,128,0,243645:0:0:0:0:
192,192,241780,128,0,243645:0:0:0:0:
320,192,242267,128,0,242348:0:0:0:0:
320,192,242429,128,0,243645:0:0:0:0:
448,192,243726,128,0,243808:0:0:0:0:
64,192,243726,128,0,243889:0:0:0:0:
320,192,243726,128,0,243767:0:0:0:0:
192,192,243808,128,0,243970:0:0:0:0:
320,192,243889,128,0,244051:0:0:0:0:
448,192,243889,1,0,0:0:0:0:
64,192,243970,128,0,244132:0:0:0:0:
448,192,244051,128,0,244213:0:0:0:0:
192,192,244051,128,0,244091:0:0:0:0:
320,192,244132,128,0,244294:0:0:0:0:
192,192,244213,128,0,244375:0:0:0:0:
64,192,244213,1,0,0:0:0:0:
448,192,244294,128,0,244456:0:0:0:0:
64,192,244375,128,0,244537:0:0:0:0:
320,192,244375,128,0,244416:0:0:0:0:
192,192,244456,128,0,244618:0:0:0:0:
320,192,244537,128,0,244699:0:0:0:0:
448,192,244537,1,0,0:0:0:0:
64,192,244618,128,0,244780:0:0:0:0:
448,192,244699,128,0,244862:0:0:0:0:
192,192,244699,128,0,244740:0:0:0:0:
320,192,244780,128,0,244943:0:0:0:0:
192,192,244862,128,0,245024:0:0:0:0:
64,192,244862,1,0,0:0:0:0:
448,192,244943,128,0,245105:0:0:0:0:
64,192,245024,128,0,245105:0:0:0:0:
320,192,245024,128,0,245064:0:0:0:0:
192,192,245105,128,0,245186:0:0:0:0:
320,192,245186,128,0,245267:0:0:0:0:
448,192,245186,1,0,0:0:0:0:
64,192,245186,128,0,245348:0:0:0:0:
192,192,245267,128,0,245429:0:0:0:0:
448,192,245348,128,0,245429:0:0:0:0:
320,192,245429,128,0,245510:0:0:0:0:
192,192,245510,128,0,245591:0:0:0:0:
448,192,245510,128,0,245672:0:0:0:0:
64,192,245510,128,0,245591:0:0:0:0:
320,192,245591,128,0,245753:0:0:0:0:
64,192,245672,128,0,245753:0:0:0:0:
192,192,245753,128,0,245835:0:0:0:0:
320,192,245835,128,0,245916:0:0:0:0:
64,192,245835,128,0,245997:0:0:0:0:
448,192,245835,128,0,245916:0:0:0:0:
192,192,245916,128,0,246078:0:0:0:0:
448,192,245997,128,0,246078:0:0:0:0:
320,192,246078,128,0,246159:0:0:0:0:
192,192,246159,128,0,246240:0:0:0:0:
448,192,246159,128,0,246321:0:0:0:0:
64,192,246159,128,0,246240:0:0:0:0:
320,192,246240,128,0,246402:0:0:0:0:
192,192,246321,128,0,246402:0:0:0:0:
64,192,246321,128,0,246483:0:0:0:0:
448,192,246402,128,0,246564:0:0:0:0:
192,192,246483,1,0,0:0:0:0:
320,192,246483,128,0,246645:0:0:0:0:
64,192,246564,128,0,246726:0:0:0:0:
448,192,246645,1,0,0:0:0:0:
192,192,246645,128,0,246808:0:0:0:0:
320,192,246726,128,0,246889:0:0:0:0:
64,192,246808,1,0,0:0:0:0:
448,192,246808,128,0,246889:0:0:0:0:
192,192,246889,1,0,0:0:0:0:
448,192,246970,128,0,247132:0:0:0:0:
320,192,246970,128,0,247051:0:0:0:0:
64,192,247051,128,0,247213:0:0:0:0:
320,192,247132,1,0,0:0:0:0:
192,192,247132,128,0,247294:0:0:0:0:
448,192,247213,128,0,247375:0:0:0:0:
64,192,247294,1,0,0:0:0:0:
320,192,247294,128,0,247456:0:0:0:0:
192,192,247375,128,0,247537:0:0:0:0:
448,192,247456,1,0,0:0:0:0:
64,192,247456,128,0,247537:0:0:0:0:
320,192,247537,1,0,0:0:0:0:
192,192,247618,128,0,247740:0:0:0:0:
64,192,247618,128,0,247699:0:0:0:0:
448,192,247618,128,0,247699:0:0:0:0:
320,192,247699,128,0,247862:0:0:0:0:
64,192,247780,128,0,247902:0:0:0:0:
192,192,247780,1,0,0:0:0:0:
448,192,247862,128,0,248024:0:0:0:0:
192,192,247943,128,0,248105:0:0:0:0:
64,192,247943,1,0,0:0:0:0:
320,192,248024,128,0,248064:0:0:0:0:
448,192,248105,128,0,248186:0:0:0:0:
64,192,248105,128,0,248267:0:0:0:0:
320,192,248186,128,0,248308:0:0:0:0:
192,192,248267,128,0,248389:0:0:0:0:
448,192,248267,128,0,248429:0:0:0:0:
64,192,248348,128,0,248510:0:0:0:0:
320,192,248429,128,0,248510:0:0:0:0:
192,192,248510,128,0,248632:0:0:0:0:
448,192,248510,128,0,248591:0:0:0:0:
320,192,248591,128,0,248713:0:0:0:0:
64,192,248591,128,0,248753:0:0:0:0:
448,192,248672,128,0,248835:0:0:0:0:
192,192,248753,128,0,248835:0:0:0:0:
320,192,248753,1,0,0:0:0:0:
64,192,248835,128,0,248916:0:0:0:0:
320,192,248916,128,0,249159:0:0:0:0:
448,192,248916,128,0,249159:0:0:0:0:
192,192,248916,1,0,0:0:0:0:
64,192,249078,1,0,0:0:0:0:
192,192,249078,128,0,249159:0:0:0:0:
64,192,249240,128,0,249280:0:0:0:0:
192,192,249240,128,0,249402:0:0:0:0:
448,192,249240,128,0,249321:0:0:0:0:
320,192,249321,128,0,249483:0:0:0:0:
64,192,249402,128,0,249645:0:0:0:0:
448,192,249402,128,0,249443:0:0:0:0:
192,192,249483,128,0,249524:0:0:0:0:
320,192,249564,128,0,249726:0:0:0:0:
448,192,249564,128,0,249605:0:0:0:0:
192,192,249645,128,0,249808:0:0:0:0:
64,192,249726,128,0,249767:0:0:0:0:
448,192,249726,128,0,249970:0:0:0:0:
320,192,249808,128,0,249848:0:0:0:0:
64,192,249889,128,0,249929:0:0:0:0:
192,192,249889,128,0,250051:0:0:0:0:
320,192,249970,128,0,250132:0:0:0:0:
64,192,250051,128,0,250294:0:0:0:0:
448,192,250051,128,0,250091:0:0:0:0:
192,192,250132,128,0,250172:0:0:0:0:
448,192,250213,128,0,250294:0:0:0:0:
320,192,250213,128,0,250335:0:0:0:0:
192,192,250294,128,0,250456:0:0:0:0:
64,192,250375,128,0,250416:0:0:0:0:
448,192,250375,128,0,250618:0:0:0:0:
320,192,250456,128,0,250497:0:0:0:0:
192,192,250537,128,0,250659:0:0:0:0:
64,192,250537,128,0,250618:0:0:0:0:
320,192,250618,128,0,250780:0:0:0:0:
448,192,250699,128,0,250740:0:0:0:0:
64,192,250699,128,0,250943:0:0:0:0:
192,192,250780,128,0,250821:0:0:0:0:
448,192,250862,128,0,250943:0:0:0:0:
320,192,250862,128,0,250983:0:0:0:0:
192,192,250943,128,0,251105:0:0:0:0:
64,192,251024,128,0,251064:0:0:0:0:
448,192,251024,128,0,251267:0:0:0:0:
320,192,251105,128,0,251145:0:0:0:0:
64,192,251186,128,0,251267:0:0:0:0:
192,192,251186,128,0,251308:0:0:0:0:
320,192,251267,128,0,251429:0:0:0:0:
448,192,251348,128,0,251389:0:0:0:0:
64,192,251348,128,0,251591:0:0:0:0:
192,192,251429,128,0,251510:0:0:0:0:
448,192,251510,128,0,251753:0:0:0:0:
320,192,251510,1,0,0:0:0:0:
192,192,251591,1,0,0:0:0:0:
64,192,251672,128,0,251753:0:0:0:0:
320,192,251672,128,0,251753:0:0:0:0:
64,192,251835,128,0,252078:0:0:0:0:
192,192,251835,1,0,0:0:0:0:
448,192,251835,1,0,0:0:0:0:
320,192,251916,1,0,0:0:0:0:
448,192,251997,128,0,252078:0:0:0:0:
192,192,251997,128,0,252078:0:0:0:0:
64,192,252159,128,0,252240:0:0:0:0:
192,192,252159,1,0,0:0:0:0:
320,192,252240,128,0,252321:0:0:0:0:
448,192,252240,1,0,0:0:0:0:
192,192,252321,128,0,252402:0:0:0:0:
64,192,252321,1,0,0:0:0:0:
448,192,252402,128,0,252564:0:0:0:0:
320,192,252402,1,0,0:0:0:0:
64,192,252483,128,0,252564:0:0:0:0:
192,192,252483,128,0,252564:0:0:0:0:
320,192,252564,128,0,252645:0:0:0:0:
448,192,252645,128,0,252726:0:0:0:0:
64,192,252645,1,0,0:0:0:0:
192,192,252726,1,0,0:0:0:0:
320,192,252808,128,0,253091:0:0:0:0:
448,192,252808,128,0,253091:0:0:0:0:
64,192,252808,128,0,252848:0:0:0:0:
192,192,252889,128,0,252929:0:0:0:0:
64,192,252970,128,0,253010:0:0:0:0:
192,192,253051,1,0,0:0:0:0:
64,192,253132,128,0,253416:0:0:0:0:
192,192,253132,128,0,253416:0:0:0:0:
448,192,253132,128,0,253172:0:0:0:0:
320,192,253213,128,0,253253:0:0:0:0:
448,192,253294,128,0,253335:0:0:0:0:
320,192,253375,1,0,0:0:0:0:
64,192,253456,128,0,253537:0:0:0:0:
192,192,253497,128,0,253578:0:0:0:0:
320,192,253537,128,0,253618:0:0:0:0:
448,192,253578,128,0,253659:0:0:0:0:
64,192,253618,128,0,253699:0:0:0:0:
192,192,253659,128,0,253740:0:0:0:0:
320,192,253699,128,0,253780:0:0:0:0:
448,192,253740,128,0,253821:0:0:0:0:
64,192,253780,128,0,253862:0:0:0:0:
192,192,253780,128,0,253862:0:0:0:0:
320,192,253862,128,0,253943:0:0:0:0:
64,192,253943,128,0,254024:0:0:0:0:
192,192,253943,128,0,254024:0:0:0:0:
448,192,253943,128,0,254024:0:0:0:0:
320,192,254024,128,0,254105:0:0:0:0:
64,192,254105,128,0,254186:0:0:0:0:
192,192,254105,128,0,254267:0:0:0:0:
448,192,254105,1,0,0:0:0:0:
320,192,254186,128,0,254348:0:0:0:0:
448,192,254267,128,0,254308:0:0:0:0:
64,192,254267,128,0,254308:0:0:0:0:
192,192,254348,128,0,254429:0:0:0:0:
320,192,254429,128,0,254591:0:0:0:0:
448,192,254429,128,0,254510:0:0:0:0:
64,192,254429,128,0,254510:0:0:0:0:
192,192,254510,128,0,254672:0:0:0:0:
64,192,254591,128,0,254632:0:0:0:0:
448,192,254591,128,0,254632:0:0:0:0:
320,192,254672,128,0,254753:0:0:0:0:
64,192,254753,128,0,254835:0:0:0:0:
192,192,254753,128,0,254916:0:0:0:0:
448,192,254753,128,0,254835:0:0:0:0:
320,192,254835,128,0,254997:0:0:0:0:
448,192,254916,128,0,254956:0:0:0:0:
64,192,254916,128,0,254956:0:0:0:0:
192,192,254997,128,0,255078:0:0:0:0:
64,192,255078,128,0,255159:0:0:0:0:
448,192,255078,128,0,255159:0:0:0:0:
320,192,255078,128,0,255240:0:0:0:0:
192,192,255159,128,0,255321:0:0:0:0:
448,192,255240,128,0,255280:0:0:0:0:
64,192,255240,128,0,255280:0:0:0:0:
320,192,255321,128,0,255402:0:0:0:0:
64,192,255402,128,0,255443:0:0:0:0:
448,192,255402,128,0,255564:0:0:0:0:
192,192,255402,128,0,255483:0:0:0:0:
320,192,255483,128,0,255645:0:0:0:0:
64,192,255564,128,0,255645:0:0:0:0:
192,192,255564,128,0,255605:0:0:0:0:
448,192,255645,128,0,255808:0:0:0:0:
64,192,255726,128,0,255808:0:0:0:0:
320,192,255726,128,0,255808:0:0:0:0:
192,192,255808,128,0,255970:0:0:0:0:
448,192,255889,128,0,255970:0:0:0:0:
64,192,255889,128,0,255929:0:0:0:0:
320,192,255970,128,0,256051:0:0:0:0:
64,192,256051,128,0,256132:0:0:0:0:
448,192,256051,128,0,256172:0:0:0:0:
320,192,256132,1,0,0:0:0:0:
192,192,256132,128,0,256253:0:0:0:0:
64,192,256213,128,0,256335:0:0:0:0:
448,192,256213,128,0,256335:0:0:0:0:
320,192,256294,128,0,256416:0:0:0:0:
192,192,256294,1,0,0:0:0:0:
448,192,256375,128,0,256497:0:0:0:0:
64,192,256375,128,0,256497:0:0:0:0:
192,192,256456,128,0,256578:0:0:0:0:
320,192,256456,1,0,0:0:0:0:
64,192,256537,128,0,256618:0:0:0:0:
448,192,256537,128,0,256699:0:0:0:0:
192,192,256618,1,0,0:0:0:0:
320,192,256618,128,0,256699:0:0:0:0:
192,192,256699,128,0,256780:0:0:0:0:
64,192,256699,128,0,256862:0:0:0:0:
320,192,256780,128,0,256943:0:0:0:0:
448,192,256862,128,0,256983:0:0:0:0:
192,192,256862,128,0,256902:0:0:0:0:
64,192,256943,128,0,257105:0:0:0:0:
192,192,257024,128,0,257186:0:0:0:0:
448,192,257024,128,0,257105:0:0:0:0:
320,192,257105,128,0,257267:0:0:0:0:
448,192,257186,128,0,257267:0:0:0:0:
64,192,257186,128,0,257226:0:0:0:0:
192,192,257267,128,0,257308:0:0:0:0:
448,192,257348,128,0,257510:0:0:0:0:
320,192,257348,128,0,257429:0:0:0:0:
64,192,257348,128,0,257389:0:0:0:0:
192,192,257429,128,0,257591:0:0:0:0:
64,192,257510,128,0,257632:0:0:0:0:
320,192,257510,128,0,257551:0:0:0:0:
448,192,257591,128,0,257753:0:0:0:0:
64,192,257672,128,0,257753:0:0:0:0:
320,192,257672,128,0,257835:0:0:0:0:
192,192,257753,128,0,257916:0:0:0:0:
448,192,257835,128,0,257875:0:0:0:0:
64,192,257835,128,0,257916:0:0:0:0:
320,192,257916,128,0,257956:0:0:0:0:
64,192,257997,128,0,258078:0:0:0:0:
192,192,257997,128,0,258078:0:0:0:0:
448,192,257997,128,0,258159:0:0:0:0:
320,192,258078,128,0,258240:0:0:0:0:
192,192,258159,128,0,258240:0:0:0:0:
64,192,258159,128,0,258321:0:0:0:0:
448,192,258240,128,0,258402:0:0:0:0:
320,192,258321,128,0,258402:0:0:0:0:
192,192,258321,128,0,258483:0:0:0:0:
64,192,258402,128,0,258564:0:0:0:0:
320,192,258483,128,0,258564:0:0:0:0:
448,192,258483,128,0,258564:0:0:0:0:
192,192,258564,128,0,258645:0:0:0:0:
64,192,258645,128,0,258726:0:0:0:0:
320,192,258645,128,0,258726:0:0:0:0:
448,192,258645,128,0,258808:0:0:0:0:
192,192,258726,128,0,258889:0:0:0:0:
64,192,258808,128,0,258889:0:0:0:0:
320,192,258808,128,0,258970:0:0:0:0:
448,192,258889,128,0,259051:0:0:0:0:
192,192,258970,128,0,259051:0:0:0:0:
64,192,258970,128,0,259132:0:0:0:0:
320,192,259051,128,0,259213:0:0:0:0:
448,192,259132,128,0,259213:0:0:0:0:
192,192,259132,128,0,259335:0:0:0:0:
64,192,259213,128,0,259335:0:0:0:0:
448,192,259294,128,0,259537:0:0:0:0:
320,192,259294,128,0,259335:0:0:0:0:
192,192,259375,1,0,0:0:0:0:
64,192,259456,1,0,0:0:0:0:
192,192,259537,128,0,259618:0:0:0:0:
64,192,259618,128,0,259862:0:0:0:0:
320,192,259618,128,0,259659:0:0:0:0:
448,192,259618,128,0,259659:0:0:0:0:
192,192,259699,1,0,0:0:0:0:
320,192,259780,1,0,0:0:0:0:
448,192,259862,128,0,259943:0:0:0:0:
192,192,259943,128,0,260186:0:0:0:0:
64,192,259943,128,0,259983:0:0:0:0:
320,192,259943,128,0,259983:0:0:0:0:
448,192,260024,1,0,0:0:0:0:
64,192,260105,1,0,0:0:0:0:
320,192,260186,128,0,260267:0:0:0:0:
448,192,260267,128,0,260510:0:0:0:0:
192,192,260267,128,0,260308:0:0:0:0:
64,192,260267,128,0,260308:0:0:0:0:
320,192,260348,1,0,0:0:0:0:
64,192,260429,1,0,0:0:0:0:
192,192,260510,128,0,260591:0:0:0:0:
320,192,260591,128,0,260835:0:0:0:0:
448,192,260591,128,0,260632:0:0:0:0:
64,192,260591,128,0,260632:0:0:0:0:
192,192,260672,1,0,0:0:0:0:
448,192,260753,1,0,0:0:0:0:
64,192,260835,128,0,260916:0:0:0:0:
192,192,260916,128,0,261159:0:0:0:0:
448,192,260916,128,0,260956:0:0:0:0:
320,192,260916,128,0,260956:0:0:0:0:
64,192,260997,1,0,0:0:0:0:
448,192,261078,1,0,0:0:0:0:
320,192,261159,128,0,261240:0:0:0:0:
64,192,261240,128,0,261483:0:0:0:0:
192,192,261240,128,0,261280:0:0:0:0:
448,192,261240,128,0,261280:0:0:0:0:
320,192,261321,1,0,0:0:0:0:
448,192,261402,1,0,0:0:0:0:
192,192,261483,128,0,261564:0:0:0:0:
448,192,261564,128,0,261808:0:0:0:0:
64,192,261564,128,0,261605:0:0:0:0:
320,192,261564,128,0,261605:0:0:0:0:
192,192,261645,1,0,0:0:0:0:
64,192,261726,1,0,0:0:0:0:
320,192,261726,1,0,0:0:0:0:
192,192,261808,128,0,261889:0:0:0:0:
320,192,261889,128,0,262051:0:0:0:0:
448,192,261889,128,0,261970:0:0:0:0:
64,192,261889,128,0,261970:0:0:0:0:
192,192,261970,128,0,262132:0:0:0:0:
64,192,262051,128,0,262091:0:0:0:0:
448,192,262051,128,0,262294:0:0:0:0:
320,192,262132,128,0,262213:0:0:0:0:
64,192,262213,128,0,262253:0:0:0:0:
192,192,262213,128,0,262375:0:0:0:0:
320,192,262294,128,0,262456:0:0:0:0:
448,192,262375,128,0,262416:0:0:0:0:
64,192,262375,128,0,262537:0:0:0:0:
192,192,262456,128,0,262537:0:0:0:0:
320,192,262537,128,0,262659:0:0:0:0:
448,192,262537,128,0,262618:0:0:0:0:
64,192,262618,128,0,262780:0:0:0:0:
192,192,262618,128,0,262659:0:0:0:0:
448,192,262699,128,0,262821:0:0:0:0:
320,192,262699,128,0,262821:0:0:0:0:
192,192,262780,128,0,262902:0:0:0:0:
64,192,262862,128,0,262983:0:0:0:0:
448,192,262862,128,0,262943:0:0:0:0:
320,192,262943,128,0,263105:0:0:0:0:
192,192,262943,128,0,262983:0:0:0:0:
448,192,263024,128,0,263105:0:0:0:0:
64,192,263024,128,0,263105:0:0:0:0:
192,192,263105,128,0,263186:0:0:0:0:
448,192,263186,128,0,268132:0:0:0:0:
64,192,263186,128,0,268213:0:0:0:0:
320,192,263186,128,0,268051:0:0:0:0:
192,192,268132,128,0,268294:0:0:0:0:
320,192,268213,128,0,269003:0:0:0:0:
448,192,268294,128,0,269024:0:0:0:0:
64,192,268375,128,0,268963:0:0:0:0:
192,192,268456,128,0,268983:0:0:0:0:
