osu file format v14

[General]
AudioFilename: audio.mp3
AudioLeadIn: 0
PreviewTime: 40131
Countdown: 0
SampleSet: Soft
StackLeniency: 0.7
Mode: 0
LetterboxInBreaks: 0
WidescreenStoryboard: 0

[Editor]
Bookmarks: 16131,24131,28131,32131,40131,56131
DistanceSpacing: 1.3
BeatDivisor: 4
GridSize: 4
TimelineZoom: 0.6999999

[Metadata]
Title:Patty Circulation
TitleUnicode:Patty Circulation
Artist:Mr_WoB
ArtistUnicode:Mr_WoB
Creator:Mel
Version:Normal
Source:
Tags:frey krabby Renai Circulation SpongeBob SquarePants Ren'ai 恋愛サーキュレーション Love Circulation Bakemonogatari Koyomimonogatari
BeatmapID:1201746
BeatmapSetID:566867

[Difficulty]
HPDrainRate:4
CircleSize:3.5
OverallDifficulty:3
ApproachRate:5
SliderMultiplier:1.4
SliderTickRate:1

[Events]
//Background and Video events
0,0,"mistakes.png",0,0
//Break Periods
//Storyboard Layer 0 (Background)
//Storyboard Layer 1 (Fail)
//Storyboard Layer 2 (Pass)
//Storyboard Layer 3 (Foreground)
//Storyboard Sound Samples

[TimingPoints]
131,500,4,2,0,70,1,0
40131,-100,4,2,0,70,0,1
56131,-100,4,2,0,70,0,0

[Colours]
Combo1 : 148,205,109
Combo2 : 241,114,114
Combo3 : 71,171,245

[HitObjects]
56,256,131,6,0,P|128:244|200:268,1,140
268,308,881,1,0,0:0:0:0:
340,252,1131,2,0,P|344:200|340:156,2,70
388,328,1881,1,0,0:0:0:0:
476,300,2131,6,0,P|492:244|464:144,1,140
404,108,2881,1,0,0:0:0:0:
316,92,3131,2,0,L|228:88,2,70
348,176,3881,1,0,0:0:0:0:
272,228,4131,6,0,B|230:218|203:236|203:236|168:260|120:240,1,140
72,184,4881,1,0,0:0:0:0:
52,96,5131,2,0,L|48:24,2,70
140,120,5881,1,0,0:0:0:0:
224,88,6131,6,0,P|276:80|360:120,1,140
400,192,6881,1,0,0:0:0:0:
428,280,7131,2,0,P|448:328|468:356,2,70
340,256,7881,1,0,0:0:0:0:
260,300,8131,6,0,P|208:316|120:272,1,140
88,204,8881,1,0,0:0:0:0:
68,116,9131,2,0,P|64:72|68:32,2,70
156,144,9881,1,0,0:0:0:0:
236,184,10131,6,0,P|280:188|316:108,1,140
296,24,10881,1,0,0:0:0:0:
384,52,11131,2,0,P|428:52|468:44,2,70
317,112,11881,1,0,0:0:0:0:
280,196,12131,6,0,P|280:252|264:344,1,140
176,344,12881,1,0,0:0:0:0:
92,312,13131,2,0,P|48:316|8:324,2,70
164,256,13881,1,0,0:0:0:0:
228,192,14131,6,0,P|248:132|216:36,2,140
168,260,15381,1,0,0:0:0:0:
256,288,15631,2,0,P|304:292|352:288,1,70
404,244,16131,6,0,B|420:176|420:176|404:84,2,140
324,288,17381,2,0,P|268:292|236:284,1,70
172,248,17881,1,0,0:0:0:0:
120,172,18131,6,0,L|116:32,2,140
172,248,19381,1,0,0:0:0:0:
256,212,19631,2,0,P|308:204|348:212,1,70
412,236,20131,6,0,B|404:188|404:188|424:148|424:148|416:92,2,140
256,192,21381,12,0,23631,0:0:0:0:
200,336,24131,6,0,P|192:288|204:244,1,70
268,212,24631,2,0,P|224:224|136:192,1,140
80,124,25381,1,0,0:0:0:0:
144,60,25631,2,0,P|192:52|236:52,1,70
296,88,26131,6,0,P|308:128|328:168,1,70
400,200,26631,2,0,P|348:192|264:232,1,140
212,300,27381,2,0,P|212:360|216:388,2,70
164,220,28131,6,0,P|168:180|164:128,1,70
108,84,28631,2,0,P|160:112|256:96,1,140
320,64,29381,1,0,0:0:0:0:
400,112,29631,2,0,P|404:156|396:192,1,70
344,252,30131,6,0,P|404:244|508:248,2,140
260,288,31381,1,0,0:0:0:0:
172,304,31631,2,0,P|128:300|88:280,1,70
64,208,32131,6,0,P|68:160|64:128,1,70
96,52,32631,2,0,P|120:84|224:104,1,140
300,80,33381,1,0,0:0:0:0:
380,40,33631,2,0,P|388:88|376:124,1,70
340,188,34131,6,0,P|336:236|348:280,1,70
400,328,34631,2,0,P|344:348|264:308,1,140
216,244,35381,2,0,P|220:192|216:152,2,70
152,308,36131,6,0,P|104:308|64:288,1,70
32,224,36631,2,0,P|24:176|52:80,1,140
128,48,37381,1,0,0:0:0:0:
208,92,37631,2,0,P|256:96|304:88,1,70
256,192,38131,12,0,39631,0:0:0:0:
448,252,40131,6,0,P|376:268|296:240,1,140
256,180,40881,1,0,0:0:0:0:
212,100,41131,2,0,P|208:52|212:12,2,70
164,176,41881,1,0,0:0:0:0:
108,248,42131,6,0,P|104:312|180:348,1,140
252,332,42881,1,0,0:0:0:0:
340,312,43131,2,0,P|392:316|432:324,2,70
276,248,43881,1,0,0:0:0:0:
224,172,44131,6,0,P|220:120|232:16,1,140
312,68,44881,1,0,0:0:0:0:
404,56,45131,2,0,P|468:44|500:32,2,70
368,140,45881,1,0,0:0:0:0:
296,192,46131,6,0,P|232:188|148:192,1,140
64,196,46881,1,0,0:0:0:0:
108,116,47131,2,0,P|112:68|112:44,2,70
156,191,47881,1,0,0:0:0:0:
224,252,48131,6,0,P|272:264|372:220,1,140
392,152,48881,1,0,0:0:0:0:
328,88,49131,2,0,P|280:84|244:88,2,70
416,64,49881,1,0,0:0:0:0:
472,136,50131,6,0,P|484:192|444:280,1,140
372,308,50881,1,0,0:0:0:0:
308,244,51131,2,0,P|304:200|308:160,2,70
264,324,51881,1,0,0:0:0:0:
176,348,52131,6,0,P|136:352|52:276,1,140
52,204,52881,1,0,0:0:0:0:
88,120,53131,2,0,L|84:40,1,70
172,80,53631,2,0,L|175:149,1,70
256,192,54131,12,0,59381,0:0:0:0:
