osu file format v14

[General]
AudioFilename: thing.mp3
AudioLeadIn: 0
PreviewTime: 21009
Countdown: 0
SampleSet: Soft
StackLeniency: 0.3
Mode: 0
LetterboxInBreaks: 0
WidescreenStoryboard: 0

[Editor]
DistanceSpacing: 0.9
BeatDivisor: 4
GridSize: 32
TimelineZoom: 1.5

[Metadata]
Title:Narwhals
TitleUnicode:Narwhals
Artist:MrWeebl
ArtistUnicode:MrWeebl
Creator:bite you death
Version:Ohwow's Normal
Source:
Tags:ohwow hydrocannon13 hc youtube weebls weebl stuff
BeatmapID:1388437
BeatmapSetID:652142

[Difficulty]
HPDrainRate:4
CircleSize:3.6
OverallDifficulty:4
ApproachRate:5
SliderMultiplier:1.2
SliderTickRate:1

[Events]
//Background and Video events
0,0,"memes.jpg",0,0
Video,0,"movie yeah.avi"
//Break Periods
//Storyboard Layer 0 (Background)
//Storyboard Layer 1 (Fail)
//Storyboard Layer 2 (Pass)
//Storyboard Layer 3 (Foreground)
//Storyboard Sound Samples

[TimingPoints]
0,397.350993377483,4,2,1,60,1,0
20662,-100,4,2,1,60,0,1
32980,-100,4,2,1,60,0,0

[Colours]
Combo1 : 159,159,255
Combo2 : 134,249,215
Combo3 : 1,61,126
Combo4 : 14,114,73
SliderBorder : 200,230,200

[HitObjects]
0,113,0,6,0,P|49:79|108:77,1,120,2|8,3:0|0:0,0:0:0:0:
195,139,795,2,0,P|254:136|303:103,1,120,2|8,3:0|0:0,0:0:0:0:
367,15,1589,2,0,L|493:28,1,120,2|8,3:0|0:0,0:0:0:0:
474,83,2185,1,0,0:0:0:0:
474,83,2384,2,0,P|458:143|491:204,1,120,2|8,3:0|0:0,0:0:0:0:
414,279,3179,6,0,L|294:291,1,120,2|8,3:0|0:0,0:0:0:0:
274,246,3775,1,0,0:0:0:0:
274,246,3973,2,0,P|216:213|154:218,1,120,2|8,3:0|0:0,0:0:0:0:
81,284,4768,2,0,P|50:335|0:364,2,120,2|8|2,3:0|0:0|3:0,0:0:0:0:
63,179,5960,1,8,0:0:0:0:
164,214,6357,6,0,P|223:214|275:185,1,120,2|8,3:2|0:0,0:0:0:0:
295,79,7152,2,0,P|347:50|406:50,1,120,2|8,3:0|0:0,0:0:0:0:
486,123,7947,2,0,L|478:258,1,120,2|8,3:0|0:0,0:0:0:0:
437,276,8543,1,0,0:0:0:0:
437,276,8742,2,0,L|302:268,1,120,2|8,3:0|0:0,0:0:0:0:
259,177,9536,6,0,P|256:117|213:66,1,120,2|8,3:0|0:0,0:0:0:0:
171,63,10132,1,0,0:0:0:0:
171,63,10331,2,0,P|120:95|97:158,1,120,2|8,3:0|0:0,0:0:0:0:
124,252,11126,1,2,3:0:0:0:
20,221,11523,1,8,0:0:0:0:
46,325,11920,2,0,P|96:356|155:354,1,120,2|8,3:0|0:0,0:0:0:0:
257,318,12715,6,0,B|316:314|316:314|367:346,1,120,0|0,3:0|3:0,0:0:0:0:
446,272,13510,2,0,B|414:221|414:221|418:162,1,120,0|0,3:0|3:0,0:0:0:0:
463,63,14304,2,0,P|413:30|354:29,1,120,2|8,3:2|0:0,0:0:0:0:
312,61,14900,1,0,0:0:0:0:
312,61,15099,2,0,B|230:65|230:65|195:49,1,120,2|8,3:0|0:0,0:0:0:0:
115,122,15894,6,0,B|6:72,2,120,2|8|2,3:0|0:0|3:0,0:0:0:0:
158,221,17086,1,8,0:0:0:0:
251,164,17483,2,0,P|307:146|365:160,1,120,2|8,3:3|0:0,0:0:0:0:
368,269,18278,2,0,P|312:285|254:273,1,120,2|8,3:0|0:0,0:0:0:0:
196,179,19073,6,0,L|136:175,2,60,2|2|2,3:0|3:0|3:0,0:0:0:0:
251,165,19669,1,0,3:0:0:0:
251,165,19867,2,0,L|310:161,1,60,0|0,3:0|3:0,0:0:0:0:
360,184,20265,2,0,L|419:180,1,60,0|0,3:0|3:0,0:0:0:0:
458,142,20662,5,0,3:2:0:0:
467,250,21059,2,0,P|466:280|460:310,1,60,10|0,0:2|0:0,0:0:0:0:
437,358,21457,2,0,P|388:327|329:331,1,120,2|8,3:0|0:0,0:0:0:0:
221,316,22251,2,0,L|215:376,2,60,2|2|8,3:0|0:0|0:0,0:0:0:0:
182,277,22848,2,0,L|177:217,1,60,2|0,0:0|3:0,0:0:0:0:
124,203,23245,2,0,P|78:168|58:112,1,120,2|0,0:0|0:0,0:0:0:0:
68,60,23841,5,0,3:0:0:0:
166,104,24238,2,0,L|225:98,1,60,10|0,0:0|0:0,0:0:0:0:
279,90,24636,2,0,B|322:48|322:48|381:43,1,120,2|8,3:0|0:0,0:0:0:0:
478,91,25430,2,0,L|507:143,1,60,2|0,3:0|0:0,0:0:0:0:
500,195,25828,2,0,L|447:224,1,60,10|0,0:0|0:0,0:0:0:0:
396,217,26225,2,0,L|366:164,1,60,2|2,3:0|0:0,0:0:0:0:
335,119,26622,2,0,P|277:129|220:111,1,120,10|0,0:0|3:0,0:0:0:0:
160,20,27417,6,0,L|100:26,1,60,10|0,0:0|0:0,0:0:0:0:
55,58,27814,2,0,P|40:114|62:168,1,120,2|8,3:0|0:0,0:0:0:0:
135,249,28609,2,0,L|124:323,2,60,2|2|8,3:0|0:0|0:0,0:0:0:0:
183,224,29205,2,0,P|212:222|241:230,1,60,2|2,0:0|3:0,0:0:0:0:
284,264,29602,2,0,B|326:276|326:276|401:266,1,120,2|0,0:0|0:0,0:0:0:0:
455,257,30199,5,0,3:0:0:0:
430,153,30596,2,0,L|370:160,1,60,10|0,0:0|0:0,0:0:0:0:
330,122,30993,2,0,P|277:97|218:103,1,120,2|8,3:0|0:0,0:0:0:0:
177,137,31589,1,0,0:0:0:0:
177,137,31788,2,0,L|161:194,1,60,2|2,3:0|0:0,0:0:0:0:
113,220,32185,2,0,L|55:204,1,60,10|2,0:0|0:0,0:0:0:0:
30,156,32583,2,0,L|45:98,1,60,2|2,3:0|0:0,0:0:0:0:
35,44,32980,1,8,0:0:0:0:
