osu file format v14

[General]
AudioFilename: thing.mp3
AudioLeadIn: 0
PreviewTime: 21009
Countdown: 0
SampleSet: Soft
StackLeniency: 0.4
Mode: 0
LetterboxInBreaks: 0
WidescreenStoryboard: 0

[Editor]
Bookmarks: 6447,12805,14394,19162,20752,22739,27109,32871,33368
DistanceSpacing: 1.4
BeatDivisor: 4
GridSize: 32
TimelineZoom: 1.7

[Metadata]
Title:Narwhals
TitleUnicode:Narwhals
Artist:MrWeebl
ArtistUnicode:MrWeebl
Creator:bite you death
Version:HC's Hard
Source:
Tags:ohwow hydrocannon13 hc youtube weebls weebl stuff
BeatmapID:1394179
BeatmapSetID:652142

[Difficulty]
HPDrainRate:6
CircleSize:4
OverallDifficulty:7
ApproachRate:8
SliderMultiplier:1.5
SliderTickRate:1

[Events]
//Background and Video events
0,0,"memes.jpg",0,0
Video,0,"movie yeah.avi"
//Break Periods
//Storyboard Layer 0 (Background)
//Storyboard Layer 1 (Fail)
//Storyboard Layer 2 (Pass)
//Storyboard Layer 3 (Foreground)
//Storyboard Sound Samples

[TimingPoints]
0,397.350993377483,4,2,1,60,1,0
19072,-133.333333333333,4,2,1,60,0,0
20662,-100,4,2,1,60,0,0
33278,-100,4,2,1,5,0,0

[Colours]
Combo1 : 159,159,255
Combo2 : 134,249,215
Combo3 : 1,61,126
Combo4 : 14,114,73
SliderBorder : 200,230,200

[HitObjects]
164,113,0,6,0,L|238:106,1,75,2|0,3:0|0:0,0:0:0:0:
293,196,397,2,0,L|218:202,1,75,8|0,0:0|0:0,0:0:0:0:
330,97,795,2,0,L|404:90,1,75,2|0,3:0|0:0,0:0:0:0:
459,180,1192,2,0,L|384:186,1,75,8|0,0:0|0:0,0:0:0:0:
238,105,1589,6,0,P|231:68|234:31,2,75,2|0|8,3:0|0:0|0:0,0:0:0:0:
293,196,2185,1,0,0:0:0:0:
148,240,2384,2,0,B|100:224|84:240|84:240|76:232|76:232|60:248|6:232,1,150,2|8,3:0|0:0,0:0:0:0:
6,232,2980,1,0,0:0:0:0:
128,324,3179,6,0,P|166:324|199:308,1,75,2|0,3:0|0:0,0:0:0:0:
234,208,3576,2,0,P|216:176|186:155,1,75,8|0,0:0|0:0,0:0:0:0:
198,308,3973,2,0,P|271:310|326:262,1,150,2|8,3:0|0:0,0:0:0:0:
326,261,4569,1,0,0:0:0:0:
241,133,4768,6,0,L|234:207,1,75,2|0,3:0|0:0,0:0:0:0:
198,308,5165,2,0,L|204:382,1,75,8|0,0:0|0:0,0:0:0:0:
343,326,5563,2,0,B|375:318|414:328|414:328|413:320|413:320|454:331|482:324,1,150,2|8,3:0|0:0,0:0:0:0:
482,323,6357,6,0,L|487:248,1,75,2|0,3:0|0:0,0:0:0:0:
399,195,6755,2,0,L|392:269,1,75,8|0,0:0|0:3,0:0:0:0:
498,158,7152,2,0,L|503:83,1,75,2|0,3:0|0:0,0:0:0:0:
415,29,7550,2,0,L|408:103,1,75,8|0,0:0|0:0,0:0:0:0:
391,269,7947,6,0,P|353:271|318:259,2,75,2|0|8,3:0|0:0|0:0,0:0:0:0:
494,247,8543,1,0,0:0:0:0:
370,180,8742,2,0,P|343:111|370:43,1,150,2|8,3:0|0:0,0:0:0:0:
369,43,9338,1,0,0:0:0:0:
243,141,9536,6,0,L|247:66,2,75,2|0|8,3:0|0:0|0:0,0:0:0:0:
235,245,10132,1,0,0:0:0:0:
145,190,10331,2,0,L|149:115,2,75,2|0|8,3:0|0:0|0:0,0:0:0:0:
142,295,10927,1,0,0:0:0:0:
280,258,11126,6,0,P|315:246|352:246,1,75,2|0,3:0|0:0,0:0:0:0:
451,282,11523,1,8,0:0:0:0:
451,282,11622,1,0,0:0:0:0:
451,282,11722,1,0,0:0:0:0:
471,144,11920,2,0,L|396:137,1,75,2|0,3:0|0:0,0:0:0:0:
217,131,12318,1,8,0:0:0:0:
291,43,12516,1,0,0:0:0:0:
334,213,12715,6,0,P|298:220|261:217,1,75,0|0,3:0|0:0,0:0:0:0:
217,131,13112,2,0,P|254:122|291:126,1,75,0|0,3:0|0:0,0:0:0:0:
171,203,13510,2,0,P|146:176|132:142,1,75,0|0,3:0|0:0,0:0:0:0:
186,293,13907,2,0,P|170:328|145:355,1,75,0|0,3:0|0:0,0:0:0:0:
253,234,14304,6,0,P|291:232|327:242,1,75,2|0,3:2|0:0,0:0:0:0:
186,293,14702,2,0,P|151:302|113:301,1,75,8|0,0:0|0:0,0:0:0:0:
45,227,15099,1,2,3:0:0:0:
77,129,15298,1,0,0:0:0:0:
175,94,15497,1,8,0:0:0:0:
263,147,15695,1,0,0:0:0:0:
250,299,15894,6,0,P|313:262|386:270,1,150,2|8,3:0|0:0,0:0:0:0:
486,309,16490,1,0,0:0:0:0:
476,139,16689,2,0,L|469:213,1,75,2|0,3:0|0:0,0:0:0:0:
404,375,17086,1,8,0:0:0:0:
486,309,17285,1,0,0:0:0:0:
324,293,17483,6,0,L|249:299,1,75,2|0,3:3|0:3,0:0:0:0:
322,383,17881,2,0,L|397:377,1,75,8|0,0:0|0:0,0:0:0:0:
486,309,18278,2,0,P|491:273|482:237,1,75,2|0,3:0|0:0,0:0:0:0:
338,193,18675,2,0,P|332:230|341:266,1,75,8|0,0:0|0:0,0:0:0:0:
320,111,19073,5,2,3:0:0:0:
338,193,19271,1,2,3:0:0:0:
420,175,19470,1,2,3:0:0:0:
402,93,19669,1,2,3:0:0:0:
238,130,19867,6,0,L|227:87,3,28.1250010728836,0|0|0|0,3:0|3:0|3:0|3:0,0:0:0:0:
217,137,20265,1,0,3:0:0:0:
198,146,20364,1,0,3:0:0:0:
177,154,20463,1,0,3:0:0:0:
158,163,20563,1,0,3:0:0:0:
139,172,20662,6,0,L|143:246,1,75,0|0,3:2|0:0,0:0:0:0:
296,294,21059,2,0,P|260:281|223:283,1,75,10|0,0:2|0:0,0:0:0:0:
343,373,21457,2,0,P|387:314|373:242,1,150,2|8,3:0|0:0,0:0:0:0:
374,243,22053,1,0,0:0:0:0:
497,350,22251,5,2,3:0:0:0:
497,350,22450,2,0,L|492:275,1,75,2|8,0:0|0:0,0:0:0:0:
421,160,22848,2,0,P|435:126|464:103,1,75,2|0,0:0|3:0,0:0:0:0:
388,248,23245,2,0,P|334:198|335:125,1,150,2|0,0:0|0:0,0:0:0:0:
386,33,23841,5,0,3:0:0:0:
464,102,24040,1,0,0:0:0:0:
334,125,24238,2,0,P|305:103|287:70,1,75,10|0,0:0|0:0,0:0:0:0:
412,169,24636,2,0,P|352:212|281:195,1,150,2|8,3:0|0:0,0:0:0:0:
281,195,25232,1,0,0:0:0:0:
356,351,25430,5,2,3:0:0:0:
263,300,25629,1,0,0:0:0:0:
170,351,25828,1,10,0:0:0:0:
77,300,26026,1,0,0:0:0:0:
172,189,26225,2,0,P|183:225|182:263,1,75,2|2,3:0|0:0,0:0:0:0:
6,248,26622,1,10,0:0:0:0:
27,244,26722,1,0,0:0:0:0:
50,241,26821,1,0,0:0:0:0:
72,238,26920,1,0,0:0:0:0:
95,235,27020,6,0,L|85:141,1,75,0|0,3:0|0:0,0:0:0:0:
231,252,27417,2,0,P|257:226|267:190,1,75,10|0,0:0|0:0,0:0:0:0:
149,306,27814,2,0,P|209:346|281:334,1,150,2|8,3:0|0:0,0:0:0:0:
281,334,28410,1,0,0:0:0:0:
237,178,28609,5,2,3:0:0:0:
237,178,28808,2,0,L|230:252,1,75,2|8,0:0|0:0,0:0:0:0:
327,141,29205,2,0,P|307:109|275:90,1,75,2|2,0:0|3:0,0:0:0:0:
383,223,29602,2,0,P|423:163|411:91,1,150,2|0,0:0|0:0,0:0:0:0:
343,9,30199,5,0,3:0:0:0:
275,90,30397,1,0,0:0:0:0:
410,89,30596,2,0,P|434:61|445:25,1,75,10|0,0:0|0:0,0:0:0:0:
341,174,30993,2,0,P|409:203|478:177,1,150,2|8,3:0|0:0,0:0:0:0:
410,89,31589,1,0,0:0:0:0:
254,154,31788,6,0,L|246:229,1,75,2|2,3:0|0:0,0:0:0:0:
330,305,32185,2,0,L|337:229,1,75,10|2,0:0|0:0,0:0:0:0:
339,202,32483,1,0,0:0:0:0:
341,174,32583,1,2,3:0:0:0:
246,228,32781,1,2,0:0:0:0:
425,277,32980,2,0,L|463:281,2,37.5,8|0|0,0:0|3:0|3:0,0:0:0:0:
