osu file format v14

[General]
AudioFilename: audio.mp3
AudioLeadIn: 0
PreviewTime: 21059
Countdown: 0
SampleSet: Soft
StackLeniency: 0.7
Mode: 0
LetterboxInBreaks: 0
WidescreenStoryboard: 1

[Editor]
DistanceSpacing: 1.2
BeatDivisor: 4
GridSize: 32
TimelineZoom: 2.2

[Metadata]
Title:Narwhals
TitleUnicode:Narwhals
Artist:MrWeebl
ArtistUnicode:MrWeebl
Creator:bite you death
Version:Normal 2
Source:
Tags:youtube weebls weebl stuff byd awesomemacd
BeatmapID:1661563
BeatmapSetID:792129

[Difficulty]
HPDrainRate:3
CircleSize:3
OverallDifficulty:4
ApproachRate:5
SliderMultiplier:1.2
SliderTickRate:1

[Events]
//Background and Video events
0,0,"memes.jpg",0,0
Video,0,"movie yeah.avi"
//Break Periods
//Storyboard Layer 0 (Background)
//Storyboard Layer 1 (Fail)
//Storyboard Layer 2 (Pass)
//Storyboard Layer 3 (Foreground)
//Storyboard Sound Samples

[TimingPoints]
0,397.350993377483,4,2,1,60,1,0

[Colours]
Combo1 : 159,159,255
Combo2 : 134,249,215
Combo3 : 1,61,126
Combo4 : 14,114,73
SliderBorder : 200,230,200

[HitObjects]
62,264,0,6,0,P|116:240|188:262,1,120,2|8,3:0|0:0,0:0:0:0:
263,331,794,2,0,P|317:355|389:333,1,120,2|8,3:0|0:0,0:0:0:0:
468,267,1589,2,0,P|458:202|450:136,1,120,2|8,3:0|0:0,0:0:0:0:
394,130,2185,1,0,0:0:0:0:
394,130,2383,2,0,P|403:65|412:-1,1,120,2|8,3:0|0:0,0:0:0:0:
306,70,3178,6,0,P|250:98|184:83,1,120,2|8,3:0|0:0,0:0:0:0:
152,46,3774,1,0,0:0:0:0:
152,46,3973,2,0,P|96:18|30:33,1,120,2|8,3:0|0:0,0:0:0:0:
5,141,4768,2,0,P|15:181|23:217,1,60,2|0,3:0|0:0,0:0:0:0:
74,224,5165,2,0,P|63:264|56:300,1,60,8|0,0:0|0:0,0:0:0:0:
97,328,5562,2,0,P|160:300|217:316,1,120,2|8,3:0|0:0,0:0:0:0:
289,222,6357,6,0,P|261:159|277:102,1,120,2|8,3:0|0:0,0:0:0:0:
389,92,7151,2,0,P|417:154|401:211,1,120,2|8,3:0|0:0,0:0:0:0:
344,306,7947,2,0,P|284:312|222:322,1,120,2|8,3:0|0:0,0:0:0:0:
179,282,8542,1,0,0:0:0:0:
179,282,8741,2,0,P|119:275|57:266,1,120,2|8,3:0|0:0,0:0:0:0:
140,177,9536,6,0,P|177:181|215:186,2,60,2|0|8,3:0|0:0|0:0,0:0:0:0:
58,88,10331,2,0,P|20:83|-17:78,2,60,2|0|8,3:0|0:0|0:0,0:0:0:0:
174,58,11125,1,2,3:0:0:0:
277,118,11523,2,0,P|310:113|353:104,1,60,8|0,0:0|0:0,0:0:0:0:
395,97,11920,2,0,P|368:154|392:220,1,120,2|8,3:0|0:0,0:0:0:0:
439,312,12715,6,0,B|392:293|343:303|305:360|305:360|277:307|220:298|169:319|169:319|184:284|176:248,1,360,0|0,3:0|3:0,0:0:0:0:
131,163,14304,6,0,P|166:111|155:42,1,120,2|8,3:2|0:0,0:0:0:0:
270,4,15099,2,0,P|297:60|362:85,1,120,2|8,3:0|0:0,0:0:0:0:
407,84,15695,1,0,0:0:0:0:
407,84,15894,2,0,P|378:143|392:211,1,120,2|8,3:0|0:0,0:0:0:0:
334,304,16688,2,0,P|305:295|266:293,1,60,2|0,3:0|0:0,0:0:0:0:
228,254,17086,2,0,P|199:263|160:265,1,60,8|0,0:0|0:0,0:0:0:0:
116,238,17483,6,0,P|134:177|102:108,1,120,2|8,3:3|0:0,0:0:0:0:
78,78,18079,1,0,0:0:0:0:
114,30,18278,2,0,P|146:37|183:42,1,60,2|0,3:0|0:0,0:0:0:0:
217,81,18675,2,0,P|249:74|286:69,1,60,8|0,0:0|0:0,0:0:0:0:
327,100,19072,6,0,P|292:182|442:93,1,480,2|0,3:0|3:2,0:0:0:0:
364,13,21059,6,0,P|304:7|254:41,1,120,10|2,0:2|3:0,0:0:0:0:
198,143,21854,1,8,0:0:0:0:
140,38,22251,2,0,P|90:6|32:13,1,120,2|8,3:0|0:0,0:0:0:0:
0,64,22847,2,0,P|14:127|25:191,1,120,2|2,0:0|0:0,0:0:0:0:
10,240,23443,1,8,0:0:0:0:
94,324,23841,5,0,3:0:0:0:
193,257,24238,2,0,P|250:267|311:273,1,120,10|2,0:0|3:0,0:0:0:0:
408,343,25033,1,8,0:0:0:0:
467,239,25430,2,0,P|458:210|453:174,1,60,2|0,3:0|0:0,0:0:0:0:
405,144,25827,2,0,P|413:115|419:79,1,60,10|0,0:0|0:0,0:0:0:0:
376,42,26224,2,0,P|347:50|311:56,1,60,2|2,3:0|0:0,0:0:0:0:
281,104,26622,2,0,P|237:82|152:105,1,120,10|0,0:0|3:0,0:0:0:0:
156,212,27417,6,0,P|200:234|285:211,1,120,10|2,0:0|3:2,0:0:0:0:
374,168,28211,1,8,0:0:0:0:
460,84,28609,2,0,P|467:147|472:204,1,120,2|8,3:0|0:0,0:0:0:0:
427,243,29205,2,0,P|419:307|415:363,1,120,2|2,0:0|0:0,0:0:0:0:
371,384,29801,1,8,0:0:0:0:
263,330,30198,6,0,P|229:337|184:340,1,60,0|0,3:0|0:0,0:0:0:0:
160,296,30596,2,0,P|197:244|186:175,1,120,10|2,0:0|3:0,0:0:0:0:
117,97,31390,1,8,0:0:0:0:
163,58,31589,1,0,0:0:0:0:
163,58,31788,2,0,P|192:60|221:53,1,60,2|2,3:0|0:0,0:0:0:0:
267,16,32185,2,0,P|302:14|335:25,1,60,10|2,0:0|0:0,0:0:0:0:
368,60,32582,2,0,L|350:141,2,60,2|2|8,3:0|0:0|0:0,0:0:0:0:
425,41,33178,5,0,3:0:0:0:
