osu file format v14

[General]
AudioFilename: audio.mp3
AudioLeadIn: 0
PreviewTime: 21059
Countdown: 0
SampleSet: Soft
StackLeniency: 0.7
Mode: 0
LetterboxInBreaks: 0
WidescreenStoryboard: 0

[Editor]
Bookmarks: 20463
DistanceSpacing: 2
BeatDivisor: 4
GridSize: 32
TimelineZoom: 1.6

[Metadata]
Title:Narwhals
TitleUnicode:Narwhals
Artist:MrWeebl
ArtistUnicode:MrWeebl
Creator:bite you death
Version:Monodon Monoceros 2
Source:
Tags:youtube weebls weebl stuff byd awesomemacd
BeatmapID:1661562
BeatmapSetID:792129

[Difficulty]
HPDrainRate:5
CircleSize:3.8
OverallDifficulty:9
ApproachRate:9
SliderMultiplier:1.77
SliderTickRate:1

[Events]
//Background and Video events
Video,0,"movie yeah.avi"
0,0,"memes.jpg",0,0
//Break Periods
//Storyboard Layer 0 (Background)
//Storyboard Layer 1 (Fail)
//Storyboard Layer 2 (Pass)
//Storyboard Layer 3 (Foreground)
//Storyboard Sound Samples

[TimingPoints]
0,397.350993377483,4,2,1,60,1,0
33377,-100,4,2,1,5,0,0

[Colours]
Combo1 : 159,159,255
Combo2 : 134,249,215
Combo3 : 1,61,126
Combo4 : 14,114,73
SliderBorder : 200,230,200

[HitObjects]
149,159,0,6,0,P|193:186|247:177,1,88.5,2|0,3:0|0:0,0:0:0:0:
411,24,397,2,0,P|367:24|331:49,1,88.5,8|0,0:0|0:0,0:0:0:0:
374,192,794,6,0,P|384:146|394:101,1,88.5,2|0,3:0|0:0,0:0:0:0:
190,19,1192,2,0,P|200:64|210:110,1,88.5,8|0,0:0|0:0,0:0:0:0:
344,208,1589,5,2,3:0:0:0:
433,3,1788,1,0,0:0:0:0:
209,105,1986,1,8,0:0:0:0:
438,169,2185,1,0,0:0:0:0:
190,19,2384,2,0,P|140:30|72:42,1,88.5,2|0,3:0|0:0,0:0:0:0:
257,189,2781,2,0,P|306:200|375:212,1,88.5,8|0,0:0|0:0,0:0:0:0:
169,325,3178,5,2,3:0:0:0:
209,105,3377,1,0,0:0:0:0:
318,299,3576,1,8,0:0:0:0:
126,176,3774,1,0,0:0:0:0:
384,242,3973,2,0,P|403:309|377:358,1,88.5,2|0,3:0|0:0,0:0:0:0:
234,128,4370,2,0,P|230:84|250:45,1,88.5,8|0,0:0|0:0,0:0:0:0:
461,10,4768,5,2,3:0:0:0:
315,104,4966,1,0,0:0:0:0:
512,80,5165,1,8,0:0:0:0:
250,45,5364,1,0,0:0:0:0:
423,210,5562,2,0,P|413:165|408:118,1,88.5,2|0,3:0|0:3,0:0:0:0:
270,286,5960,2,0,P|260:330|255:378,1,88.5,8|0,0:0|0:3,0:0:0:0:
126,176,6357,6,0,P|81:169|33:194,1,88.5,2|0,3:0|0:0,0:0:0:0:
270,286,6754,2,0,P|315:293|363:268,1,88.5,8|0,0:0|0:3,0:0:0:0:
316,124,7152,6,0,P|310:171|304:213,1,88.5,2|0,3:0|0:0,0:0:0:0:
80,338,7549,2,0,P|85:290|92:249,1,88.5,8|0,0:0|0:0,0:0:0:0:
229,58,7947,5,2,3:0:0:0:
353,276,8145,1,0,0:0:0:0:
439,46,8344,1,8,0:0:0:0:
180,161,8543,1,0,0:0:0:0:
423,322,8741,2,0,P|470:311|544:296,1,88.5,2|0,3:0|0:0,0:0:0:0:
266,180,9139,2,0,P|218:169|145:154,1,88.5,8|0,0:0|0:0,0:0:0:0:
435,55,9536,5,2,3:0:0:0:
104,130,9735,1,0,0:0:0:0:
458,241,9933,1,8,0:0:0:0:
256,0,10132,1,0,0:0:0:0:
132,297,10331,5,2,3:0:0:0:
409,70,10529,1,0,0:0:0:0:
303,384,10728,1,8,0:0:0:0:
177,78,10927,1,0,0:0:0:0:
92,371,11125,6,0,P|136:382|188:358,1,88.5,2|0,3:0|0:0,0:0:0:0:
329,172,11523,1,8,0:0:0:0:
326,155,11622,1,0,0:0:0:0:
323,138,11721,1,0,0:0:0:0:
132,297,11920,5,2,3:0:0:0:
421,326,12119,1,0,0:0:0:0:
105,216,12317,1,8,0:0:0:0:
75,230,12416,1,0,0:0:0:0:
54,255,12515,1,0,0:0:0:0:
45,287,12615,1,0,0:0:0:0:
50,320,12714,5,0,3:0:0:0:
219,276,12913,1,0,0:0:0:0:
108,130,13112,2,0,P|96:181|124:243,1,88.5,0|0,3:0|0:0,0:0:0:0:
298,323,13509,2,0,P|310:272|282:210,1,88.5,0|0,3:0|0:0,0:0:0:0:
180,173,13907,1,0,3:0:0:0:
219,276,14105,1,0,0:0:0:0:
320,84,14304,5,2,3:2:0:0:
108,130,14503,1,0,0:0:0:0:
399,271,14701,2,0,P|404:227|414:184,1,88.5,8|0,0:0|0:0,0:0:0:0:
501,10,15099,1,2,3:0:0:0:
296,166,15298,1,0,0:0:0:0:
494,300,15496,1,8,0:0:0:0:
414,98,15695,1,0,0:0:0:0:
273,329,15894,6,0,P|309:318|382:312,1,88.5,2|0,3:0|0:0,0:0:0:0:
194,154,16291,1,8,0:0:0:0:
135,369,16490,1,0,0:0:0:0:
118,80,16688,1,2,3:0:0:0:
359,311,16887,1,0,0:0:0:0:
0,252,17086,1,8,0:0:0:0:
291,0,17284,1,0,0:0:0:0:
264,362,17483,1,2,3:3:0:0:
118,80,17682,6,0,P|63:91|8:98,1,88.5,0|8,0:0|0:0,0:0:0:0:
183,241,18079,1,0,0:0:0:0:
341,27,18277,2,0,P|396:38|451:45,1,88.5,2|0,3:0|0:0,0:0:0:0:
270,225,18675,2,0,P|215:236|160:243,1,88.5,8|0,0:0|0:0,0:0:0:0:
313,131,19072,5,2,3:0:0:0:
364,268,19271,1,2,3:0:0:0:
407,174,19470,1,2,3:0:0:0:
270,225,19668,1,2,3:0:0:0:
244,78,19867,5,0,3:0:0:0:
277,49,19966,1,0,3:0:0:0:
320,42,20065,1,0,3:0:0:0:
361,57,20165,1,0,3:0:0:0:
394,85,20265,1,0,3:0:0:0:
437,92,20364,1,0,3:0:0:0:
478,77,20463,2,0,P|481:61|486:43,2,22.125,0|0|0,3:0|3:0|3:0,0:0:0:0:
484,164,20662,5,0,3:2:0:0:
320,42,20860,1,0,0:0:0:0:
422,269,21059,2,0,P|475:279|546:288,1,88.5,10|0,0:2|0:0,0:0:0:0:
261,125,21456,2,0,P|175:141|61:155,1,177,2|8,3:0|0:0,0:0:0:0:
0,102,22052,1,0,0:0:0:0:
210,39,22251,5,2,3:0:0:0:
64,175,22450,1,2,0:0:0:0:
93,5,22649,1,8,0:0:0:0:
189,255,22847,2,0,P|137:263|92:274,1,88.5,2|0,0:0|3:0,0:0:0:0:
234,62,23245,2,0,P|277:71|320:78,1,88.5,2|8,0:0|0:0,0:0:0:0:
474,214,23642,1,0,0:0:0:0:
268,224,23841,5,0,3:0:0:0:
460,137,24039,1,0,0:0:0:0:
213,152,24238,2,0,P|184:188|182:246,1,88.5,10|0,0:0|0:0,0:0:0:0:
367,183,24635,2,0,P|356:95|348:-4,1,177,2|8,3:0|0:0,0:0:0:0:
270,99,25231,1,0,0:0:0:0:
442,227,25430,5,2,3:0:0:0:
294,279,25628,1,0,0:0:0:0:
482,138,25827,5,10,0:0:0:0:
396,322,26026,1,0,0:0:0:0:
396,95,26225,5,2,3:0:0:0:
486,356,26423,1,2,0:0:0:0:
476,46,26622,1,10,0:0:0:0:
453,22,26721,1,0,0:0:0:0:
424,7,26820,1,0,0:0:0:0:
391,3,26920,1,0,0:0:0:0:
359,12,27019,6,0,P|316:23|268:7,1,88.5,0|0,3:0|0:0,0:0:0:0:
107,128,27417,2,0,P|95:86|87:39,1,88.5,10|0,0:0|0:0,0:0:0:0:
236,165,27814,2,0,P|214:246|196:341,1,177,2|8,3:0|0:0,0:0:0:0:
110,227,28410,1,0,0:0:0:0:
330,123,28609,5,2,3:0:0:0:
107,128,28807,1,2,0:0:0:0:
298,252,29006,1,8,0:0:0:0:
116,40,29205,2,0,P|69:51|14:60,1,88.5,2|0,0:0|3:0,0:0:0:0:
315,144,29602,2,0,P|362:155|417:164,1,88.5,2|8,0:0|0:0,0:0:0:0:
130,254,29999,1,0,0:0:0:0:
240,15,30198,5,0,3:0:0:0:
319,227,30397,1,0,0:0:0:0:
405,41,30596,2,0,P|356:50|309:58,1,88.5,10|0,0:0|0:0,0:0:0:0:
160,223,30993,2,0,P|248:191|335:251,1,177,2|8,3:0|0:0,0:0:0:0:
441,349,31589,1,0,0:0:0:0:
239,302,31788,5,2,3:0:0:0:
460,196,31986,1,2,0:0:0:0:
131,205,32185,5,10,0:0:0:0:
467,370,32384,1,2,0:0:0:0:
123,357,32583,5,2,3:0:0:0:
493,180,32781,1,2,0:0:0:0:
508,148,32880,1,0,3:0:0:0:
512,113,32979,1,8,0:0:0:0:
502,79,33079,1,0,3:0:0:0:
481,51,33178,1,0,3:0:0:0:
451,33,33278,1,0,3:0:0:0:
