osu file format v14

[General]
AudioFilename: thing.mp3
AudioLeadIn: 0
PreviewTime: 21009
Countdown: 0
SampleSet: Soft
StackLeniency: 0.7
Mode: 0
LetterboxInBreaks: 0
WidescreenStoryboard: 0

[Editor]
Bookmarks: 6447,12805,14394,19162,20752,22739,25123,27109,32871,33368
DistanceSpacing: 1.2
BeatDivisor: 8
GridSize: 32
TimelineZoom: 1.7

[Metadata]
Title:Narwhals
TitleUnicode:Narwhals
Artist:MrWeebl
ArtistUnicode:MrWeebl
Creator:bite you death
Version:Advanced
Source:
Tags:ohwow hydrocannon13 hc youtube weebls weebl stuff
BeatmapID:1404668
BeatmapSetID:652142

[Difficulty]
HPDrainRate:5
CircleSize:3.8
OverallDifficulty:6
ApproachRate:6.5
SliderMultiplier:1.4
SliderTickRate:1

[Events]
//Background and Video events
0,0,"memes.jpg",0,0
Video,0,"movie yeah.avi"
//Break Periods
//Storyboard Layer 0 (Background)
//Storyboard Layer 1 (Fail)
//Storyboard Layer 2 (Pass)
//Storyboard Layer 3 (Foreground)
//Storyboard Sound Samples

[TimingPoints]
0,397.350993377483,4,2,1,60,1,0
0,-100,4,2,1,60,0,0
12715,-100,4,2,1,60,0,0
14304,-100,4,2,1,60,0,0
19072,-100,4,2,1,60,0,0
19867,-100,4,2,1,60,0,0
20662,-100,4,2,1,60,0,0
33278,-100,4,2,1,5,0,0

[Colours]
Combo1 : 159,159,255
Combo2 : 134,249,215
Combo3 : 1,61,126
Combo4 : 14,114,73
SliderBorder : 200,230,200

[HitObjects]
213,128,0,6,0,P|266:105|360:127,1,140,2|8,3:0|0:0,0:0:0:0:
422,234,795,2,0,B|435:191|417:167|417:167|438:141|432:98,1,140,2|8,3:0|0:0,0:0:0:0:
314,24,1589,6,0,P|257:26|232:31,1,70,2|0,3:0|0:0,0:0:0:0:
187,90,1987,1,8,0:0:0:0:
119,40,2185,1,0,0:0:0:0:
58,97,2384,2,0,B|38:149|38:149|53:243,1,140,2|8,3:0|0:0,0:0:0:0:
153,327,3179,6,0,P|210:325|235:320,1,70,2|0,3:0|0:0,0:0:0:0:
296,281,3576,2,0,P|353:283|378:288,1,70,8|0,0:0|0:0,0:0:0:0:
418,350,3973,2,0,P|447:306|421:220,1,140,2|8,3:0|0:0,0:0:0:0:
308,149,4768,6,0,L|213:153,1,70,2|0,3:0|0:0,0:0:0:0:
169,200,5165,2,0,L|74:196,1,70,8|0,0:0|0:0,0:0:0:0:
42,134,5563,2,0,P|16:190|42:260,1,140,2|8,3:0|0:0,0:0:0:0:
166,325,6357,6,0,B|201:307|231:308|231:308|266:334|313:320,1,140,2|8,3:2|0:0,0:0:0:0:
377,206,7152,2,0,B|359:241|360:271|360:271|386:306|372:353,1,140,2|8,3:0|0:0,0:0:0:0:
464,231,7947,6,0,P|468:186|446:144,1,70,2|0,3:0|0:0,0:0:0:0:
392,112,8344,1,8,0:0:0:0:
311,135,8543,1,0,0:0:0:0:
261,202,8742,2,0,P|192:223|117:178,1,140,2|8,3:0|0:0,0:0:0:0:
13,76,9536,6,0,P|46:64|93:63,1,70,2|0,3:0|0:0,0:0:0:0:
159,92,9934,1,8,0:0:0:0:
146,8,10132,1,0,0:0:0:0:
81,62,10331,2,0,P|76:107|86:136,1,70,2|0,3:0|0:0,0:0:0:0:
133,197,10728,1,8,0:0:0:0:
101,274,10927,1,0,0:0:0:0:
146,344,11126,6,0,P|187:351|227:343,1,70,2|0,3:0|0:0,0:0:0:0:
277,290,11523,2,0,P|318:283|358:291,1,70,8|0,0:0|0:0,0:0:0:0:
414,335,11920,2,0,P|427:297|424:261,1,70,2|0,3:0|0:0,0:0:0:0:
379,197,12318,1,8,0:0:0:0:
379,197,12715,6,0,P|358:139|386:60,1,140,0|0,3:0|3:0,0:0:0:0:
453,25,13311,1,0,0:0:0:0:
380,66,13510,2,0,L|220:58,1,140,0|0,3:0|3:0,0:0:0:0:
240,59,14304,6,0,P|228:100|231:137,1,70,2|0,3:2|0:0,0:0:0:0:
289,185,14702,2,0,P|303:222|298:263,1,70,8|0,0:0|0:0,0:0:0:0:
241,312,15099,1,2,3:0:0:0:
220,230,15298,1,0,0:0:0:0:
301,251,15497,2,0,L|402:240,1,70,8|0,0:0|0:0,0:0:0:0:
439,292,15894,6,0,P|454:235|403:164,1,140,2|8,3:0|0:0,0:0:0:0:
370,243,16490,1,0,0:0:0:0:
439,292,16689,2,0,L|527:286,1,70,2|0,3:0|0:0,0:0:0:0:
507,371,17086,2,0,L|419:377,1,70,8|0,0:0|0:0,0:0:0:0:
363,334,17483,5,2,3:3:0:0:
293,286,17682,2,0,L|205:292,1,70,0|8,0:3|0:0,0:0:0:0:
150,333,18079,1,0,0:0:0:0:
92,271,18278,2,0,P|88:229|96:194,1,70,2|0,3:0|0:0,0:0:0:0:
166,161,18675,2,0,P|170:119|162:84,1,70,8|0,0:0|0:0,0:0:0:0:
106,30,19073,6,0,P|143:11|189:10,1,70,2|2,3:0|3:0,0:0:0:0:
242,51,19470,2,0,L|319:47,1,70,2|2,3:0|3:0,0:0:0:0:
392,72,19867,6,0,P|399:101|400:118,3,35,0|0|0|0,3:0|3:0|3:0|3:0,0:0:0:0:
372,137,20265,2,0,P|365:166|364:183,3,35,0|0|0|0,3:0|3:0|3:0|3:0,0:0:0:0:
382,209,20662,6,0,P|338:200|305:206,1,70,0|0,3:0|0:0,0:0:0:0:
261,268,21059,2,0,P|217:277|184:271,1,70,8|0,0:0|0:0,0:0:0:0:
131,216,21457,2,0,P|109:268|151:345,1,140,2|8,3:0|0:0,0:0:0:0:
224,361,22053,1,0,0:0:0:0:
300,326,22251,6,0,L|387:330,2,70,2|2|8,3:0|0:0|0:0,0:0:0:0:
224,361,22848,2,0,P|217:312|239:267,1,70,2|0,0:0|3:0,0:0:0:0:
289,241,23245,2,0,P|315:178|297:110,1,140,2|0,0:0|0:0,0:0:0:0:
241,48,23841,5,0,3:0:0:0:
158,34,24040,1,0,0:0:0:0:
102,97,24238,2,0,L|92:173,1,70,10|0,0:0|0:0,0:0:0:0:
38,230,24636,2,0,P|104:249|161:212,1,140,2|8,3:0|0:0,0:0:0:0:
160,212,25430,6,0,L|168:302,1,70,2|0,3:0|0:0,0:0:0:0:
248,258,25828,2,0,L|240:348,1,70,10|0,0:0|0:0,0:0:0:0:
309,378,26225,1,2,3:0:0:0:
369,319,26424,1,2,0:0:0:0:
444,355,26622,1,10,0:0:0:0:
444,355,27020,6,0,P|451:297|433:262,1,70,0|0,3:0|0:0,0:0:0:0:
379,237,27417,2,0,P|338:241|296:277,1,70,10|0,0:0|0:0,0:0:0:0:
245,206,27814,2,0,B|227:171|228:141|228:141|254:106|240:59,1,140,2|8,3:0|0:0,0:0:0:0:
177,20,28410,1,0,0:0:0:0:
114,76,28609,6,0,P|93:38|93:4,2,70,2|2|8,3:0|0:0|0:0,0:0:0:0:
150,151,29205,2,0,P|160:189|158:238,1,70,2|2,0:0|3:0,0:0:0:0:
90,265,29602,2,0,B|108:300|143:305|143:305|146:344|176:374,1,140,2|0,0:0|0:0,0:0:0:0:
247,333,30199,5,0,3:0:0:0:
323,297,30397,1,0,0:0:0:0:
389,349,30596,2,0,P|426:356|480:351,1,70,10|0,0:0|0:0,0:0:0:0:
504,284,30993,2,0,B|512:234|494:209|494:209|509:174|488:124,1,140,2|8,3:0|0:0,0:0:0:0:
434,90,31589,1,0,0:0:0:0:
369,143,31788,6,0,P|326:147|289:138,1,70,2|2,3:0|0:0,0:0:0:0:
225,102,32185,2,0,P|182:98|145:107,1,70,10|2,0:0|0:0,0:0:0:0:
89,154,32583,1,2,3:0:0:0:
65,234,32781,1,2,0:0:0:0:
133,282,32980,2,0,P|147:239|145:212,1,70,8|0,0:0|3:0,0:0:0:0:
