osu file format v14

[General]
AudioFilename: PAS+DE+COUILLES+PLUS+DE+CASH+WTC+37.mp3
AudioLeadIn: 0
PreviewTime: -1
Countdown: 1
SampleSet: Normal
StackLeniency: 0.7
Mode: 0
LetterboxInBreaks: 0
WidescreenStoryboard: 0

[Editor]
DistanceSpacing: 1.1
BeatDivisor: 8
GridSize: 16
TimelineZoom: 1

[Metadata]
Title:PAS DE COUILLES PLUS DE CASH
TitleUnicode:PAS DE COUILLES PLUS DE CASH
Artist:MrAntoineDaniel
ArtistUnicode:MrAntoineDaniel
Creator:SpitsLife
Version:The Big Remote Scarlet Airman Dive : Elemental Pensamento Material
Source:
Tags:
BeatmapID:872066
BeatmapSetID:400827

[Difficulty]
HPDrainRate:4
CircleSize:4
OverallDifficulty:10
ApproachRate:10
SliderMultiplier:3
SliderTickRate:1

[Events]
//Background and Video events
0,0,"PAS DE COUILLES.jpg",0,0
//Break Periods
//Storyboard Layer 0 (Background)
//Storyboard Layer 1 (Fail)
//Storyboard Layer 2 (Pass)
//Storyboard Layer 3 (Foreground)
//Storyboard Sound Samples

[TimingPoints]
2749,483.870967741935,4,1,0,100,1,0
6619,-80,4,1,0,100,0,0
11458,-80,4,1,0,100,0,1

[HitObjects]
0,0,2748,5,0,0:0:0:0:
256,384,3232,1,0,0:0:0:0:
512,0,3716,1,0,0:0:0:0:
0,112,3837,1,0,0:0:0:0:
512,192,3958,1,0,0:0:0:0:
0,288,4079,1,0,0:0:0:0:
512,384,4200,1,0,0:0:0:0:
0,384,4684,5,0,0:0:0:0:
128,0,4805,1,0,0:0:0:0:
256,384,4926,1,0,0:0:0:0:
400,0,5047,1,0,0:0:0:0:
512,384,5168,1,0,0:0:0:0:
0,0,5289,5,0,0:0:0:0:
512,192,5410,1,0,0:0:0:0:
0,384,5531,1,0,0:0:0:0:
512,0,5652,1,0,0:0:0:0:
0,192,5773,1,0,0:0:0:0:
512,384,5894,1,0,0:0:0:0:
256,0,6015,1,0,0:0:0:0:
256,384,6136,1,0,0:0:0:0:
0,384,6619,6,0,L|0:0,1,375
512,0,7587,2,0,L|512:384,1,375
112,384,8555,5,0,0:0:0:0:
256,0,8676,1,0,0:0:0:0:
400,384,8797,1,0,0:0:0:0:
0,144,8918,1,0,0:0:0:0:
512,144,9039,1,0,0:0:0:0:
112,384,9160,1,0,0:0:0:0:
256,0,9281,1,0,0:0:0:0:
400,384,9402,1,0,0:0:0:0:
0,144,9523,1,0,0:0:0:0:
512,144,9644,1,0,0:0:0:0:
112,384,9765,1,0,0:0:0:0:
256,0,9886,1,0,0:0:0:0:
400,384,10007,1,0,0:0:0:0:
256,192,10128,1,0,0:0:0:0:
0,192,10490,5,0,0:0:0:0:
512,192,10974,1,0,0:0:0:0:
144,192,11458,5,0,0:0:0:0:
160,144,11519,1,0,0:0:0:0:
192,112,11579,1,0,0:0:0:0:
240,96,11640,1,0,0:0:0:0:
288,96,11700,1,0,0:0:0:0:
336,112,11761,1,0,0:0:0:0:
368,144,11821,1,0,0:0:0:0:
384,192,12426,5,0,0:0:0:0:
368,224,12486,1,0,0:0:0:0:
336,256,12547,1,0,0:0:0:0:
304,272,12607,1,0,0:0:0:0:
272,272,12668,1,0,0:0:0:0:
240,272,12728,1,0,0:0:0:0:
208,272,12789,1,0,0:0:0:0:
176,272,12849,1,0,0:0:0:0:
144,272,12910,1,0,0:0:0:0:
432,192,13394,5,0,0:0:0:0:
416,160,13454,1,0,0:0:0:0:
384,128,13515,1,0,0:0:0:0:
352,112,13575,1,0,0:0:0:0:
320,96,13636,1,0,0:0:0:0:
288,80,13696,1,0,0:0:0:0:
256,64,13757,1,0,0:0:0:0:
224,64,13817,1,0,0:0:0:0:
192,80,13878,1,0,0:0:0:0:
176,336,14361,5,0,0:0:0:0:
144,320,14422,1,0,0:0:0:0:
112,288,14482,1,0,0:0:0:0:
96,256,14543,1,0,0:0:0:0:
80,224,14603,1,0,0:0:0:0:
80,192,14664,1,0,0:0:0:0:
96,160,14724,1,0,0:0:0:0:
112,128,14785,1,0,0:0:0:0:
144,112,14845,1,0,0:0:0:0:
384,64,15329,5,0,0:0:0:0:
384,96,15390,1,0,0:0:0:0:
368,128,15450,1,0,0:0:0:0:
336,160,15511,1,0,0:0:0:0:
304,176,15571,1,0,0:0:0:0:
272,192,15632,1,0,0:0:0:0:
240,192,15692,1,0,0:0:0:0:
208,192,15753,1,0,0:0:0:0:
176,176,15813,1,0,0:0:0:0:
128,80,16297,5,0,0:0:0:0:
112,128,16357,1,0,0:0:0:0:
96,176,16418,1,0,0:0:0:0:
96,224,16478,1,0,0:0:0:0:
128,272,16539,1,0,0:0:0:0:
176,288,16599,1,0,0:0:0:0:
224,288,16660,1,0,0:0:0:0:
272,288,16720,1,0,0:0:0:0:
320,272,16781,1,0,0:0:0:0:
368,240,16841,1,0,0:0:0:0:
400,192,16902,1,0,0:0:0:0:
416,144,16962,1,0,0:0:0:0:
384,96,17023,1,0,0:0:0:0:
352,64,17083,1,0,0:0:0:0:
304,48,17144,1,0,0:0:0:0:
256,48,17204,1,0,0:0:0:0:
208,64,17265,1,0,0:0:0:0:
176,96,17325,1,0,0:0:0:0:
160,144,17386,1,0,0:0:0:0:
176,192,17446,1,0,0:0:0:0:
224,208,17507,1,0,0:0:0:0:
272,192,17567,1,0,0:0:0:0:
304,160,17628,1,0,0:0:0:0:
320,112,17688,1,0,0:0:0:0:
320,64,17748,1,0,0:0:0:0:
256,192,17869,5,0,0:0:0:0:
