osu file format v14

[General]
AudioFilename: audio.mp3
AudioLeadIn: 0
PreviewTime: 48961
Countdown: 1
SampleSet: Normal
StackLeniency: 0.7
Mode: 1
LetterboxInBreaks: 0
WidescreenStoryboard: 1

[Editor]
DistanceSpacing: 1
BeatDivisor: 4
GridSize: 4
TimelineZoom: 1

[Metadata]
Title:Triple Baka
TitleUnicode:驫麤~とりぷるばか~
Artist:MrAlekz
ArtistUnicode:MrAlekz
Creator:mintong89
Version:Muzukashii
Source:
Tags:Vocaloid UTAU Aedrix LamazeP ラマーズP GojimajiP ゴジマジP Hatsune Miku Kasane Teto Akita Neru 初音ミク 重音テト 亞北ネル
BeatmapID:1989439
BeatmapSetID:951977

[Difficulty]
HPDrainRate:5
CircleSize:5
OverallDifficulty:5
ApproachRate:5
SliderMultiplier:1.4
SliderTickRate:1

[Events]
//Background and Video events
0,0,"Konachan.com - 42692 aqua_eyes aqua_hair hatsune_miku hinata_(magamoto) long_hair skirt tie twintails vocaloid_waifu2x_art_noise1_scale_tta_1.jpg",0,100
//Break Periods
//Storyboard Layer 0 (Background)
//Storyboard Layer 1 (Fail)
//Storyboard Layer 2 (Pass)
//Storyboard Layer 3 (Foreground)
//Storyboard Sound Samples

[TimingPoints]
1045,333.333333333333,4,1,0,70,1,0
40878,-95.2380952380952,4,1,0,70,0,0
43544,-90.9090909090909,4,1,0,70,0,0
46211,-86.9565217391304,4,1,0,70,0,0
49044,-100,4,1,0,70,0,1
73044,-83.3333333333333,4,1,0,70,0,0
78378,-100,4,1,0,70,0,0
83711,-95.2380952380952,4,1,0,70,0,0
85044,-90.9090909090909,4,1,0,70,0,0

[HitObjects]
97,143,3711,5,8,0:0:0:0:
97,143,4211,1,8,0:0:0:0:
97,143,4378,1,8,0:0:0:0:
97,143,4878,1,8,0:0:0:0:
128,189,5044,1,0,0:0:0:0:
148,84,5128,1,0,0:0:0:0:
207,148,5211,1,0,0:0:0:0:
159,99,5294,1,0,0:0:0:0:
207,148,5378,1,0,0:0:0:0:
155,222,5544,1,0,0:0:0:0:
155,222,5711,1,0,0:0:0:0:
207,148,5878,1,6,0:0:0:0:
207,148,6044,1,6,0:0:0:0:
290,234,6378,1,4,0:0:0:0:
249,180,6711,1,8,0:0:0:0:
255,153,6878,1,8,0:0:0:0:
255,153,7044,1,0,0:0:0:0:
255,153,7378,1,8,0:0:0:0:
188,267,7544,1,0,0:0:0:0:
255,153,7711,1,0,0:0:0:0:
255,153,8044,1,0,0:0:0:0:
255,153,8211,1,8,0:0:0:0:
255,153,8544,1,0,0:0:0:0:
255,153,8711,1,8,0:0:0:0:
255,153,8878,1,8,0:0:0:0:
255,153,9044,1,0,0:0:0:0:
108,196,9378,1,8,0:0:0:0:
108,196,9544,1,8,0:0:0:0:
108,196,9711,1,0,0:0:0:0:
108,196,10044,1,8,0:0:0:0:
108,196,10211,1,0,0:0:0:0:
108,196,10544,1,0,0:0:0:0:
108,196,10711,1,8,0:0:0:0:
108,196,10878,1,8,0:0:0:0:
205,140,11044,1,0,0:0:0:0:
217,149,11128,1,0,0:0:0:0:
108,196,11211,1,0,0:0:0:0:
108,196,11378,1,8,0:0:0:0:
108,196,11544,1,8,0:0:0:0:
290,234,11711,1,4,0:0:0:0:
249,180,12044,1,8,0:0:0:0:
255,153,12211,1,8,0:0:0:0:
255,153,12378,1,0,0:0:0:0:
255,153,12711,1,8,0:0:0:0:
188,267,12878,1,0,0:0:0:0:
255,153,13044,1,0,0:0:0:0:
255,153,13378,1,0,0:0:0:0:
255,153,13544,1,8,0:0:0:0:
255,153,13878,1,0,0:0:0:0:
255,153,14044,1,8,0:0:0:0:
255,153,14211,1,8,0:0:0:0:
255,153,14378,1,0,0:0:0:0:
108,196,14711,1,8,0:0:0:0:
108,196,14878,1,8,0:0:0:0:
108,196,15044,1,0,0:0:0:0:
108,196,15378,1,8,0:0:0:0:
108,196,15544,1,0,0:0:0:0:
108,196,15878,1,0,0:0:0:0:
108,196,16044,1,8,0:0:0:0:
108,196,16211,1,8,0:0:0:0:
205,140,16378,1,0,0:0:0:0:
217,149,16461,1,0,0:0:0:0:
108,196,16544,1,0,0:0:0:0:
108,196,16711,1,8,0:0:0:0:
108,196,16878,1,8,0:0:0:0:
160,228,17211,1,8,0:0:0:0:
160,228,17378,1,0,0:0:0:0:
163,224,17711,1,0,0:0:0:0:
209,265,17878,1,0,0:0:0:0:
160,228,18044,1,8,0:0:0:0:
82,207,18378,1,0,0:0:0:0:
82,207,18544,1,0,0:0:0:0:
82,207,18711,1,8,0:0:0:0:
82,207,18878,1,8,0:0:0:0:
82,207,19044,1,0,0:0:0:0:
199,175,19211,1,8,0:0:0:0:
199,175,19544,1,8,0:0:0:0:
225,169,19878,1,8,0:0:0:0:
219,204,20044,1,8,0:0:0:0:
219,204,20378,1,8,0:0:0:0:
221,160,20711,1,0,0:0:0:0:
221,160,20878,1,8,0:0:0:0:
221,160,21211,1,0,0:0:0:0:
221,160,21378,1,8,0:0:0:0:
172,166,21711,1,0,0:0:0:0:
172,166,21878,1,8,0:0:0:0:
221,160,22044,1,8,0:0:0:0:
121,170,22128,1,8,0:0:0:0:
190,113,22211,1,8,0:0:0:0:
177,90,22378,1,0,0:0:0:0:
205,138,22711,1,8,0:0:0:0:
205,138,23044,1,0,0:0:0:0:
205,138,23378,1,8,0:0:0:0:
205,138,23711,1,8,0:0:0:0:
190,139,24211,1,8,0:0:0:0:
182,149,24378,1,8,0:0:0:0:
182,149,24461,1,8,0:0:0:0:
190,139,24544,1,8,0:0:0:0:
190,139,24711,1,8,0:0:0:0:
207,219,24878,1,8,0:0:0:0:
58,206,25044,1,0,0:0:0:0:
190,139,25211,1,0,0:0:0:0:
190,139,25378,1,8,0:0:0:0:
190,139,25711,1,0,0:0:0:0:
190,139,25878,1,0,0:0:0:0:
123,180,26044,1,8,0:0:0:0:
123,180,26211,1,0,0:0:0:0:
123,180,26378,1,8,0:0:0:0:
123,180,26711,1,8,0:0:0:0:
123,180,27044,1,8,0:0:0:0:
123,180,27211,1,0,0:0:0:0:
123,180,27378,1,8,0:0:0:0:
84,172,27711,1,0,0:0:0:0:
158,181,28044,1,0,0:0:0:0:
205,222,28211,1,0,0:0:0:0:
203,212,28378,1,8,0:0:0:0:
84,172,28711,1,8,0:0:0:0:
84,172,28878,1,8,0:0:0:0:
84,172,29044,1,0,0:0:0:0:
84,172,29211,1,0,0:0:0:0:
84,172,29378,1,8,0:0:0:0:
84,172,29544,1,8,0:0:0:0:
84,172,29711,1,0,0:0:0:0:
84,172,29878,1,8,0:0:0:0:
141,167,30211,1,8,0:0:0:0:
141,167,30544,1,0,0:0:0:0:
141,167,30711,1,8,0:0:0:0:
141,167,31044,1,0,0:0:0:0:
141,167,31378,1,8,0:0:0:0:
188,182,31544,1,0,0:0:0:0:
216,210,31878,1,0,0:0:0:0:
188,182,32044,1,8,0:0:0:0:
119,183,32378,1,8,0:0:0:0:
119,183,32544,1,8,0:0:0:0:
119,183,32711,1,8,0:0:0:0:
119,183,32794,1,8,0:0:0:0:
119,183,32878,1,8,0:0:0:0:
119,183,33044,1,0,0:0:0:0:
141,210,33378,1,8,0:0:0:0:
141,210,33711,1,0,0:0:0:0:
141,210,33878,1,0,0:0:0:0:
141,210,34044,1,8,0:0:0:0:
141,210,34211,1,8,0:0:0:0:
141,210,34378,1,0,0:0:0:0:
141,210,34544,1,0,0:0:0:0:
141,210,34711,1,8,0:0:0:0:
141,210,34878,1,8,0:0:0:0:
141,210,35044,1,0,0:0:0:0:
141,210,35211,1,8,0:0:0:0:
172,192,35878,1,8,0:0:0:0:
172,192,36044,1,0,0:0:0:0:
172,192,36211,1,8,0:0:0:0:
172,192,36378,1,0,0:0:0:0:
172,192,36544,1,8,0:0:0:0:
172,192,36711,1,8,0:0:0:0:
172,192,36794,1,8,0:0:0:0:
172,192,36878,1,8,0:0:0:0:
172,192,37044,1,0,0:0:0:0:
155,249,37378,1,4,0:0:0:0:
155,249,37544,1,4,0:0:0:0:
155,249,37878,1,6,0:0:0:0:
155,249,38044,1,6,0:0:0:0:
221,178,38378,1,0,0:0:0:0:
221,178,38544,1,8,0:0:0:0:
221,178,38878,1,8,0:0:0:0:
221,178,39044,1,0,0:0:0:0:
221,178,39211,1,0,0:0:0:0:
221,178,39378,1,8,0:0:0:0:
221,178,39711,1,0,0:0:0:0:
221,178,39878,1,0,0:0:0:0:
221,178,40044,1,8,0:0:0:0:
221,178,40211,1,8,0:0:0:0:
103,225,40544,1,8,0:0:0:0:
163,192,40878,1,8,0:0:0:0:
221,178,41044,1,0,0:0:0:0:
221,178,41211,1,8,0:0:0:0:
221,178,41544,1,8,0:0:0:0:
221,178,41711,1,0,0:0:0:0:
221,178,41878,1,0,0:0:0:0:
221,178,42044,1,8,0:0:0:0:
221,178,42378,1,8,0:0:0:0:
221,178,42544,1,8,0:0:0:0:
221,178,42711,1,0,0:0:0:0:
221,178,42878,1,8,0:0:0:0:
103,225,43211,1,8,0:0:0:0:
163,192,43544,1,8,0:0:0:0:
221,178,43711,1,0,0:0:0:0:
221,178,43878,1,8,0:0:0:0:
148,192,44044,1,0,0:0:0:0:
148,192,44211,1,8,0:0:0:0:
221,178,44378,1,0,0:0:0:0:
221,178,44544,1,0,0:0:0:0:
221,178,44711,1,8,0:0:0:0:
221,178,45044,1,0,0:0:0:0:
221,178,45211,1,0,0:0:0:0:
221,178,45378,1,8,0:0:0:0:
221,178,45544,1,8,0:0:0:0:
103,225,45878,1,8,0:0:0:0:
163,192,46211,1,8,0:0:0:0:
225,134,46378,1,0,0:0:0:0:
225,134,46544,1,0,0:0:0:0:
225,134,46711,1,8,0:0:0:0:
225,134,46878,1,8,0:0:0:0:
225,134,47044,1,0,0:0:0:0:
187,112,47128,1,0,0:0:0:0:
225,134,47211,1,0,0:0:0:0:
225,134,47378,1,8,0:0:0:0:
164,83,47544,1,0,0:0:0:0:
164,83,47628,1,0,0:0:0:0:
164,83,47711,1,0,0:0:0:0:
200,133,47878,1,0,0:0:0:0:
161,137,48044,1,6,0:0:0:0:
161,137,48211,1,6,0:0:0:0:
161,137,48544,1,6,0:0:0:0:
161,137,48711,1,6,0:0:0:0:
153,150,49044,1,4,0:0:0:0:
153,150,49211,1,6,0:0:0:0:
154,150,49378,1,4,0:0:0:0:
154,150,49544,1,6,0:0:0:0:
154,150,49711,1,4,0:0:0:0:
153,150,49878,1,6,0:0:0:0:
231,214,50211,1,0,0:0:0:0:
231,214,50378,1,0,0:0:0:0:
231,214,50544,1,0,0:0:0:0:
231,214,50628,1,0,0:0:0:0:
231,214,50711,1,0,0:0:0:0:
231,214,50878,1,8,0:0:0:0:
231,214,51044,1,0,0:0:0:0:
231,214,51211,1,0,0:0:0:0:
231,214,51378,1,8,0:0:0:0:
231,214,51544,1,8,0:0:0:0:
233,152,51711,1,0,0:0:0:0:
233,152,52044,1,8,0:0:0:0:
233,152,52378,1,0,0:0:0:0:
262,222,52711,1,8,0:0:0:0:
262,222,52878,1,8,0:0:0:0:
262,222,53044,1,0,0:0:0:0:
151,228,53211,1,0,0:0:0:0:
151,228,53378,1,8,0:0:0:0:
151,228,53544,1,0,0:0:0:0:
151,228,53628,1,0,0:0:0:0:
151,228,53711,1,0,0:0:0:0:
205,230,53878,1,0,0:0:0:0:
205,230,54044,1,8,0:0:0:0:
322,287,54378,1,4,0:0:0:0:
324,172,54711,1,0,0:0:0:0:
322,287,55044,1,6,0:0:0:0:
324,172,55378,1,8,0:0:0:0:
315,246,55711,1,4,0:0:0:0:
324,172,56044,1,0,0:0:0:0:
315,246,56378,1,6,0:0:0:0:
324,172,56711,1,8,0:0:0:0:
91,205,57044,1,0,0:0:0:0:
134,170,57211,1,0,0:0:0:0:
134,170,57378,1,8,0:0:0:0:
91,205,57544,1,8,0:0:0:0:
134,170,57711,1,0,0:0:0:0:
134,170,57794,1,0,0:0:0:0:
134,170,57878,1,0,0:0:0:0:
226,213,58044,1,8,0:0:0:0:
226,213,58211,1,8,0:0:0:0:
224,181,58544,1,8,0:0:0:0:
224,181,58711,1,0,0:0:0:0:
224,181,58878,1,8,0:0:0:0:
224,181,59044,1,8,0:0:0:0:
219,169,59128,1,8,0:0:0:0:
219,166,59211,1,8,0:0:0:0:
146,171,59378,1,0,0:0:0:0:
153,150,59711,1,4,0:0:0:0:
153,150,59878,1,6,0:0:0:0:
154,150,60044,1,4,0:0:0:0:
154,150,60211,1,6,0:0:0:0:
154,150,60378,1,4,0:0:0:0:
153,150,60544,1,6,0:0:0:0:
231,214,60878,1,0,0:0:0:0:
231,214,61044,1,0,0:0:0:0:
231,214,61211,1,8,0:0:0:0:
231,214,61294,1,8,0:0:0:0:
231,214,61378,1,8,0:0:0:0:
231,214,61544,1,8,0:0:0:0:
231,214,61711,1,0,0:0:0:0:
231,214,61878,1,0,0:0:0:0:
231,214,62044,1,8,0:0:0:0:
231,214,62211,1,8,0:0:0:0:
233,152,62378,1,0,0:0:0:0:
233,152,62711,1,8,0:0:0:0:
233,152,63044,1,0,0:0:0:0:
262,222,63378,1,8,0:0:0:0:
208,76,63544,1,0,0:0:0:0:
221,145,63711,1,8,0:0:0:0:
151,228,63878,1,0,0:0:0:0:
151,228,64044,1,8,0:0:0:0:
151,228,64211,1,8,0:0:0:0:
151,228,64294,1,8,0:0:0:0:
151,228,64378,1,8,0:0:0:0:
205,230,64544,1,8,0:0:0:0:
205,230,64711,1,0,0:0:0:0:
322,287,65044,1,4,0:0:0:0:
324,172,65378,1,0,0:0:0:0:
322,287,65711,1,6,0:0:0:0:
324,172,66044,1,8,0:0:0:0:
315,246,66378,1,4,0:0:0:0:
324,172,66711,1,0,0:0:0:0:
315,246,67044,1,6,0:0:0:0:
324,172,67378,1,8,0:0:0:0:
91,205,67711,1,0,0:0:0:0:
134,170,67878,1,0,0:0:0:0:
134,170,68044,1,8,0:0:0:0:
91,205,68211,1,8,0:0:0:0:
134,170,68378,1,0,0:0:0:0:
134,170,68461,1,0,0:0:0:0:
134,170,68544,1,0,0:0:0:0:
226,213,68711,1,8,0:0:0:0:
226,213,68878,1,8,0:0:0:0:
224,181,69211,1,8,0:0:0:0:
224,181,69378,1,0,0:0:0:0:
224,181,69544,1,8,0:0:0:0:
224,181,69711,1,8,0:0:0:0:
219,169,69794,1,8,0:0:0:0:
219,166,69878,1,8,0:0:0:0:
146,171,70044,1,0,0:0:0:0:
100,159,70211,1,8,0:0:0:0:
100,159,70378,1,0,0:0:0:0:
178,121,70544,1,8,0:0:0:0:
178,121,70628,1,8,0:0:0:0:
178,121,70711,1,8,0:0:0:0:
194,169,70878,1,8,0:0:0:0:
194,169,70961,1,8,0:0:0:0:
194,169,71044,1,8,0:0:0:0:
194,169,71211,1,8,0:0:0:0:
194,169,71378,1,0,0:0:0:0:
194,169,71544,1,8,0:0:0:0:
194,169,71878,1,6,0:0:0:0:
194,169,72044,1,6,0:0:0:0:
152,129,73044,2,4,B|438:44|438:44|368:251|368:251|69:295|69:294|560:152|560:152|119:105|119:105|464:325|464:325|297:43|297:42|81:240,1,2519.99992309571
290,234,78378,1,4,0:0:0:0:
249,180,78711,1,8,0:0:0:0:
255,153,78878,1,8,0:0:0:0:
255,153,79044,1,0,0:0:0:0:
255,153,79378,1,8,0:0:0:0:
188,267,79544,1,0,0:0:0:0:
255,153,79711,1,0,0:0:0:0:
255,153,80044,1,0,0:0:0:0:
255,153,80211,1,8,0:0:0:0:
255,153,80544,1,0,0:0:0:0:
255,153,80711,1,8,0:0:0:0:
255,153,80878,1,8,0:0:0:0:
255,153,81044,1,0,0:0:0:0:
108,196,81378,1,8,0:0:0:0:
108,196,81544,1,8,0:0:0:0:
108,196,81711,1,0,0:0:0:0:
108,196,82044,1,8,0:0:0:0:
108,196,82211,1,0,0:0:0:0:
273,251,82544,1,0,0:0:0:0:
273,251,82711,1,8,0:0:0:0:
273,251,82878,1,8,0:0:0:0:
273,188,83044,1,4,0:0:0:0:
273,188,83211,1,6,0:0:0:0:
273,188,83378,1,4,0:0:0:0:
273,188,83544,1,6,0:0:0:0:
273,251,83878,1,0,0:0:0:0:
273,251,84045,1,8,0:0:0:0:
273,251,84212,1,8,0:0:0:0:
273,188,84378,1,4,0:0:0:0:
273,188,84545,1,6,0:0:0:0:
273,188,84712,1,4,0:0:0:0:
273,188,84878,1,6,0:0:0:0:
273,251,85211,1,0,0:0:0:0:
273,251,85378,1,8,0:0:0:0:
273,251,85545,1,8,0:0:0:0:
273,188,85711,1,4,0:0:0:0:
273,188,85878,1,6,0:0:0:0:
273,188,86045,1,4,0:0:0:0:
273,188,86211,1,6,0:0:0:0:
256,192,86378,12,0,93044,0:0:0:0:
