osu file format v14

[General]
AudioFilename: audio.mp3
AudioLeadIn: 0
PreviewTime: 48961
Countdown: 1
SampleSet: None
StackLeniency: 0.7
Mode: 1
LetterboxInBreaks: 0
WidescreenStoryboard: 1

[Editor]
DistanceSpacing: 1
BeatDivisor: 2
GridSize: 4
TimelineZoom: 1

[Metadata]
Title:Triple Baka
TitleUnicode:驫麤~とりぷるばか~
Artist:MrAlekz
ArtistUnicode:MrAlekz
Creator:mintong89
Version:Futsuu
Source:
Tags:Vocaloid UTAU Aedrix LamazeP ラマーズP GojimajiP ゴジマジP Hatsune Miku Kasane Teto Akita Neru 初音ミク 重音テト 亞北ネル
BeatmapID:1990261
BeatmapSetID:951977

[Difficulty]
HPDrainRate:5
CircleSize:5
OverallDifficulty:4
ApproachRate:5
SliderMultiplier:1.4
SliderTickRate:1

[Events]
//Background and Video events
0,0,"Konachan.com - 42692 aqua_eyes aqua_hair hatsune_miku hinata_(magamoto) long_hair skirt tie twintails vocaloid_waifu2x_art_noise1_scale_tta_1.jpg",0,100
//Break Periods
//Storyboard Layer 0 (Background)
//Storyboard Layer 1 (Fail)
//Storyboard Layer 2 (Pass)
//Storyboard Layer 3 (Foreground)
//Storyboard Sound Samples

[TimingPoints]
1045,333.333333333333,4,1,0,70,1,0
49044,-100,4,1,0,70,0,1
73044,-100,4,1,0,70,0,0

[HitObjects]
126,191,5044,5,0,0:0:0:0:
126,191,5378,1,0,0:0:0:0:
126,191,5711,1,0,0:0:0:0:
126,191,5878,1,0,0:0:0:0:
126,191,6044,1,0,0:0:0:0:
188,229,6378,1,4,0:0:0:0:
224,173,6711,1,8,0:0:0:0:
232,117,7378,1,8,0:0:0:0:
232,117,7711,1,0,0:0:0:0:
143,203,8044,1,0,0:0:0:0:
143,203,8211,1,0,0:0:0:0:
143,203,8544,1,8,0:0:0:0:
232,117,8711,1,8,0:0:0:0:
232,117,9044,1,0,0:0:0:0:
271,180,9378,1,8,0:0:0:0:
271,180,10044,1,8,0:0:0:0:
271,180,10711,1,8,0:0:0:0:
271,180,11044,1,8,0:0:0:0:
271,180,11211,1,8,0:0:0:0:
271,180,11378,1,8,0:0:0:0:
188,229,11711,1,4,0:0:0:0:
224,173,12044,1,8,0:0:0:0:
232,117,12711,1,8,0:0:0:0:
232,117,13044,1,0,0:0:0:0:
143,203,13378,1,0,0:0:0:0:
143,203,13544,1,0,0:0:0:0:
143,203,13878,1,8,0:0:0:0:
232,117,14044,1,8,0:0:0:0:
232,117,14378,1,0,0:0:0:0:
271,180,14711,1,8,0:0:0:0:
271,180,15378,1,8,0:0:0:0:
271,180,16044,1,8,0:0:0:0:
271,180,16378,1,8,0:0:0:0:
271,180,16544,1,8,0:0:0:0:
271,180,16711,1,8,0:0:0:0:
225,139,17378,1,8,0:0:0:0:
225,139,17711,1,0,0:0:0:0:
225,139,18044,1,8,0:0:0:0:
225,139,18378,1,0,0:0:0:0:
225,139,18711,1,0,0:0:0:0:
225,139,19044,1,0,0:0:0:0:
204,217,19211,1,0,0:0:0:0:
203,123,19544,1,8,0:0:0:0:
104,195,19878,1,8,0:0:0:0:
121,151,20044,1,8,0:0:0:0:
210,192,20711,1,8,0:0:0:0:
210,192,21378,1,8,0:0:0:0:
210,192,21711,1,0,0:0:0:0:
210,192,22044,1,8,0:0:0:0:
210,192,22211,1,8,0:0:0:0:
210,192,22378,1,8,0:0:0:0:
211,148,23044,1,0,0:0:0:0:
211,148,23378,1,8,0:0:0:0:
211,148,23711,1,0,0:0:0:0:
211,148,24378,1,8,0:0:0:0:
211,148,24711,1,8,0:0:0:0:
166,163,25378,1,8,0:0:0:0:
177,128,25711,1,0,0:0:0:0:
177,128,26044,1,8,0:0:0:0:
177,128,26378,1,0,0:0:0:0:
151,203,26711,1,0,0:0:0:0:
151,203,26878,1,0,0:0:0:0:
177,128,27044,1,0,0:0:0:0:
180,138,27378,1,8,0:0:0:0:
120,216,28044,1,8,0:0:0:0:
120,216,28378,1,0,0:0:0:0:
120,216,28711,1,8,0:0:0:0:
120,216,29044,1,0,0:0:0:0:
120,216,29378,1,0,0:0:0:0:
120,216,29711,1,0,0:0:0:0:
120,216,29878,1,0,0:0:0:0:
120,216,30211,1,8,0:0:0:0:
120,216,30544,1,8,0:0:0:0:
120,216,30711,1,8,0:0:0:0:
210,192,31378,1,8,0:0:0:0:
210,192,32044,1,8,0:0:0:0:
210,192,32378,1,0,0:0:0:0:
210,192,32711,1,8,0:0:0:0:
210,192,32878,1,8,0:0:0:0:
210,192,33044,1,8,0:0:0:0:
124,224,33711,1,0,0:0:0:0:
124,224,34044,1,0,0:0:0:0:
147,223,34378,1,8,0:0:0:0:
147,223,34711,1,8,0:0:0:0:
147,223,35044,1,8,0:0:0:0:
147,223,35211,1,8,0:0:0:0:
158,191,36044,1,8,0:0:0:0:
158,191,36378,1,0,0:0:0:0:
153,197,36711,1,8,0:0:0:0:
153,197,36878,1,8,0:0:0:0:
153,197,37044,1,8,0:0:0:0:
140,198,37544,1,4,0:0:0:0:
140,198,38044,1,6,0:0:0:0:
300,156,38378,1,0,0:0:0:0:
300,156,38711,1,8,0:0:0:0:
300,156,39044,1,0,0:0:0:0:
300,156,39378,1,8,0:0:0:0:
300,156,39711,1,0,0:0:0:0:
300,156,40044,1,0,0:0:0:0:
300,156,40211,1,0,0:0:0:0:
300,156,41044,1,0,0:0:0:0:
300,156,41378,1,8,0:0:0:0:
300,156,41711,1,0,0:0:0:0:
300,156,42044,1,8,0:0:0:0:
300,156,42378,1,0,0:0:0:0:
300,156,42711,1,8,0:0:0:0:
300,156,42878,1,8,0:0:0:0:
215,204,43711,1,0,0:0:0:0:
215,204,44044,1,8,0:0:0:0:
215,204,44378,1,0,0:0:0:0:
215,204,44711,1,8,0:0:0:0:
215,204,45044,1,0,0:0:0:0:
215,204,45378,1,0,0:0:0:0:
215,204,45544,1,0,0:0:0:0:
215,204,46378,1,0,0:0:0:0:
215,204,46711,1,8,0:0:0:0:
215,204,47044,1,0,0:0:0:0:
215,204,47378,1,8,0:0:0:0:
215,204,47711,1,0,0:0:0:0:
148,134,48044,1,8,0:0:0:0:
206,185,48211,1,8,0:0:0:0:
168,144,48711,1,6,0:0:0:0:
232,163,49044,1,4,0:0:0:0:
232,163,49378,1,4,0:0:0:0:
232,163,49711,1,4,0:0:0:0:
98,165,50378,1,0,0:0:0:0:
98,165,50711,1,8,0:0:0:0:
98,165,51044,1,0,0:0:0:0:
98,165,51211,1,0,0:0:0:0:
98,165,51378,1,0,0:0:0:0:
98,165,51711,1,0,0:0:0:0:
98,165,52044,1,8,0:0:0:0:
98,165,52378,1,0,0:0:0:0:
98,165,52711,1,8,0:0:0:0:
98,165,53044,1,0,0:0:0:0:
98,165,53711,1,8,0:0:0:0:
102,176,54378,1,4,0:0:0:0:
102,176,55044,1,6,0:0:0:0:
102,176,55711,1,4,0:0:0:0:
102,176,56378,1,6,0:0:0:0:
102,182,57044,1,0,0:0:0:0:
194,136,57378,1,8,0:0:0:0:
194,136,57711,1,0,0:0:0:0:
194,136,58044,1,8,0:0:0:0:
201,144,58211,1,8,0:0:0:0:
197,170,58544,1,8,0:0:0:0:
197,170,58711,1,8,0:0:0:0:
216,176,59044,1,0,0:0:0:0:
216,176,59211,1,0,0:0:0:0:
232,163,59711,1,4,0:0:0:0:
232,163,60045,1,4,0:0:0:0:
232,163,60378,1,4,0:0:0:0:
98,165,61045,1,8,0:0:0:0:
98,165,61378,1,0,0:0:0:0:
98,165,61711,1,8,0:0:0:0:
98,165,61878,1,8,0:0:0:0:
98,165,62045,1,8,0:0:0:0:
98,165,62378,1,0,0:0:0:0:
98,165,62711,1,8,0:0:0:0:
98,165,63045,1,0,0:0:0:0:
98,165,63378,1,8,0:0:0:0:
98,165,63711,1,0,0:0:0:0:
98,165,64378,1,8,0:0:0:0:
102,176,65045,1,4,0:0:0:0:
102,176,65711,1,6,0:0:0:0:
102,176,66378,1,4,0:0:0:0:
102,176,67045,1,6,0:0:0:0:
102,182,67711,1,0,0:0:0:0:
194,136,68045,1,8,0:0:0:0:
194,136,68378,1,0,0:0:0:0:
286,173,68711,1,0,0:0:0:0:
286,173,68878,1,0,0:0:0:0:
197,170,69211,1,8,0:0:0:0:
197,170,69378,1,8,0:0:0:0:
216,176,69711,1,0,0:0:0:0:
216,176,69878,1,0,0:0:0:0:
122,159,70378,1,0,0:0:0:0:
122,159,70711,1,8,0:0:0:0:
70,190,70878,1,8,0:0:0:0:
70,190,71044,1,8,0:0:0:0:
122,159,71378,1,8,0:0:0:0:
96,178,71544,1,8,0:0:0:0:
122,159,72044,1,6,0:0:0:0:
256,192,73044,12,4,77711,0:0:0:0:
188,229,78378,5,4,0:0:0:0:
224,173,78711,1,8,0:0:0:0:
232,117,79378,1,8,0:0:0:0:
232,117,79711,1,0,0:0:0:0:
143,203,80044,1,0,0:0:0:0:
143,203,80211,1,0,0:0:0:0:
143,203,80544,1,8,0:0:0:0:
232,117,80711,1,8,0:0:0:0:
232,117,81044,1,0,0:0:0:0:
271,180,81378,1,8,0:0:0:0:
271,180,82044,1,8,0:0:0:0:
213,181,82711,1,8,0:0:0:0:
213,181,83044,1,0,0:0:0:0:
213,181,83378,1,4,0:0:0:0:
213,181,84044,1,8,0:0:0:0:
213,181,84378,1,0,0:0:0:0:
213,181,84711,1,4,0:0:0:0:
225,187,85378,1,8,0:0:0:0:
225,187,85711,1,8,0:0:0:0:
225,187,86044,1,6,0:0:0:0:
256,192,86378,12,0,91711,0:0:0:0:
