osu file format v14

[General]
AudioFilename: audio.mp3
AudioLeadIn: 0
PreviewTime: 61322
Countdown: 0
SampleSet: None
StackLeniency: 0.7
Mode: 3
LetterboxInBreaks: 0
SpecialStyle: 1
WidescreenStoryboard: 0

[Editor]
DistanceSpacing: 1
BeatDivisor: 4
GridSize: 8
TimelineZoom: 1.6

[Metadata]
Title:Boku no kimochi wo egaku
TitleUnicode:僕の気持ちを描く
Artist:Mr.T feat.NU-KO
ArtistUnicode:Mr.T feat.NU-KO
Creator:qodtjr
Version:st3 [sc125]
Source:pop'n music éclale
Tags:
BeatmapID:4537978
BeatmapSetID:2153639

[Difficulty]
HPDrainRate:7
CircleSize:8
OverallDifficulty:6
ApproachRate:5
SliderMultiplier:1.4
SliderTickRate:1

[Events]
//Background and Video events
0,0,"bg.jpg",0,0
//Break Periods
//Storyboard Layer 0 (Background)
//Storyboard Layer 1 (Fail)
//Storyboard Layer 2 (Pass)
//Storyboard Layer 3 (Foreground)
//Storyboard Layer 4 (Overlay)
//Storyboard Sound Samples

[TimingPoints]
617,352.941176470588,4,2,0,0,1,0

[HitObjects]
352,192,617,5,0,0:0:0:0:
352,192,705,1,0,0:0:0:0:
96,192,793,1,0,0:0:0:0:
224,192,881,1,0,0:0:0:0:
352,192,969,1,0,0:0:0:0:
352,192,1058,1,0,0:0:0:0:
96,192,1146,1,0,0:0:0:0:
224,192,1234,1,0,0:0:0:0:
352,192,1322,1,0,0:0:0:0:
352,192,1411,1,0,0:0:0:0:
288,192,1499,1,0,0:0:0:0:
96,192,1499,1,0,0:0:0:0:
224,192,1543,1,0,0:0:0:0:
96,192,1587,1,0,0:0:0:0:
288,192,1587,1,0,0:0:0:0:
352,192,1675,1,0,0:0:0:0:
480,192,1675,1,0,0:0:0:0:
352,192,1764,1,0,0:0:0:0:
480,192,1764,1,0,0:0:0:0:
224,192,1852,1,0,0:0:0:0:
160,192,1852,1,0,0:0:0:0:
160,192,1940,1,0,0:0:0:0:
224,192,1940,1,0,0:0:0:0:
352,192,2028,1,0,0:0:0:0:
416,192,2028,1,0,0:0:0:0:
32,192,2028,1,0,0:0:0:0:
224,192,2205,1,0,0:0:0:0:
352,192,2381,1,0,0:0:0:0:
224,192,2558,1,0,0:0:0:0:
352,192,2734,1,0,0:0:0:0:
352,192,2911,1,0,0:0:0:0:
32,192,2911,1,0,0:0:0:0:
288,192,3087,1,0,0:0:0:0:
32,192,3264,1,0,0:0:0:0:
224,192,3264,1,0,0:0:0:0:
352,192,3793,1,0,0:0:0:0:
416,192,3969,1,0,0:0:0:0:
224,192,3969,1,0,0:0:0:0:
96,192,4014,1,0,0:0:0:0:
288,192,4058,1,0,0:0:0:0:
160,192,4102,1,0,0:0:0:0:
352,192,4146,1,0,0:0:0:0:
480,192,4146,1,0,0:0:0:0:
288,192,4234,1,0,0:0:0:0:
224,192,4234,1,0,0:0:0:0:
32,192,4322,1,0,0:0:0:0:
416,192,4322,1,0,0:0:0:0:
352,192,4322,1,0,0:0:0:0:
160,192,4411,1,0,0:0:0:0:
224,192,4411,1,0,0:0:0:0:
352,192,4499,1,0,0:0:0:0:
480,192,4499,1,0,0:0:0:0:
96,192,4675,1,0,0:0:0:0:
160,192,4764,1,0,0:0:0:0:
32,192,4852,1,0,0:0:0:0:
96,192,4852,1,0,0:0:0:0:
288,192,4852,1,0,0:0:0:0:
416,192,4852,1,0,0:0:0:0:
224,192,5028,1,0,0:0:0:0:
416,192,5205,1,0,0:0:0:0:
96,192,5381,1,0,0:0:0:0:
160,192,5469,1,0,0:0:0:0:
32,192,5558,1,0,0:0:0:0:
96,192,5558,1,0,0:0:0:0:
288,192,5558,1,0,0:0:0:0:
416,192,5558,1,0,0:0:0:0:
160,192,5911,1,0,0:0:0:0:
32,192,5911,1,0,0:0:0:0:
352,192,5911,1,0,0:0:0:0:
480,192,5911,1,0,0:0:0:0:
32,192,6087,1,0,0:0:0:0:
288,192,6087,1,0,0:0:0:0:
416,192,6087,1,0,0:0:0:0:
160,192,6087,1,0,0:0:0:0:
352,192,6440,1,0,0:0:0:0:
480,192,6484,1,0,0:0:0:0:
288,192,6528,1,0,0:0:0:0:
416,192,6572,1,0,0:0:0:0:
32,192,6616,1,0,0:0:0:0:
224,192,6616,1,0,0:0:0:0:
352,192,6616,1,0,0:0:0:0:
160,192,6705,1,0,0:0:0:0:
96,192,6705,1,0,0:0:0:0:
288,192,6793,1,0,0:0:0:0:
480,192,6793,1,0,0:0:0:0:
224,192,6881,1,0,0:0:0:0:
160,192,6881,1,0,0:0:0:0:
32,192,6969,1,0,0:0:0:0:
352,192,6969,1,0,0:0:0:0:
416,192,6969,1,0,0:0:0:0:
288,192,7058,1,0,0:0:0:0:
224,192,7058,1,0,0:0:0:0:
160,192,7146,1,0,0:0:0:0:
480,192,7146,1,0,0:0:0:0:
416,192,7234,1,0,0:0:0:0:
352,192,7234,1,0,0:0:0:0:
288,192,7322,1,0,0:0:0:0:
96,192,7322,1,0,0:0:0:0:
224,192,7322,1,0,0:0:0:0:
224,192,7499,1,0,0:0:0:0:
32,192,7675,1,0,0:0:0:0:
160,192,7675,1,0,0:0:0:0:
288,192,7675,1,0,0:0:0:0:
480,192,7675,1,0,0:0:0:0:
416,192,7675,1,0,0:0:0:0:
96,192,7675,1,0,0:0:0:0:
352,192,7852,1,0,0:0:0:0:
224,192,7852,1,0,0:0:0:0:
96,192,8028,1,0,0:0:0:0:
416,192,8028,1,0,0:0:0:0:
480,192,8028,1,0,0:0:0:0:
352,192,8205,1,0,0:0:0:0:
224,192,8205,1,0,0:0:0:0:
160,192,8381,1,0,0:0:0:0:
416,192,8381,1,0,0:0:0:0:
480,192,8381,1,0,0:0:0:0:
416,192,8558,1,0,0:0:0:0:
480,192,8558,1,0,0:0:0:0:
96,192,8734,1,0,0:0:0:0:
416,192,8734,1,0,0:0:0:0:
288,192,8734,1,0,0:0:0:0:
352,192,8911,1,0,0:0:0:0:
224,192,8911,1,0,0:0:0:0:
160,192,9087,1,0,0:0:0:0:
96,192,9440,1,0,0:0:0:0:
288,192,9440,1,0,0:0:0:0:
416,192,9440,1,0,0:0:0:0:
352,192,9616,1,0,0:0:0:0:
480,192,9616,1,0,0:0:0:0:
96,192,9793,1,0,0:0:0:0:
416,192,9969,1,0,0:0:0:0:
224,192,9969,1,0,0:0:0:0:
160,192,10146,1,0,0:0:0:0:
352,192,10322,1,0,0:0:0:0:
480,192,10322,1,0,0:0:0:0:
32,192,10499,1,0,0:0:0:0:
224,192,10499,1,0,0:0:0:0:
288,192,10499,1,0,0:0:0:0:
96,192,10499,1,0,0:0:0:0:
32,192,10675,1,0,0:0:0:0:
224,192,10675,1,0,0:0:0:0:
288,192,10675,1,0,0:0:0:0:
96,192,10675,1,0,0:0:0:0:
32,192,10852,1,0,0:0:0:0:
352,192,10852,1,0,0:0:0:0:
224,192,10852,1,0,0:0:0:0:
96,192,10852,1,0,0:0:0:0:
32,192,11028,1,0,0:0:0:0:
224,192,11028,1,0,0:0:0:0:
352,192,11028,1,0,0:0:0:0:
96,192,11028,1,0,0:0:0:0:
32,192,11205,1,0,0:0:0:0:
416,192,11205,1,0,0:0:0:0:
288,192,11205,1,0,0:0:0:0:
160,192,11205,1,0,0:0:0:0:
32,192,11381,1,0,0:0:0:0:
416,192,11381,1,0,0:0:0:0:
288,192,11381,1,0,0:0:0:0:
160,192,11381,1,0,0:0:0:0:
32,192,11558,1,0,0:0:0:0:
416,192,11558,1,0,0:0:0:0:
352,192,11558,1,0,0:0:0:0:
160,192,11558,1,0,0:0:0:0:
32,192,11734,1,0,0:0:0:0:
352,192,11734,1,0,0:0:0:0:
416,192,11734,1,0,0:0:0:0:
224,192,11734,1,0,0:0:0:0:
160,192,11734,1,0,0:0:0:0:
288,192,12087,1,0,0:0:0:0:
160,192,12087,1,0,0:0:0:0:
352,192,12264,1,0,0:0:0:0:
480,192,12264,1,0,0:0:0:0:
288,192,12352,1,0,0:0:0:0:
224,192,12352,1,0,0:0:0:0:
416,192,12440,1,0,0:0:0:0:
480,192,12440,1,0,0:0:0:0:
160,192,12440,1,0,0:0:0:0:
96,192,12440,1,0,0:0:0:0:
32,192,12440,1,0,0:0:0:0:
160,192,12616,1,0,0:0:0:0:
96,192,12616,1,0,0:0:0:0:
32,192,12616,1,0,0:0:0:0:
416,192,12616,1,0,0:0:0:0:
480,192,12616,1,0,0:0:0:0:
288,192,12969,1,0,0:0:0:0:
160,192,12969,1,0,0:0:0:0:
32,192,12969,1,0,0:0:0:0:
224,192,12969,1,0,0:0:0:0:
480,192,12969,1,0,0:0:0:0:
416,192,12969,1,0,0:0:0:0:
288,192,13322,1,0,0:0:0:0:
96,192,13322,1,0,0:0:0:0:
32,192,13322,1,0,0:0:0:0:
480,192,13322,1,0,0:0:0:0:
352,192,13499,1,0,0:0:0:0:
416,192,13587,1,0,0:0:0:0:
480,192,13675,1,0,0:0:0:0:
224,192,13675,1,0,0:0:0:0:
32,192,13675,1,0,0:0:0:0:
352,192,13852,1,0,0:0:0:0:
416,192,13940,1,0,0:0:0:0:
480,192,14028,1,0,0:0:0:0:
224,192,14028,1,0,0:0:0:0:
32,192,14028,1,0,0:0:0:0:
352,192,14205,1,0,0:0:0:0:
416,192,14293,1,0,0:0:0:0:
480,192,14381,1,0,0:0:0:0:
224,192,14381,1,0,0:0:0:0:
32,192,14381,1,0,0:0:0:0:
352,192,14558,1,0,0:0:0:0:
416,192,14646,1,0,0:0:0:0:
32,192,14734,1,0,0:0:0:0:
480,192,14734,1,0,0:0:0:0:
224,192,14734,1,0,0:0:0:0:
352,192,14911,1,0,0:0:0:0:
416,192,14999,1,0,0:0:0:0:
480,192,15087,1,0,0:0:0:0:
224,192,15087,1,0,0:0:0:0:
32,192,15087,1,0,0:0:0:0:
352,192,15264,1,0,0:0:0:0:
416,192,15352,1,0,0:0:0:0:
480,192,15440,1,0,0:0:0:0:
224,192,15440,1,0,0:0:0:0:
32,192,15440,1,0,0:0:0:0:
352,192,15616,1,0,0:0:0:0:
416,192,15705,1,0,0:0:0:0:
480,192,15793,1,0,0:0:0:0:
224,192,15793,1,0,0:0:0:0:
32,192,15793,1,0,0:0:0:0:
352,192,15969,1,0,0:0:0:0:
416,192,16058,1,0,0:0:0:0:
32,192,16146,1,0,0:0:0:0:
480,192,16146,1,0,0:0:0:0:
224,192,16146,1,0,0:0:0:0:
352,192,16322,1,0,0:0:0:0:
288,192,16411,1,0,0:0:0:0:
160,192,16499,1,0,0:0:0:0:
32,192,16499,1,0,0:0:0:0:
416,192,16499,1,0,0:0:0:0:
352,192,16675,1,0,0:0:0:0:
288,192,16764,1,0,0:0:0:0:
32,192,16852,1,0,0:0:0:0:
160,192,16852,1,0,0:0:0:0:
416,192,16852,1,0,0:0:0:0:
352,192,17028,1,0,0:0:0:0:
288,192,17116,1,0,0:0:0:0:
160,192,17205,1,0,0:0:0:0:
32,192,17205,1,0,0:0:0:0:
416,192,17205,1,0,0:0:0:0:
352,192,17381,1,0,0:0:0:0:
288,192,17469,1,0,0:0:0:0:
160,192,17558,1,0,0:0:0:0:
32,192,17558,1,0,0:0:0:0:
416,192,17558,1,0,0:0:0:0:
352,192,17734,1,0,0:0:0:0:
288,192,17822,1,0,0:0:0:0:
160,192,17911,1,0,0:0:0:0:
32,192,17911,1,0,0:0:0:0:
416,192,17911,1,0,0:0:0:0:
352,192,18087,1,0,0:0:0:0:
288,192,18175,1,0,0:0:0:0:
160,192,18264,1,0,0:0:0:0:
32,192,18264,1,0,0:0:0:0:
416,192,18264,1,0,0:0:0:0:
352,192,18440,1,0,0:0:0:0:
288,192,18528,1,0,0:0:0:0:
160,192,18616,1,0,0:0:0:0:
32,192,18616,1,0,0:0:0:0:
416,192,18616,1,0,0:0:0:0:
352,192,18793,1,0,0:0:0:0:
288,192,18881,1,0,0:0:0:0:
160,192,18969,1,0,0:0:0:0:
32,192,18969,1,0,0:0:0:0:
416,192,18969,1,0,0:0:0:0:
224,192,19146,1,0,0:0:0:0:
352,192,19234,1,0,0:0:0:0:
480,192,19322,1,0,0:0:0:0:
32,192,19322,1,0,0:0:0:0:
96,192,19322,1,0,0:0:0:0:
224,192,19499,1,0,0:0:0:0:
352,192,19587,1,0,0:0:0:0:
480,192,19675,1,0,0:0:0:0:
32,192,19675,1,0,0:0:0:0:
96,192,19675,1,0,0:0:0:0:
224,192,19852,1,0,0:0:0:0:
352,192,19940,1,0,0:0:0:0:
480,192,20028,1,0,0:0:0:0:
32,192,20028,1,0,0:0:0:0:
96,192,20028,1,0,0:0:0:0:
224,192,20205,1,0,0:0:0:0:
352,192,20293,1,0,0:0:0:0:
480,192,20381,1,0,0:0:0:0:
32,192,20381,1,0,0:0:0:0:
96,192,20381,1,0,0:0:0:0:
224,192,20558,1,0,0:0:0:0:
352,192,20646,1,0,0:0:0:0:
480,192,20734,1,0,0:0:0:0:
32,192,20734,1,0,0:0:0:0:
96,192,20734,1,0,0:0:0:0:
224,192,20911,1,0,0:0:0:0:
352,192,20999,1,0,0:0:0:0:
480,192,21087,1,0,0:0:0:0:
32,192,21087,1,0,0:0:0:0:
96,192,21087,1,0,0:0:0:0:
224,192,21264,1,0,0:0:0:0:
352,192,21352,1,0,0:0:0:0:
480,192,21440,1,0,0:0:0:0:
32,192,21440,1,0,0:0:0:0:
96,192,21440,1,0,0:0:0:0:
224,192,21616,1,0,0:0:0:0:
352,192,21705,1,0,0:0:0:0:
32,192,21793,1,0,0:0:0:0:
416,192,21793,1,0,0:0:0:0:
160,192,21793,1,0,0:0:0:0:
288,192,21881,1,0,0:0:0:0:
352,192,21881,1,0,0:0:0:0:
96,192,21969,1,0,0:0:0:0:
480,192,21969,1,0,0:0:0:0:
288,192,22058,1,0,0:0:0:0:
224,192,22058,1,0,0:0:0:0:
416,192,22146,1,0,0:0:0:0:
480,192,22146,1,0,0:0:0:0:
224,192,22234,1,0,0:0:0:0:
160,192,22234,1,0,0:0:0:0:
352,192,22322,1,0,0:0:0:0:
416,192,22322,1,0,0:0:0:0:
160,192,22411,1,0,0:0:0:0:
96,192,22411,1,0,0:0:0:0:
288,192,22499,1,0,0:0:0:0:
352,192,22499,1,0,0:0:0:0:
96,192,22587,1,0,0:0:0:0:
480,192,22587,1,0,0:0:0:0:
288,192,22675,1,0,0:0:0:0:
224,192,22675,1,0,0:0:0:0:
416,192,22764,1,0,0:0:0:0:
480,192,22764,1,0,0:0:0:0:
224,192,22852,1,0,0:0:0:0:
160,192,22852,1,0,0:0:0:0:
352,192,22940,1,0,0:0:0:0:
416,192,22940,1,0,0:0:0:0:
160,192,23028,1,0,0:0:0:0:
96,192,23028,1,0,0:0:0:0:
352,192,23116,1,0,0:0:0:0:
288,192,23116,1,0,0:0:0:0:
224,192,23205,1,0,0:0:0:0:
160,192,23205,1,0,0:0:0:0:
352,192,23293,1,0,0:0:0:0:
416,192,23293,1,0,0:0:0:0:
224,192,23381,1,0,0:0:0:0:
160,192,23381,1,0,0:0:0:0:
352,192,23469,1,0,0:0:0:0:
416,192,23469,1,0,0:0:0:0:
224,192,23558,1,0,0:0:0:0:
160,192,23558,1,0,0:0:0:0:
352,192,23646,1,0,0:0:0:0:
416,192,23646,1,0,0:0:0:0:
224,192,23734,1,0,0:0:0:0:
160,192,23734,1,0,0:0:0:0:
96,192,23734,1,0,0:0:0:0:
352,192,23822,1,0,0:0:0:0:
416,192,23822,1,0,0:0:0:0:
288,192,23822,1,0,0:0:0:0:
224,192,23911,1,0,0:0:0:0:
160,192,23911,1,0,0:0:0:0:
96,192,23911,1,0,0:0:0:0:
352,192,23999,1,0,0:0:0:0:
416,192,23999,1,0,0:0:0:0:
480,192,23999,1,0,0:0:0:0:
288,192,24087,1,0,0:0:0:0:
224,192,24087,1,0,0:0:0:0:
160,192,24087,1,0,0:0:0:0:
96,192,24087,1,0,0:0:0:0:
352,192,24175,1,0,0:0:0:0:
224,192,24264,1,0,0:0:0:0:
160,192,24264,1,0,0:0:0:0:
288,192,24264,1,0,0:0:0:0:
352,192,24352,1,0,0:0:0:0:
416,192,24352,1,0,0:0:0:0:
480,192,24352,1,0,0:0:0:0:
224,192,24440,1,0,0:0:0:0:
160,192,24440,1,0,0:0:0:0:
96,192,24440,1,0,0:0:0:0:
352,192,24528,1,0,0:0:0:0:
416,192,24528,1,0,0:0:0:0:
480,192,24528,1,0,0:0:0:0:
224,192,24616,1,0,0:0:0:0:
96,192,24616,1,0,0:0:0:0:
160,192,24616,1,0,0:0:0:0:
288,192,24616,1,0,0:0:0:0:
32,192,24616,1,0,0:0:0:0:
352,192,24705,1,0,0:0:0:0:
224,192,24793,1,0,0:0:0:0:
416,192,24881,1,0,0:0:0:0:
288,192,24969,1,0,0:0:0:0:
96,192,24969,1,0,0:0:0:0:
160,192,24969,1,0,0:0:0:0:
32,192,24969,1,0,0:0:0:0:
480,192,25058,1,0,0:0:0:0:
96,192,25146,1,0,0:0:0:0:
288,192,25234,1,0,0:0:0:0:
160,192,25322,1,0,0:0:0:0:
224,192,25322,1,0,0:0:0:0:
416,192,25411,1,0,0:0:0:0:
224,192,25499,1,0,0:0:0:0:
352,192,25587,1,0,0:0:0:0:
160,192,25675,1,0,0:0:0:0:
288,192,25675,1,0,0:0:0:0:
96,192,25675,1,0,0:0:0:0:
32,192,25675,1,0,0:0:0:0:
352,192,25764,1,0,0:0:0:0:
224,192,25852,1,0,0:0:0:0:
416,192,25940,1,0,0:0:0:0:
96,192,26028,1,0,0:0:0:0:
288,192,26028,1,0,0:0:0:0:
352,192,26116,1,0,0:0:0:0:
224,192,26205,1,0,0:0:0:0:
416,192,26293,1,0,0:0:0:0:
160,192,26381,1,0,0:0:0:0:
288,192,26381,1,0,0:0:0:0:
96,192,26381,1,0,0:0:0:0:
32,192,26381,1,0,0:0:0:0:
352,192,26469,1,0,0:0:0:0:
160,192,26558,1,0,0:0:0:0:
480,192,26646,1,0,0:0:0:0:
96,192,26734,1,0,0:0:0:0:
224,192,26734,1,0,0:0:0:0:
352,192,26822,1,0,0:0:0:0:
224,192,26911,1,0,0:0:0:0:
416,192,26999,1,0,0:0:0:0:
288,192,27087,1,0,0:0:0:0:
160,192,27087,1,0,0:0:0:0:
96,192,27087,1,0,0:0:0:0:
32,192,27087,1,0,0:0:0:0:
480,192,27175,1,0,0:0:0:0:
224,192,27264,1,0,0:0:0:0:
352,192,27352,1,0,0:0:0:0:
160,192,27440,1,0,0:0:0:0:
288,192,27440,1,0,0:0:0:0:
480,192,27528,1,0,0:0:0:0:
224,192,27616,1,0,0:0:0:0:
416,192,27705,1,0,0:0:0:0:
96,192,27793,1,0,0:0:0:0:
288,192,27793,1,0,0:0:0:0:
160,192,27793,1,0,0:0:0:0:
32,192,27793,1,0,0:0:0:0:
352,192,27881,1,0,0:0:0:0:
224,192,27969,1,0,0:0:0:0:
416,192,28058,1,0,0:0:0:0:
96,192,28146,1,0,0:0:0:0:
288,192,28146,1,0,0:0:0:0:
352,192,28234,1,0,0:0:0:0:
160,192,28322,1,0,0:0:0:0:
288,192,28411,1,0,0:0:0:0:
96,192,28499,1,0,0:0:0:0:
224,192,28499,1,0,0:0:0:0:
32,192,28499,1,0,0:0:0:0:
480,192,28587,1,0,0:0:0:0:
224,192,28675,1,0,0:0:0:0:
352,192,28764,1,0,0:0:0:0:
288,192,28852,1,0,0:0:0:0:
160,192,28852,1,0,0:0:0:0:
96,192,28852,1,0,0:0:0:0:
416,192,28940,1,0,0:0:0:0:
224,192,29028,1,0,0:0:0:0:
480,192,29116,1,0,0:0:0:0:
224,192,29205,1,0,0:0:0:0:
288,192,29205,1,0,0:0:0:0:
96,192,29205,1,0,0:0:0:0:
32,192,29205,1,0,0:0:0:0:
416,192,29293,1,0,0:0:0:0:
160,192,29381,1,0,0:0:0:0:
288,192,29469,1,0,0:0:0:0:
224,192,29558,1,0,0:0:0:0:
96,192,29558,1,0,0:0:0:0:
416,192,29646,1,0,0:0:0:0:
160,192,29734,1,0,0:0:0:0:
352,192,29822,1,0,0:0:0:0:
224,192,29911,1,0,0:0:0:0:
96,192,29911,1,0,0:0:0:0:
160,192,29911,1,0,0:0:0:0:
32,192,29911,1,0,0:0:0:0:
480,192,29999,1,0,0:0:0:0:
288,192,29999,1,0,0:0:0:0:
160,192,30087,1,0,0:0:0:0:
288,192,30175,1,0,0:0:0:0:
96,192,30264,1,0,0:0:0:0:
160,192,30264,1,0,0:0:0:0:
416,192,30352,1,0,0:0:0:0:
224,192,30440,1,0,0:0:0:0:
480,192,30528,1,0,0:0:0:0:
288,192,30616,1,0,0:0:0:0:
96,192,30616,1,0,0:0:0:0:
352,192,30616,1,0,0:0:0:0:
32,192,30616,1,0,0:0:0:0:
416,192,30705,1,0,0:0:0:0:
224,192,30793,1,0,0:0:0:0:
352,192,30881,1,0,0:0:0:0:
160,192,30969,1,0,0:0:0:0:
224,192,30969,1,0,0:0:0:0:
480,192,31058,1,0,0:0:0:0:
288,192,31146,1,0,0:0:0:0:
416,192,31234,1,0,0:0:0:0:
96,192,31322,1,0,0:0:0:0:
224,192,31322,1,0,0:0:0:0:
160,192,31322,1,0,0:0:0:0:
32,192,31322,1,0,0:0:0:0:
352,192,31411,1,0,0:0:0:0:
160,192,31499,1,0,0:0:0:0:
416,192,31587,1,0,0:0:0:0:
96,192,31675,1,0,0:0:0:0:
288,192,31675,1,0,0:0:0:0:
480,192,31764,1,0,0:0:0:0:
224,192,31852,1,0,0:0:0:0:
416,192,31940,5,0,0:0:0:0:
288,192,32028,1,0,0:0:0:0:
160,192,32028,1,0,0:0:0:0:
352,192,32028,1,0,0:0:0:0:
32,192,32028,1,0,0:0:0:0:
480,192,32116,1,0,0:0:0:0:
96,192,32205,1,0,0:0:0:0:
352,192,32293,1,0,0:0:0:0:
160,192,32381,1,0,0:0:0:0:
96,192,32381,1,0,0:0:0:0:
416,192,32469,1,0,0:0:0:0:
224,192,32558,1,0,0:0:0:0:
480,192,32646,1,0,0:0:0:0:
160,192,32734,1,0,0:0:0:0:
96,192,32734,1,0,0:0:0:0:
288,192,32734,1,0,0:0:0:0:
32,192,32734,1,0,0:0:0:0:
352,192,32822,1,0,0:0:0:0:
224,192,32911,1,0,0:0:0:0:
416,192,32999,1,0,0:0:0:0:
288,192,33087,5,0,0:0:0:0:
352,192,33087,1,0,0:0:0:0:
480,192,33087,1,0,0:0:0:0:
96,192,33087,1,0,0:0:0:0:
224,192,33175,1,0,0:0:0:0:
416,192,33264,1,0,0:0:0:0:
480,192,33264,1,0,0:0:0:0:
352,192,33264,1,0,0:0:0:0:
160,192,33264,1,0,0:0:0:0:
224,192,33352,1,0,0:0:0:0:
416,192,33440,1,0,0:0:0:0:
352,192,33440,1,0,0:0:0:0:
288,192,33440,1,0,0:0:0:0:
96,192,33440,1,0,0:0:0:0:
160,192,33528,1,0,0:0:0:0:
288,192,33616,1,0,0:0:0:0:
416,192,33616,1,0,0:0:0:0:
480,192,33616,1,0,0:0:0:0:
96,192,33616,1,0,0:0:0:0:
224,192,33705,1,0,0:0:0:0:
416,192,33793,1,0,0:0:0:0:
352,192,33793,1,0,0:0:0:0:
288,192,33793,1,0,0:0:0:0:
96,192,33793,1,0,0:0:0:0:
160,192,33881,1,0,0:0:0:0:
352,192,33969,1,0,0:0:0:0:
416,192,33969,1,0,0:0:0:0:
480,192,33969,1,0,0:0:0:0:
224,192,33969,1,0,0:0:0:0:
160,192,34058,1,0,0:0:0:0:
352,192,34146,1,0,0:0:0:0:
288,192,34146,1,0,0:0:0:0:
480,192,34146,1,0,0:0:0:0:
96,192,34146,1,0,0:0:0:0:
224,192,34234,1,0,0:0:0:0:
352,192,34322,1,0,0:0:0:0:
480,192,34322,1,0,0:0:0:0:
416,192,34322,1,0,0:0:0:0:
160,192,34322,1,0,0:0:0:0:
96,192,34411,1,0,0:0:0:0:
416,192,34499,1,0,0:0:0:0:
352,192,34499,1,0,0:0:0:0:
288,192,34499,1,0,0:0:0:0:
224,192,34499,1,0,0:0:0:0:
96,192,34587,1,0,0:0:0:0:
288,192,34675,1,0,0:0:0:0:
416,192,34675,1,0,0:0:0:0:
480,192,34675,1,0,0:0:0:0:
224,192,34675,1,0,0:0:0:0:
160,192,34764,1,0,0:0:0:0:
352,192,34852,1,0,0:0:0:0:
288,192,34852,1,0,0:0:0:0:
480,192,34852,1,0,0:0:0:0:
96,192,34852,1,0,0:0:0:0:
224,192,34940,1,0,0:0:0:0:
416,192,35028,1,0,0:0:0:0:
352,192,35028,1,0,0:0:0:0:
288,192,35028,1,0,0:0:0:0:
96,192,35028,1,0,0:0:0:0:
160,192,35116,1,0,0:0:0:0:
480,192,35205,1,0,0:0:0:0:
32,192,35205,1,0,0:0:0:0:
224,192,35205,1,0,0:0:0:0:
352,192,35205,1,0,0:0:0:0:
416,192,35205,1,0,0:0:0:0:
288,192,35293,1,0,0:0:0:0:
32,192,35381,1,0,0:0:0:0:
160,192,35381,1,0,0:0:0:0:
416,192,35381,1,0,0:0:0:0:
480,192,35381,1,0,0:0:0:0:
224,192,35381,1,0,0:0:0:0:
352,192,35469,1,0,0:0:0:0:
32,192,35558,1,0,0:0:0:0:
288,192,35558,1,0,0:0:0:0:
160,192,35558,1,0,0:0:0:0:
480,192,35558,1,0,0:0:0:0:
96,192,35558,1,0,0:0:0:0:
224,192,35646,1,0,0:0:0:0:
160,192,35734,1,0,0:0:0:0:
352,192,35734,1,0,0:0:0:0:
288,192,35822,1,0,0:0:0:0:
32,192,35911,1,0,0:0:0:0:
224,192,35911,1,0,0:0:0:0:
96,192,35911,1,0,0:0:0:0:
416,192,35911,1,0,0:0:0:0:
480,192,35911,1,0,0:0:0:0:
352,192,35999,1,0,0:0:0:0:
160,192,35999,1,0,0:0:0:0:
288,192,36087,1,0,0:0:0:0:
96,192,36087,1,0,0:0:0:0:
224,192,36175,1,0,0:0:0:0:
416,192,36175,1,0,0:0:0:0:
352,192,36264,1,0,0:0:0:0:
480,192,36264,1,0,0:0:0:0:
96,192,36264,1,0,0:0:0:0:
160,192,36352,1,0,0:0:0:0:
288,192,36352,1,0,0:0:0:0:
224,192,36440,1,0,0:0:0:0:
416,192,36440,1,0,0:0:0:0:
96,192,36440,1,0,0:0:0:0:
352,192,36528,1,0,0:0:0:0:
160,192,36528,1,0,0:0:0:0:
288,192,36616,1,0,0:0:0:0:
480,192,36616,1,0,0:0:0:0:
416,192,36616,1,0,0:0:0:0:
352,192,36705,1,0,0:0:0:0:
224,192,36705,1,0,0:0:0:0:
288,192,36793,1,0,0:0:0:0:
160,192,36793,1,0,0:0:0:0:
480,192,36793,1,0,0:0:0:0:
416,192,36881,1,0,0:0:0:0:
224,192,36881,1,0,0:0:0:0:
352,192,36969,1,0,0:0:0:0:
480,192,36969,1,0,0:0:0:0:
96,192,36969,1,0,0:0:0:0:
160,192,37058,1,0,0:0:0:0:
288,192,37058,1,0,0:0:0:0:
224,192,37146,1,0,0:0:0:0:
416,192,37146,1,0,0:0:0:0:
96,192,37146,1,0,0:0:0:0:
288,192,37234,1,0,0:0:0:0:
480,192,37234,1,0,0:0:0:0:
352,192,37322,1,0,0:0:0:0:
160,192,37322,1,0,0:0:0:0:
96,192,37322,1,0,0:0:0:0:
224,192,37411,1,0,0:0:0:0:
416,192,37411,1,0,0:0:0:0:
288,192,37499,1,0,0:0:0:0:
160,192,37499,1,0,0:0:0:0:
480,192,37499,1,0,0:0:0:0:
352,192,37587,1,0,0:0:0:0:
224,192,37587,1,0,0:0:0:0:
288,192,37675,1,0,0:0:0:0:
416,192,37675,1,0,0:0:0:0:
96,192,37675,1,0,0:0:0:0:
352,192,37764,1,0,0:0:0:0:
160,192,37764,1,0,0:0:0:0:
224,192,37852,1,0,0:0:0:0:
96,192,37852,1,0,0:0:0:0:
480,192,37852,1,0,0:0:0:0:
416,192,37940,1,0,0:0:0:0:
288,192,37940,1,0,0:0:0:0:
352,192,38028,1,0,0:0:0:0:
480,192,38028,1,0,0:0:0:0:
160,192,38028,1,0,0:0:0:0:
32,192,38028,1,0,0:0:0:0:
288,192,38116,1,0,0:0:0:0:
96,192,38116,1,0,0:0:0:0:
224,192,38205,1,0,0:0:0:0:
416,192,38205,1,0,0:0:0:0:
352,192,38205,1,0,0:0:0:0:
288,192,38293,1,0,0:0:0:0:
160,192,38293,1,0,0:0:0:0:
224,192,38381,1,0,0:0:0:0:
96,192,38381,1,0,0:0:0:0:
416,192,38381,1,0,0:0:0:0:
480,192,38381,1,0,0:0:0:0:
32,192,38381,1,0,0:0:0:0:
352,192,38469,1,0,0:0:0:0:
160,192,38469,1,0,0:0:0:0:
288,192,38558,1,0,0:0:0:0:
96,192,38558,1,0,0:0:0:0:
224,192,38646,1,0,0:0:0:0:
416,192,38646,1,0,0:0:0:0:
32,192,38734,1,0,0:0:0:0:
352,192,38734,1,0,0:0:0:0:
160,192,38734,1,0,0:0:0:0:
96,192,38734,1,0,0:0:0:0:
416,192,38822,1,0,0:0:0:0:
288,192,38822,1,0,0:0:0:0:
352,192,38911,1,0,0:0:0:0:
160,192,38911,1,0,0:0:0:0:
480,192,38911,1,0,0:0:0:0:
416,192,38999,1,0,0:0:0:0:
224,192,38999,1,0,0:0:0:0:
288,192,39087,1,0,0:0:0:0:
480,192,39087,1,0,0:0:0:0:
96,192,39087,1,0,0:0:0:0:
160,192,39175,1,0,0:0:0:0:
352,192,39175,1,0,0:0:0:0:
96,192,39264,1,0,0:0:0:0:
224,192,39264,1,0,0:0:0:0:
416,192,39264,1,0,0:0:0:0:
288,192,39352,1,0,0:0:0:0:
480,192,39352,1,0,0:0:0:0:
352,192,39440,1,0,0:0:0:0:
160,192,39440,1,0,0:0:0:0:
416,192,39440,1,0,0:0:0:0:
288,192,39528,1,0,0:0:0:0:
96,192,39528,1,0,0:0:0:0:
480,192,39616,1,0,0:0:0:0:
416,192,39616,1,0,0:0:0:0:
224,192,39616,1,0,0:0:0:0:
352,192,39705,1,0,0:0:0:0:
160,192,39705,1,0,0:0:0:0:
288,192,39793,1,0,0:0:0:0:
96,192,39793,1,0,0:0:0:0:
416,192,39793,1,0,0:0:0:0:
352,192,39881,1,0,0:0:0:0:
224,192,39881,1,0,0:0:0:0:
288,192,39969,1,0,0:0:0:0:
160,192,39969,1,0,0:0:0:0:
480,192,39969,1,0,0:0:0:0:
416,192,40058,1,0,0:0:0:0:
96,192,40058,1,0,0:0:0:0:
352,192,40146,1,0,0:0:0:0:
224,192,40146,1,0,0:0:0:0:
480,192,40146,1,0,0:0:0:0:
288,192,40234,1,0,0:0:0:0:
96,192,40234,1,0,0:0:0:0:
160,192,40322,1,0,0:0:0:0:
352,192,40322,1,0,0:0:0:0:
480,192,40322,1,0,0:0:0:0:
416,192,40411,1,0,0:0:0:0:
224,192,40411,1,0,0:0:0:0:
288,192,40499,1,0,0:0:0:0:
96,192,40499,1,0,0:0:0:0:
480,192,40499,1,0,0:0:0:0:
352,192,40587,1,0,0:0:0:0:
160,192,40587,1,0,0:0:0:0:
224,192,40675,1,0,0:0:0:0:
96,192,40675,1,0,0:0:0:0:
480,192,40675,1,0,0:0:0:0:
288,192,40764,1,0,0:0:0:0:
160,192,40764,1,0,0:0:0:0:
224,192,40852,1,0,0:0:0:0:
96,192,40852,1,0,0:0:0:0:
480,192,40852,1,0,0:0:0:0:
416,192,40852,1,0,0:0:0:0:
352,192,40940,1,0,0:0:0:0:
288,192,40940,1,0,0:0:0:0:
416,192,41028,1,0,0:0:0:0:
480,192,41028,1,0,0:0:0:0:
160,192,41028,1,0,0:0:0:0:
96,192,41028,1,0,0:0:0:0:
224,192,41116,1,0,0:0:0:0:
288,192,41116,1,0,0:0:0:0:
96,192,41205,1,0,0:0:0:0:
352,192,41205,1,0,0:0:0:0:
416,192,41205,1,0,0:0:0:0:
480,192,41205,1,0,0:0:0:0:
160,192,41293,1,0,0:0:0:0:
224,192,41293,1,0,0:0:0:0:
288,192,41381,1,0,0:0:0:0:
352,192,41381,1,0,0:0:0:0:
416,192,41381,1,0,0:0:0:0:
480,192,41381,1,0,0:0:0:0:
96,192,41469,1,0,0:0:0:0:
160,192,41469,1,0,0:0:0:0:
32,192,41558,1,0,0:0:0:0:
416,192,41558,1,0,0:0:0:0:
352,192,41558,1,0,0:0:0:0:
480,192,41558,1,0,0:0:0:0:
224,192,41558,1,0,0:0:0:0:
288,192,41646,1,0,0:0:0:0:
96,192,41646,1,0,0:0:0:0:
160,192,41734,1,0,0:0:0:0:
416,192,41734,1,0,0:0:0:0:
352,192,41822,1,0,0:0:0:0:
224,192,41822,1,0,0:0:0:0:
288,192,41911,1,0,0:0:0:0:
160,192,41911,1,0,0:0:0:0:
96,192,41911,1,0,0:0:0:0:
416,192,41911,1,0,0:0:0:0:
480,192,41911,1,0,0:0:0:0:
352,192,41999,1,0,0:0:0:0:
224,192,41999,1,0,0:0:0:0:
160,192,42087,1,0,0:0:0:0:
480,192,42087,1,0,0:0:0:0:
416,192,42175,1,0,0:0:0:0:
288,192,42175,1,0,0:0:0:0:
352,192,42264,1,0,0:0:0:0:
480,192,42264,1,0,0:0:0:0:
96,192,42264,1,0,0:0:0:0:
224,192,42264,1,0,0:0:0:0:
160,192,42264,1,0,0:0:0:0:
288,192,42352,1,0,0:0:0:0:
416,192,42352,1,0,0:0:0:0:
352,192,42440,1,0,0:0:0:0:
160,192,42440,1,0,0:0:0:0:
224,192,42528,1,0,0:0:0:0:
96,192,42528,1,0,0:0:0:0:
160,192,42616,1,0,0:0:0:0:
288,192,42616,1,0,0:0:0:0:
416,192,42616,1,0,0:0:0:0:
480,192,42616,1,0,0:0:0:0:
352,192,42616,1,0,0:0:0:0:
224,192,42705,1,0,0:0:0:0:
96,192,42705,1,0,0:0:0:0:
160,192,42793,1,0,0:0:0:0:
416,192,42793,1,0,0:0:0:0:
352,192,42881,1,0,0:0:0:0:
288,192,42881,1,0,0:0:0:0:
224,192,42969,1,0,0:0:0:0:
160,192,42969,1,0,0:0:0:0:
96,192,42969,1,0,0:0:0:0:
416,192,42969,1,0,0:0:0:0:
480,192,42969,1,0,0:0:0:0:
352,192,43058,1,0,0:0:0:0:
288,192,43058,1,0,0:0:0:0:
416,192,43146,1,0,0:0:0:0:
160,192,43146,1,0,0:0:0:0:
224,192,43234,1,0,0:0:0:0:
480,192,43234,1,0,0:0:0:0:
288,192,43322,1,0,0:0:0:0:
352,192,43322,1,0,0:0:0:0:
416,192,43322,1,0,0:0:0:0:
160,192,43322,1,0,0:0:0:0:
96,192,43322,1,0,0:0:0:0:
224,192,43411,1,0,0:0:0:0:
480,192,43411,1,0,0:0:0:0:
352,192,43499,1,0,0:0:0:0:
96,192,43499,1,0,0:0:0:0:
160,192,43587,1,0,0:0:0:0:
416,192,43587,1,0,0:0:0:0:
224,192,43675,1,0,0:0:0:0:
96,192,43675,1,0,0:0:0:0:
288,192,43675,1,0,0:0:0:0:
352,192,43675,1,0,0:0:0:0:
480,192,43675,1,0,0:0:0:0:
416,192,43764,1,0,0:0:0:0:
160,192,43764,1,0,0:0:0:0:
288,192,43852,1,0,0:0:0:0:
352,192,43852,1,0,0:0:0:0:
224,192,43940,1,0,0:0:0:0:
480,192,43940,1,0,0:0:0:0:
416,192,44028,1,0,0:0:0:0:
160,192,44028,1,0,0:0:0:0:
96,192,44028,1,0,0:0:0:0:
352,192,44028,1,0,0:0:0:0:
288,192,44028,1,0,0:0:0:0:
480,192,44116,1,0,0:0:0:0:
224,192,44116,1,0,0:0:0:0:
160,192,44205,1,0,0:0:0:0:
352,192,44205,1,0,0:0:0:0:
288,192,44293,1,0,0:0:0:0:
96,192,44293,1,0,0:0:0:0:
32,192,44381,1,0,0:0:0:0:
224,192,44381,1,0,0:0:0:0:
416,192,44381,1,0,0:0:0:0:
480,192,44381,1,0,0:0:0:0:
352,192,44381,1,0,0:0:0:0:
160,192,44469,1,0,0:0:0:0:
96,192,44469,1,0,0:0:0:0:
288,192,44558,1,0,0:0:0:0:
352,192,44558,1,0,0:0:0:0:
416,192,44558,1,0,0:0:0:0:
224,192,44646,1,0,0:0:0:0:
160,192,44646,1,0,0:0:0:0:
96,192,44734,1,0,0:0:0:0:
352,192,44734,1,0,0:0:0:0:
416,192,44734,1,0,0:0:0:0:
288,192,44822,1,0,0:0:0:0:
224,192,44822,1,0,0:0:0:0:
160,192,44911,1,0,0:0:0:0:
480,192,44911,1,0,0:0:0:0:
416,192,44911,1,0,0:0:0:0:
352,192,44999,1,0,0:0:0:0:
288,192,44999,1,0,0:0:0:0:
224,192,45087,1,0,0:0:0:0:
160,192,45087,1,0,0:0:0:0:
96,192,45087,1,0,0:0:0:0:
416,192,45175,1,0,0:0:0:0:
352,192,45175,1,0,0:0:0:0:
288,192,45264,1,0,0:0:0:0:
224,192,45264,1,0,0:0:0:0:
160,192,45264,1,0,0:0:0:0:
96,192,45352,1,0,0:0:0:0:
480,192,45352,1,0,0:0:0:0:
352,192,45440,1,0,0:0:0:0:
288,192,45440,1,0,0:0:0:0:
224,192,45440,1,0,0:0:0:0:
160,192,45528,1,0,0:0:0:0:
96,192,45528,1,0,0:0:0:0:
288,192,45616,1,0,0:0:0:0:
352,192,45616,1,0,0:0:0:0:
416,192,45616,1,0,0:0:0:0:
224,192,45705,1,0,0:0:0:0:
160,192,45705,1,0,0:0:0:0:
352,192,45793,1,0,0:0:0:0:
416,192,45793,1,0,0:0:0:0:
480,192,45793,1,0,0:0:0:0:
288,192,45881,1,0,0:0:0:0:
224,192,45881,1,0,0:0:0:0:
480,192,45969,1,0,0:0:0:0:
416,192,45969,1,0,0:0:0:0:
96,192,45969,1,0,0:0:0:0:
352,192,46058,1,0,0:0:0:0:
288,192,46058,1,0,0:0:0:0:
224,192,46146,1,0,0:0:0:0:
160,192,46146,1,0,0:0:0:0:
96,192,46146,1,0,0:0:0:0:
416,192,46234,1,0,0:0:0:0:
352,192,46234,1,0,0:0:0:0:
224,192,46322,1,0,0:0:0:0:
160,192,46322,1,0,0:0:0:0:
288,192,46322,1,0,0:0:0:0:
416,192,46411,1,0,0:0:0:0:
480,192,46411,1,0,0:0:0:0:
96,192,46411,1,0,0:0:0:0:
288,192,46499,1,0,0:0:0:0:
224,192,46499,1,0,0:0:0:0:
352,192,46499,1,0,0:0:0:0:
160,192,46587,1,0,0:0:0:0:
96,192,46587,1,0,0:0:0:0:
480,192,46587,1,0,0:0:0:0:
416,192,46675,1,0,0:0:0:0:
352,192,46675,1,0,0:0:0:0:
288,192,46675,1,0,0:0:0:0:
224,192,46764,1,0,0:0:0:0:
160,192,46764,1,0,0:0:0:0:
480,192,46764,1,0,0:0:0:0:
416,192,46852,1,0,0:0:0:0:
352,192,46852,1,0,0:0:0:0:
96,192,46852,1,0,0:0:0:0:
288,192,46940,1,0,0:0:0:0:
224,192,46940,1,0,0:0:0:0:
160,192,46940,1,0,0:0:0:0:
352,192,47028,1,0,0:0:0:0:
416,192,47028,1,0,0:0:0:0:
480,192,47028,1,0,0:0:0:0:
224,192,47116,1,0,0:0:0:0:
160,192,47116,1,0,0:0:0:0:
96,192,47116,1,0,0:0:0:0:
288,192,47205,1,0,0:0:0:0:
32,192,47205,1,0,0:0:0:0:
352,192,47205,1,0,0:0:0:0:
480,192,47205,1,0,0:0:0:0:
416,192,47205,1,0,0:0:0:0:
32,192,47381,1,0,0:0:0:0:
224,192,47381,1,0,0:0:0:0:
288,192,47381,1,0,0:0:0:0:
352,192,47381,1,0,0:0:0:0:
416,192,47381,1,0,0:0:0:0:
32,192,47558,1,0,0:0:0:0:
352,192,47558,1,0,0:0:0:0:
288,192,47558,1,0,0:0:0:0:
224,192,47558,1,0,0:0:0:0:
160,192,47558,1,0,0:0:0:0:
32,192,47734,1,0,0:0:0:0:
224,192,47734,1,0,0:0:0:0:
160,192,47734,1,0,0:0:0:0:
96,192,47734,1,0,0:0:0:0:
288,192,47734,1,0,0:0:0:0:
32,192,47911,1,0,0:0:0:0:
480,192,47911,1,0,0:0:0:0:
416,192,47911,1,0,0:0:0:0:
288,192,47911,1,0,0:0:0:0:
352,192,47911,1,0,0:0:0:0:
32,192,48087,1,0,0:0:0:0:
352,192,48087,1,0,0:0:0:0:
288,192,48087,1,0,0:0:0:0:
224,192,48087,1,0,0:0:0:0:
416,192,48087,1,0,0:0:0:0:
32,192,48264,1,0,0:0:0:0:
352,192,48264,1,0,0:0:0:0:
288,192,48264,1,0,0:0:0:0:
224,192,48264,1,0,0:0:0:0:
160,192,48264,1,0,0:0:0:0:
32,192,48440,1,0,0:0:0:0:
288,192,48440,1,0,0:0:0:0:
224,192,48440,1,0,0:0:0:0:
160,192,48440,1,0,0:0:0:0:
96,192,48440,1,0,0:0:0:0:
32,192,48616,1,0,0:0:0:0:
224,192,48616,1,0,0:0:0:0:
160,192,48616,1,0,0:0:0:0:
96,192,48616,1,0,0:0:0:0:
352,192,48616,1,0,0:0:0:0:
416,192,48616,1,0,0:0:0:0:
480,192,48616,1,0,0:0:0:0:
288,192,48793,1,0,0:0:0:0:
288,192,48881,1,0,0:0:0:0:
160,192,48969,1,0,0:0:0:0:
416,192,48969,1,0,0:0:0:0:
288,192,49146,1,0,0:0:0:0:
224,192,49322,1,0,0:0:0:0:
160,192,49322,1,0,0:0:0:0:
96,192,49322,1,0,0:0:0:0:
352,192,49322,1,0,0:0:0:0:
480,192,49322,1,0,0:0:0:0:
416,192,49322,1,0,0:0:0:0:
32,192,49322,1,0,0:0:0:0:
288,192,49675,1,0,0:0:0:0:
224,192,49675,1,0,0:0:0:0:
160,192,49675,1,0,0:0:0:0:
352,192,49675,1,0,0:0:0:0:
416,192,49675,1,0,0:0:0:0:
480,192,49675,1,0,0:0:0:0:
96,192,49675,1,0,0:0:0:0:
32,192,49675,1,0,0:0:0:0:
96,192,50028,1,0,0:0:0:0:
32,192,50028,1,0,0:0:0:0:
480,192,50028,1,0,0:0:0:0:
224,192,50028,1,0,0:0:0:0:
352,192,50116,1,0,0:0:0:0:
416,192,50116,1,0,0:0:0:0:
288,192,50116,1,0,0:0:0:0:
160,192,50205,1,0,0:0:0:0:
96,192,50205,1,0,0:0:0:0:
480,192,50205,1,0,0:0:0:0:
416,192,50293,1,0,0:0:0:0:
352,192,50293,1,0,0:0:0:0:
288,192,50293,1,0,0:0:0:0:
480,192,50381,1,0,0:0:0:0:
224,192,50381,1,0,0:0:0:0:
96,192,50381,1,0,0:0:0:0:
288,192,50469,1,0,0:0:0:0:
352,192,50469,1,0,0:0:0:0:
416,192,50469,1,0,0:0:0:0:
480,192,50558,1,0,0:0:0:0:
160,192,50558,1,0,0:0:0:0:
96,192,50558,1,0,0:0:0:0:
288,192,50646,1,0,0:0:0:0:
352,192,50646,1,0,0:0:0:0:
416,192,50646,1,0,0:0:0:0:
480,192,50734,1,0,0:0:0:0:
224,192,50734,1,0,0:0:0:0:
96,192,50734,1,0,0:0:0:0:
160,192,50822,1,0,0:0:0:0:
352,192,50822,1,0,0:0:0:0:
416,192,50822,1,0,0:0:0:0:
288,192,50911,1,0,0:0:0:0:
96,192,50911,1,0,0:0:0:0:
480,192,50911,1,0,0:0:0:0:
416,192,50999,1,0,0:0:0:0:
352,192,50999,1,0,0:0:0:0:
224,192,50999,1,0,0:0:0:0:
288,192,51087,1,0,0:0:0:0:
160,192,51087,1,0,0:0:0:0:
96,192,51087,1,0,0:0:0:0:
224,192,51175,1,0,0:0:0:0:
352,192,51175,1,0,0:0:0:0:
480,192,51175,1,0,0:0:0:0:
416,192,51264,1,0,0:0:0:0:
288,192,51264,1,0,0:0:0:0:
96,192,51264,1,0,0:0:0:0:
160,192,51352,1,0,0:0:0:0:
352,192,51352,1,0,0:0:0:0:
480,192,51352,1,0,0:0:0:0:
416,192,51440,1,0,0:0:0:0:
288,192,51440,1,0,0:0:0:0:
96,192,51440,1,0,0:0:0:0:
224,192,51528,1,0,0:0:0:0:
352,192,51528,1,0,0:0:0:0:
480,192,51528,1,0,0:0:0:0:
288,192,51616,1,0,0:0:0:0:
160,192,51616,1,0,0:0:0:0:
416,192,51616,1,0,0:0:0:0:
352,192,51705,1,0,0:0:0:0:
224,192,51705,1,0,0:0:0:0:
96,192,51705,1,0,0:0:0:0:
288,192,51793,1,0,0:0:0:0:
160,192,51793,1,0,0:0:0:0:
480,192,51793,1,0,0:0:0:0:
416,192,51881,1,0,0:0:0:0:
352,192,51881,1,0,0:0:0:0:
224,192,51881,1,0,0:0:0:0:
288,192,51969,1,0,0:0:0:0:
160,192,51969,1,0,0:0:0:0:
480,192,51969,1,0,0:0:0:0:
224,192,52058,1,0,0:0:0:0:
352,192,52058,1,0,0:0:0:0:
96,192,52058,1,0,0:0:0:0:
32,192,52146,1,0,0:0:0:0:
288,192,52146,1,0,0:0:0:0:
480,192,52146,1,0,0:0:0:0:
416,192,52234,1,0,0:0:0:0:
160,192,52234,1,0,0:0:0:0:
352,192,52234,1,0,0:0:0:0:
288,192,52322,1,0,0:0:0:0:
96,192,52322,1,0,0:0:0:0:
480,192,52322,1,0,0:0:0:0:
224,192,52411,1,0,0:0:0:0:
416,192,52411,1,0,0:0:0:0:
352,192,52411,1,0,0:0:0:0:
32,192,52499,1,0,0:0:0:0:
160,192,52499,1,0,0:0:0:0:
288,192,52499,1,0,0:0:0:0:
480,192,52499,1,0,0:0:0:0:
416,192,52587,1,0,0:0:0:0:
224,192,52587,1,0,0:0:0:0:
96,192,52587,1,0,0:0:0:0:
288,192,52675,1,0,0:0:0:0:
160,192,52675,1,0,0:0:0:0:
352,192,52675,1,0,0:0:0:0:
224,192,52764,1,0,0:0:0:0:
416,192,52764,1,0,0:0:0:0:
480,192,52764,1,0,0:0:0:0:
32,192,52852,1,0,0:0:0:0:
288,192,52852,1,0,0:0:0:0:
160,192,52852,1,0,0:0:0:0:
96,192,52852,1,0,0:0:0:0:
224,192,52940,1,0,0:0:0:0:
352,192,52940,1,0,0:0:0:0:
480,192,52940,1,0,0:0:0:0:
288,192,53028,1,0,0:0:0:0:
160,192,53028,1,0,0:0:0:0:
96,192,53028,1,0,0:0:0:0:
224,192,53116,1,0,0:0:0:0:
416,192,53116,1,0,0:0:0:0:
480,192,53116,1,0,0:0:0:0:
160,192,53205,1,0,0:0:0:0:
96,192,53205,1,0,0:0:0:0:
288,192,53205,1,0,0:0:0:0:
224,192,53293,1,0,0:0:0:0:
352,192,53293,1,0,0:0:0:0:
480,192,53293,1,0,0:0:0:0:
288,192,53381,1,0,0:0:0:0:
160,192,53381,1,0,0:0:0:0:
96,192,53381,1,0,0:0:0:0:
224,192,53469,1,0,0:0:0:0:
416,192,53469,1,0,0:0:0:0:
480,192,53469,1,0,0:0:0:0:
32,192,53558,1,0,0:0:0:0:
352,192,53558,1,0,0:0:0:0:
160,192,53558,1,0,0:0:0:0:
288,192,53558,1,0,0:0:0:0:
224,192,53646,1,0,0:0:0:0:
96,192,53646,1,0,0:0:0:0:
480,192,53734,1,0,0:0:0:0:
160,192,53734,1,0,0:0:0:0:
352,192,53734,1,0,0:0:0:0:
416,192,53822,1,0,0:0:0:0:
288,192,53822,1,0,0:0:0:0:
96,192,53822,1,0,0:0:0:0:
224,192,53911,1,0,0:0:0:0:
480,192,53911,1,0,0:0:0:0:
352,192,53911,1,0,0:0:0:0:
416,192,53999,1,0,0:0:0:0:
288,192,53999,1,0,0:0:0:0:
160,192,53999,1,0,0:0:0:0:
224,192,54087,1,0,0:0:0:0:
96,192,54087,1,0,0:0:0:0:
352,192,54087,1,0,0:0:0:0:
288,192,54175,1,0,0:0:0:0:
160,192,54175,1,0,0:0:0:0:
480,192,54175,1,0,0:0:0:0:
32,192,54264,1,0,0:0:0:0:
416,192,54264,1,0,0:0:0:0:
352,192,54264,1,0,0:0:0:0:
224,192,54264,1,0,0:0:0:0:
288,192,54352,1,0,0:0:0:0:
96,192,54352,1,0,0:0:0:0:
480,192,54352,1,0,0:0:0:0:
160,192,54440,1,0,0:0:0:0:
352,192,54440,1,0,0:0:0:0:
416,192,54440,1,0,0:0:0:0:
224,192,54528,1,0,0:0:0:0:
96,192,54528,1,0,0:0:0:0:
480,192,54528,1,0,0:0:0:0:
288,192,54616,1,0,0:0:0:0:
352,192,54616,1,0,0:0:0:0:
416,192,54616,1,0,0:0:0:0:
224,192,54705,1,0,0:0:0:0:
96,192,54705,1,0,0:0:0:0:
480,192,54705,1,0,0:0:0:0:
416,192,54793,1,0,0:0:0:0:
352,192,54793,1,0,0:0:0:0:
288,192,54793,1,0,0:0:0:0:
96,192,54881,1,0,0:0:0:0:
160,192,54881,1,0,0:0:0:0:
480,192,54881,1,0,0:0:0:0:
32,192,54969,1,0,0:0:0:0:
224,192,54969,1,0,0:0:0:0:
352,192,54969,1,0,0:0:0:0:
416,192,54969,1,0,0:0:0:0:
288,192,55058,1,0,0:0:0:0:
160,192,55058,1,0,0:0:0:0:
480,192,55058,1,0,0:0:0:0:
224,192,55146,1,0,0:0:0:0:
352,192,55146,1,0,0:0:0:0:
96,192,55146,1,0,0:0:0:0:
288,192,55234,1,0,0:0:0:0:
160,192,55234,1,0,0:0:0:0:
416,192,55234,1,0,0:0:0:0:
480,192,55322,1,0,0:0:0:0:
224,192,55322,1,0,0:0:0:0:
352,192,55322,1,0,0:0:0:0:
288,192,55411,1,0,0:0:0:0:
96,192,55411,1,0,0:0:0:0:
416,192,55411,1,0,0:0:0:0:
352,192,55499,1,0,0:0:0:0:
160,192,55499,1,0,0:0:0:0:
224,192,55499,1,0,0:0:0:0:
288,192,55587,1,0,0:0:0:0:
416,192,55587,1,0,0:0:0:0:
480,192,55587,1,0,0:0:0:0:
32,192,55675,1,0,0:0:0:0:
352,192,55675,1,0,0:0:0:0:
160,192,55675,1,0,0:0:0:0:
96,192,55675,1,0,0:0:0:0:
224,192,55764,1,0,0:0:0:0:
480,192,55764,1,0,0:0:0:0:
416,192,55764,1,0,0:0:0:0:
352,192,55852,1,0,0:0:0:0:
160,192,55852,1,0,0:0:0:0:
96,192,55852,1,0,0:0:0:0:
288,192,55940,1,0,0:0:0:0:
416,192,55940,1,0,0:0:0:0:
480,192,55940,1,0,0:0:0:0:
352,192,56028,1,0,0:0:0:0:
160,192,56028,1,0,0:0:0:0:
96,192,56028,1,0,0:0:0:0:
224,192,56116,1,0,0:0:0:0:
416,192,56116,1,0,0:0:0:0:
480,192,56116,1,0,0:0:0:0:
352,192,56205,1,0,0:0:0:0:
160,192,56205,1,0,0:0:0:0:
96,192,56205,1,0,0:0:0:0:
288,192,56293,1,0,0:0:0:0:
416,192,56293,1,0,0:0:0:0:
480,192,56293,1,0,0:0:0:0:
352,192,56381,1,0,0:0:0:0:
224,192,56381,1,0,0:0:0:0:
96,192,56381,1,0,0:0:0:0:
160,192,56469,1,0,0:0:0:0:
480,192,56469,1,0,0:0:0:0:
416,192,56469,1,0,0:0:0:0:
352,192,56558,1,0,0:0:0:0:
288,192,56558,1,0,0:0:0:0:
96,192,56558,1,0,0:0:0:0:
224,192,56646,1,0,0:0:0:0:
480,192,56646,1,0,0:0:0:0:
416,192,56646,1,0,0:0:0:0:
352,192,56734,1,0,0:0:0:0:
160,192,56734,1,0,0:0:0:0:
96,192,56734,1,0,0:0:0:0:
288,192,56822,1,0,0:0:0:0:
416,192,56822,1,0,0:0:0:0:
224,192,56822,1,0,0:0:0:0:
352,192,56911,1,0,0:0:0:0:
160,192,56911,1,0,0:0:0:0:
480,192,56911,1,0,0:0:0:0:
288,192,56999,1,0,0:0:0:0:
96,192,56999,1,0,0:0:0:0:
416,192,56999,1,0,0:0:0:0:
352,192,57087,1,0,0:0:0:0:
224,192,57087,1,0,0:0:0:0:
288,192,57175,1,0,0:0:0:0:
96,192,57175,1,0,0:0:0:0:
480,192,57175,1,0,0:0:0:0:
416,192,57264,1,0,0:0:0:0:
352,192,57264,1,0,0:0:0:0:
160,192,57264,1,0,0:0:0:0:
224,192,57352,1,0,0:0:0:0:
288,192,57352,1,0,0:0:0:0:
480,192,57352,1,0,0:0:0:0:
352,192,57440,1,0,0:0:0:0:
160,192,57440,1,0,0:0:0:0:
96,192,57440,1,0,0:0:0:0:
224,192,57528,1,0,0:0:0:0:
416,192,57528,1,0,0:0:0:0:
480,192,57528,1,0,0:0:0:0:
96,192,57616,1,0,0:0:0:0:
352,192,57616,1,0,0:0:0:0:
160,192,57616,1,0,0:0:0:0:
288,192,57705,1,0,0:0:0:0:
480,192,57705,1,0,0:0:0:0:
416,192,57705,1,0,0:0:0:0:
352,192,57793,1,0,0:0:0:0:
224,192,57793,1,0,0:0:0:0:
96,192,57793,1,0,0:0:0:0:
160,192,57881,1,0,0:0:0:0:
288,192,57881,1,0,0:0:0:0:
480,192,57881,1,0,0:0:0:0:
416,192,57969,1,0,0:0:0:0:
352,192,57969,1,0,0:0:0:0:
224,192,57969,1,0,0:0:0:0:
288,192,58058,1,0,0:0:0:0:
160,192,58058,1,0,0:0:0:0:
96,192,58058,1,0,0:0:0:0:
224,192,58146,1,0,0:0:0:0:
416,192,58146,1,0,0:0:0:0:
480,192,58146,1,0,0:0:0:0:
352,192,58234,1,0,0:0:0:0:
160,192,58234,1,0,0:0:0:0:
288,192,58234,1,0,0:0:0:0:
96,192,58322,1,0,0:0:0:0:
224,192,58322,1,0,0:0:0:0:
416,192,58322,1,0,0:0:0:0:
352,192,58411,1,0,0:0:0:0:
160,192,58411,1,0,0:0:0:0:
480,192,58411,1,0,0:0:0:0:
288,192,58499,5,0,0:0:0:0:
32,192,58499,1,0,0:0:0:0:
416,192,58499,1,0,0:0:0:0:
96,192,58499,1,0,0:0:0:0:
224,192,58587,1,0,0:0:0:0:
96,192,58675,1,0,0:0:0:0:
352,192,58675,1,0,0:0:0:0:
416,192,58675,1,0,0:0:0:0:
224,192,58764,1,0,0:0:0:0:
96,192,58852,1,0,0:0:0:0:
352,192,58852,1,0,0:0:0:0:
480,192,58852,1,0,0:0:0:0:
224,192,58940,1,0,0:0:0:0:
96,192,59028,1,0,0:0:0:0:
416,192,59028,1,0,0:0:0:0:
480,192,59028,1,0,0:0:0:0:
224,192,59116,1,0,0:0:0:0:
96,192,59205,1,0,0:0:0:0:
480,192,59205,1,0,0:0:0:0:
288,192,59205,1,0,0:0:0:0:
224,192,59293,1,0,0:0:0:0:
96,192,59381,1,0,0:0:0:0:
352,192,59381,1,0,0:0:0:0:
416,192,59381,1,0,0:0:0:0:
224,192,59469,1,0,0:0:0:0:
96,192,59558,1,0,0:0:0:0:
416,192,59558,1,0,0:0:0:0:
480,192,59558,1,0,0:0:0:0:
224,192,59646,1,0,0:0:0:0:
96,192,59734,1,0,0:0:0:0:
480,192,59734,1,0,0:0:0:0:
352,192,59734,1,0,0:0:0:0:
224,192,59822,1,0,0:0:0:0:
288,192,59911,1,0,0:0:0:0:
32,192,59911,1,0,0:0:0:0:
96,192,59911,1,0,0:0:0:0:
480,192,59911,1,0,0:0:0:0:
352,192,59969,1,0,0:0:0:0:
160,192,59969,1,0,0:0:0:0:
224,192,60028,1,0,0:0:0:0:
416,192,60028,1,0,0:0:0:0:
288,192,60087,1,0,0:0:0:0:
480,192,60087,1,0,0:0:0:0:
352,192,60146,1,0,0:0:0:0:
160,192,60146,1,0,0:0:0:0:
224,192,60205,1,0,0:0:0:0:
416,192,60205,1,0,0:0:0:0:
96,192,60264,1,0,0:0:0:0:
288,192,60264,1,0,0:0:0:0:
352,192,60352,1,0,0:0:0:0:
480,192,60352,1,0,0:0:0:0:
416,192,60352,1,0,0:0:0:0:
224,192,60440,1,0,0:0:0:0:
96,192,60440,1,0,0:0:0:0:
160,192,60440,1,0,0:0:0:0:
352,192,60528,1,0,0:0:0:0:
480,192,60528,1,0,0:0:0:0:
416,192,60528,1,0,0:0:0:0:
32,192,60616,1,0,0:0:0:0:
224,192,60616,1,0,0:0:0:0:
288,192,60616,1,0,0:0:0:0:
160,192,60616,1,0,0:0:0:0:
96,192,60616,1,0,0:0:0:0:
32,192,60969,1,0,0:0:0:0:
224,192,60969,1,0,0:0:0:0:
288,192,60969,1,0,0:0:0:0:
416,192,60969,1,0,0:0:0:0:
480,192,60969,1,0,0:0:0:0:
352,192,60969,1,0,0:0:0:0:
160,192,60969,1,0,0:0:0:0:
32,192,61322,1,0,0:0:0:0:
96,192,61322,1,0,0:0:0:0:
480,192,61322,1,0,0:0:0:0:
416,192,61322,1,0,0:0:0:0:
288,192,61411,1,0,0:0:0:0:
224,192,61411,1,0,0:0:0:0:
352,192,61411,1,0,0:0:0:0:
96,192,61499,1,0,0:0:0:0:
416,192,61499,1,0,0:0:0:0:
480,192,61499,1,0,0:0:0:0:
352,192,61587,1,0,0:0:0:0:
288,192,61587,1,0,0:0:0:0:
224,192,61587,1,0,0:0:0:0:
96,192,61675,1,0,0:0:0:0:
160,192,61675,1,0,0:0:0:0:
480,192,61675,1,0,0:0:0:0:
416,192,61764,1,0,0:0:0:0:
352,192,61764,1,0,0:0:0:0:
288,192,61764,1,0,0:0:0:0:
160,192,61852,1,0,0:0:0:0:
96,192,61852,1,0,0:0:0:0:
480,192,61852,1,0,0:0:0:0:
416,192,61940,1,0,0:0:0:0:
288,192,61940,1,0,0:0:0:0:
352,192,61940,1,0,0:0:0:0:
480,192,62028,1,0,0:0:0:0:
224,192,62028,1,0,0:0:0:0:
96,192,62028,1,0,0:0:0:0:
160,192,62116,1,0,0:0:0:0:
288,192,62116,1,0,0:0:0:0:
416,192,62116,1,0,0:0:0:0:
352,192,62205,1,0,0:0:0:0:
224,192,62205,1,0,0:0:0:0:
480,192,62205,1,0,0:0:0:0:
416,192,62293,1,0,0:0:0:0:
160,192,62293,1,0,0:0:0:0:
288,192,62293,1,0,0:0:0:0:
224,192,62381,1,0,0:0:0:0:
96,192,62381,1,0,0:0:0:0:
480,192,62381,1,0,0:0:0:0:
416,192,62469,1,0,0:0:0:0:
352,192,62469,1,0,0:0:0:0:
160,192,62469,1,0,0:0:0:0:
288,192,62558,1,0,0:0:0:0:
96,192,62558,1,0,0:0:0:0:
480,192,62558,1,0,0:0:0:0:
416,192,62646,1,0,0:0:0:0:
224,192,62646,1,0,0:0:0:0:
352,192,62646,1,0,0:0:0:0:
288,192,62734,1,0,0:0:0:0:
160,192,62734,1,0,0:0:0:0:
96,192,62734,1,0,0:0:0:0:
224,192,62822,1,0,0:0:0:0:
352,192,62822,1,0,0:0:0:0:
480,192,62822,1,0,0:0:0:0:
416,192,62911,1,0,0:0:0:0:
288,192,62911,1,0,0:0:0:0:
96,192,62911,1,0,0:0:0:0:
160,192,62999,1,0,0:0:0:0:
352,192,62999,1,0,0:0:0:0:
480,192,62999,1,0,0:0:0:0:
224,192,63087,1,0,0:0:0:0:
96,192,63087,1,0,0:0:0:0:
416,192,63087,1,0,0:0:0:0:
288,192,63087,1,0,0:0:0:0:
352,192,63175,1,0,0:0:0:0:
480,192,63175,1,0,0:0:0:0:
160,192,63175,1,0,0:0:0:0:
288,192,63264,1,0,0:0:0:0:
224,192,63264,1,0,0:0:0:0:
96,192,63264,1,0,0:0:0:0:
416,192,63264,1,0,0:0:0:0:
352,192,63352,1,0,0:0:0:0:
160,192,63352,1,0,0:0:0:0:
480,192,63352,1,0,0:0:0:0:
32,192,63440,1,0,0:0:0:0:
416,192,63440,1,0,0:0:0:0:
288,192,63440,1,0,0:0:0:0:
96,192,63440,1,0,0:0:0:0:
224,192,63528,1,0,0:0:0:0:
352,192,63528,1,0,0:0:0:0:
160,192,63528,1,0,0:0:0:0:
288,192,63616,1,0,0:0:0:0:
416,192,63616,1,0,0:0:0:0:
480,192,63616,1,0,0:0:0:0:
352,192,63705,1,0,0:0:0:0:
160,192,63705,1,0,0:0:0:0:
96,192,63705,1,0,0:0:0:0:
32,192,63793,1,0,0:0:0:0:
224,192,63793,1,0,0:0:0:0:
416,192,63793,1,0,0:0:0:0:
480,192,63793,1,0,0:0:0:0:
352,192,63881,1,0,0:0:0:0:
288,192,63881,1,0,0:0:0:0:
160,192,63881,1,0,0:0:0:0:
224,192,63969,1,0,0:0:0:0:
480,192,63969,1,0,0:0:0:0:
416,192,63969,1,0,0:0:0:0:
352,192,64058,1,0,0:0:0:0:
160,192,64058,1,0,0:0:0:0:
96,192,64058,1,0,0:0:0:0:
32,192,64146,1,0,0:0:0:0:
288,192,64146,1,0,0:0:0:0:
480,192,64146,1,0,0:0:0:0:
416,192,64146,1,0,0:0:0:0:
224,192,64234,1,0,0:0:0:0:
160,192,64234,1,0,0:0:0:0:
96,192,64234,1,0,0:0:0:0:
416,192,64322,1,0,0:0:0:0:
480,192,64322,1,0,0:0:0:0:
288,192,64322,1,0,0:0:0:0:
224,192,64411,1,0,0:0:0:0:
160,192,64411,1,0,0:0:0:0:
96,192,64411,1,0,0:0:0:0:
416,192,64499,1,0,0:0:0:0:
480,192,64499,1,0,0:0:0:0:
352,192,64499,1,0,0:0:0:0:
288,192,64587,1,0,0:0:0:0:
160,192,64587,1,0,0:0:0:0:
96,192,64587,1,0,0:0:0:0:
352,192,64675,1,0,0:0:0:0:
480,192,64675,1,0,0:0:0:0:
416,192,64675,1,0,0:0:0:0:
288,192,64764,1,0,0:0:0:0:
160,192,64764,1,0,0:0:0:0:
96,192,64764,1,0,0:0:0:0:
32,192,64852,1,0,0:0:0:0:
224,192,64852,1,0,0:0:0:0:
352,192,64852,1,0,0:0:0:0:
480,192,64852,1,0,0:0:0:0:
288,192,64940,1,0,0:0:0:0:
416,192,64940,1,0,0:0:0:0:
96,192,64940,1,0,0:0:0:0:
160,192,65028,1,0,0:0:0:0:
352,192,65028,1,0,0:0:0:0:
480,192,65028,1,0,0:0:0:0:
416,192,65116,1,0,0:0:0:0:
224,192,65116,1,0,0:0:0:0:
96,192,65116,1,0,0:0:0:0:
160,192,65205,1,0,0:0:0:0:
288,192,65205,1,0,0:0:0:0:
480,192,65205,1,0,0:0:0:0:
352,192,65293,1,0,0:0:0:0:
224,192,65293,1,0,0:0:0:0:
416,192,65293,1,0,0:0:0:0:
288,192,65381,1,0,0:0:0:0:
160,192,65381,1,0,0:0:0:0:
480,192,65381,1,0,0:0:0:0:
352,192,65469,1,0,0:0:0:0:
224,192,65469,1,0,0:0:0:0:
96,192,65469,1,0,0:0:0:0:
32,192,65558,1,0,0:0:0:0:
160,192,65558,1,0,0:0:0:0:
416,192,65558,1,0,0:0:0:0:
480,192,65558,1,0,0:0:0:0:
352,192,65646,1,0,0:0:0:0:
224,192,65646,1,0,0:0:0:0:
96,192,65646,1,0,0:0:0:0:
160,192,65734,1,0,0:0:0:0:
288,192,65734,1,0,0:0:0:0:
480,192,65734,1,0,0:0:0:0:
416,192,65822,1,0,0:0:0:0:
352,192,65822,1,0,0:0:0:0:
224,192,65822,1,0,0:0:0:0:
288,192,65911,1,0,0:0:0:0:
480,192,65911,1,0,0:0:0:0:
96,192,65911,1,0,0:0:0:0:
160,192,65999,1,0,0:0:0:0:
224,192,65999,1,0,0:0:0:0:
352,192,65999,1,0,0:0:0:0:
416,192,66087,1,0,0:0:0:0:
288,192,66087,1,0,0:0:0:0:
480,192,66087,1,0,0:0:0:0:
352,192,66175,1,0,0:0:0:0:
96,192,66175,1,0,0:0:0:0:
224,192,66175,1,0,0:0:0:0:
32,192,66264,1,0,0:0:0:0:
160,192,66264,1,0,0:0:0:0:
288,192,66264,1,0,0:0:0:0:
480,192,66264,1,0,0:0:0:0:
416,192,66352,1,0,0:0:0:0:
352,192,66352,1,0,0:0:0:0:
224,192,66352,1,0,0:0:0:0:
288,192,66440,1,0,0:0:0:0:
160,192,66440,1,0,0:0:0:0:
480,192,66440,1,0,0:0:0:0:
416,192,66528,1,0,0:0:0:0:
224,192,66528,1,0,0:0:0:0:
96,192,66528,1,0,0:0:0:0:
160,192,66616,1,0,0:0:0:0:
352,192,66616,1,0,0:0:0:0:
480,192,66616,1,0,0:0:0:0:
416,192,66705,1,0,0:0:0:0:
288,192,66705,1,0,0:0:0:0:
96,192,66705,1,0,0:0:0:0:
352,192,66793,1,0,0:0:0:0:
160,192,66793,1,0,0:0:0:0:
480,192,66793,1,0,0:0:0:0:
416,192,66881,1,0,0:0:0:0:
288,192,66881,1,0,0:0:0:0:
224,192,66881,1,0,0:0:0:0:
32,192,66969,1,0,0:0:0:0:
160,192,66969,1,0,0:0:0:0:
352,192,66969,1,0,0:0:0:0:
480,192,66969,1,0,0:0:0:0:
96,192,66969,1,0,0:0:0:0:
416,192,67058,1,0,0:0:0:0:
288,192,67058,1,0,0:0:0:0:
224,192,67058,1,0,0:0:0:0:
352,192,67146,1,0,0:0:0:0:
480,192,67146,1,0,0:0:0:0:
96,192,67146,1,0,0:0:0:0:
160,192,67234,1,0,0:0:0:0:
416,192,67234,1,0,0:0:0:0:
224,192,67322,1,0,0:0:0:0:
96,192,67322,1,0,0:0:0:0:
480,192,67322,1,0,0:0:0:0:
288,192,67411,1,0,0:0:0:0:
160,192,67411,1,0,0:0:0:0:
352,192,67411,1,0,0:0:0:0:
224,192,67499,1,0,0:0:0:0:
96,192,67499,1,0,0:0:0:0:
416,192,67499,1,0,0:0:0:0:
352,192,67587,1,0,0:0:0:0:
480,192,67587,1,0,0:0:0:0:
160,192,67587,1,0,0:0:0:0:
288,192,67675,1,0,0:0:0:0:
416,192,67675,1,0,0:0:0:0:
96,192,67675,1,0,0:0:0:0:
224,192,67764,1,0,0:0:0:0:
352,192,67764,1,0,0:0:0:0:
480,192,67764,1,0,0:0:0:0:
416,192,67852,1,0,0:0:0:0:
96,192,67852,1,0,0:0:0:0:
160,192,67852,1,0,0:0:0:0:
224,192,67940,1,0,0:0:0:0:
352,192,67940,1,0,0:0:0:0:
480,192,67940,1,0,0:0:0:0:
416,192,68028,1,0,0:0:0:0:
160,192,68028,1,0,0:0:0:0:
96,192,68028,1,0,0:0:0:0:
224,192,68116,1,0,0:0:0:0:
480,192,68116,1,0,0:0:0:0:
288,192,68116,1,0,0:0:0:0:
352,192,68205,1,0,0:0:0:0:
160,192,68205,1,0,0:0:0:0:
416,192,68205,1,0,0:0:0:0:
288,192,68293,1,0,0:0:0:0:
96,192,68293,1,0,0:0:0:0:
480,192,68293,1,0,0:0:0:0:
416,192,68381,1,0,0:0:0:0:
352,192,68381,1,0,0:0:0:0:
224,192,68381,1,0,0:0:0:0:
288,192,68469,1,0,0:0:0:0:
96,192,68469,1,0,0:0:0:0:
160,192,68469,1,0,0:0:0:0:
224,192,68558,1,0,0:0:0:0:
416,192,68558,1,0,0:0:0:0:
480,192,68558,1,0,0:0:0:0:
352,192,68646,1,0,0:0:0:0:
160,192,68646,1,0,0:0:0:0:
288,192,68646,1,0,0:0:0:0:
224,192,68734,1,0,0:0:0:0:
416,192,68734,1,0,0:0:0:0:
480,192,68734,1,0,0:0:0:0:
288,192,68822,1,0,0:0:0:0:
96,192,68822,1,0,0:0:0:0:
160,192,68822,1,0,0:0:0:0:
224,192,68911,1,0,0:0:0:0:
352,192,68911,1,0,0:0:0:0:
480,192,68911,1,0,0:0:0:0:
416,192,68999,1,0,0:0:0:0:
288,192,68999,1,0,0:0:0:0:
96,192,68999,1,0,0:0:0:0:
160,192,69087,1,0,0:0:0:0:
352,192,69087,1,0,0:0:0:0:
224,192,69087,1,0,0:0:0:0:
288,192,69175,1,0,0:0:0:0:
96,192,69175,1,0,0:0:0:0:
416,192,69175,1,0,0:0:0:0:
352,192,69264,1,0,0:0:0:0:
480,192,69264,1,0,0:0:0:0:
224,192,69264,1,0,0:0:0:0:
288,192,69352,1,0,0:0:0:0:
96,192,69352,1,0,0:0:0:0:
416,192,69352,1,0,0:0:0:0:
352,192,69440,1,0,0:0:0:0:
160,192,69440,1,0,0:0:0:0:
224,192,69440,1,0,0:0:0:0:
288,192,69528,1,0,0:0:0:0:
416,192,69528,1,0,0:0:0:0:
480,192,69528,1,0,0:0:0:0:
352,192,69616,1,0,0:0:0:0:
160,192,69616,1,0,0:0:0:0:
96,192,69616,1,0,0:0:0:0:
224,192,69705,1,0,0:0:0:0:
480,192,69705,1,0,0:0:0:0:
416,192,69705,1,0,0:0:0:0:
288,192,69793,5,0,0:0:0:0:
32,192,69793,1,0,0:0:0:0:
352,192,69793,1,0,0:0:0:0:
160,192,69793,1,0,0:0:0:0:
96,192,69793,1,0,0:0:0:0:
416,192,69881,1,0,0:0:0:0:
480,192,69881,1,0,0:0:0:0:
288,192,69969,1,0,0:0:0:0:
224,192,69969,1,0,0:0:0:0:
160,192,69969,1,0,0:0:0:0:
96,192,69969,1,0,0:0:0:0:
352,192,70058,1,0,0:0:0:0:
416,192,70058,1,0,0:0:0:0:
480,192,70146,1,0,0:0:0:0:
224,192,70146,1,0,0:0:0:0:
160,192,70146,1,0,0:0:0:0:
96,192,70146,1,0,0:0:0:0:
288,192,70234,1,0,0:0:0:0:
352,192,70234,1,0,0:0:0:0:
416,192,70322,1,0,0:0:0:0:
480,192,70322,1,0,0:0:0:0:
160,192,70322,1,0,0:0:0:0:
96,192,70322,1,0,0:0:0:0:
224,192,70411,1,0,0:0:0:0:
288,192,70411,1,0,0:0:0:0:
352,192,70499,1,0,0:0:0:0:
416,192,70499,1,0,0:0:0:0:
480,192,70499,1,0,0:0:0:0:
96,192,70499,1,0,0:0:0:0:
160,192,70587,1,0,0:0:0:0:
224,192,70587,1,0,0:0:0:0:
288,192,70675,1,0,0:0:0:0:
352,192,70675,1,0,0:0:0:0:
416,192,70675,1,0,0:0:0:0:
480,192,70675,1,0,0:0:0:0:
160,192,70764,1,0,0:0:0:0:
96,192,70764,1,0,0:0:0:0:
224,192,70852,1,0,0:0:0:0:
288,192,70852,1,0,0:0:0:0:
352,192,70852,1,0,0:0:0:0:
416,192,70852,1,0,0:0:0:0:
480,192,70940,1,0,0:0:0:0:
96,192,70940,1,0,0:0:0:0:
160,192,71028,1,0,0:0:0:0:
224,192,71028,1,0,0:0:0:0:
288,192,71028,1,0,0:0:0:0:
352,192,71028,1,0,0:0:0:0:
416,192,71116,1,0,0:0:0:0:
480,192,71116,1,0,0:0:0:0:
288,192,71205,1,0,0:0:0:0:
32,192,71205,1,0,0:0:0:0:
224,192,71205,1,0,0:0:0:0:
160,192,71205,1,0,0:0:0:0:
96,192,71205,1,0,0:0:0:0:
352,192,71293,1,0,0:0:0:0:
416,192,71293,1,0,0:0:0:0:
480,192,71293,1,0,0:0:0:0:
224,192,71381,1,0,0:0:0:0:
160,192,71381,1,0,0:0:0:0:
96,192,71381,1,0,0:0:0:0:
288,192,71425,1,0,0:0:0:0:
352,192,71469,1,0,0:0:0:0:
480,192,71469,1,0,0:0:0:0:
416,192,71469,1,0,0:0:0:0:
224,192,71558,1,0,0:0:0:0:
160,192,71558,1,0,0:0:0:0:
288,192,71558,1,0,0:0:0:0:
96,192,71646,1,0,0:0:0:0:
416,192,71646,1,0,0:0:0:0:
480,192,71646,1,0,0:0:0:0:
352,192,71734,1,0,0:0:0:0:
288,192,71734,1,0,0:0:0:0:
224,192,71734,1,0,0:0:0:0:
160,192,71822,1,0,0:0:0:0:
96,192,71822,1,0,0:0:0:0:
480,192,71822,1,0,0:0:0:0:
32,192,71911,1,0,0:0:0:0:
416,192,71911,1,0,0:0:0:0:
352,192,71911,1,0,0:0:0:0:
288,192,71911,1,0,0:0:0:0:
224,192,71911,1,0,0:0:0:0:
32,192,72264,1,0,0:0:0:0:
224,192,72264,1,0,0:0:0:0:
160,192,72264,1,0,0:0:0:0:
96,192,72264,1,0,0:0:0:0:
352,192,72264,1,0,0:0:0:0:
480,192,72264,1,0,0:0:0:0:
416,192,72264,1,0,0:0:0:0:
288,192,72616,1,0,0:0:0:0:
32,192,72616,1,0,0:0:0:0:
160,192,72616,1,0,0:0:0:0:
96,192,72616,1,0,0:0:0:0:
416,192,72616,1,0,0:0:0:0:
480,192,72616,1,0,0:0:0:0:
224,192,72616,1,0,0:0:0:0:
352,192,72705,1,0,0:0:0:0:
416,192,72793,1,0,0:0:0:0:
480,192,72793,1,0,0:0:0:0:
224,192,72793,1,0,0:0:0:0:
96,192,72793,1,0,0:0:0:0:
288,192,72793,1,0,0:0:0:0:
160,192,72881,1,0,0:0:0:0:
96,192,72969,1,0,0:0:0:0:
288,192,72969,1,0,0:0:0:0:
416,192,72969,1,0,0:0:0:0:
352,192,72969,1,0,0:0:0:0:
224,192,72969,1,0,0:0:0:0:
480,192,72969,1,0,0:0:0:0:
160,192,73058,1,0,0:0:0:0:
480,192,73146,1,0,0:0:0:0:
224,192,73146,1,0,0:0:0:0:
96,192,73146,1,0,0:0:0:0:
416,192,73146,1,0,0:0:0:0:
352,192,73146,1,0,0:0:0:0:
288,192,73234,1,0,0:0:0:0:
224,192,73322,1,0,0:0:0:0:
160,192,73322,1,0,0:0:0:0:
96,192,73322,1,0,0:0:0:0:
416,192,73322,1,0,0:0:0:0:
480,192,73322,1,0,0:0:0:0:
352,192,73322,1,0,0:0:0:0:
288,192,73411,1,0,0:0:0:0:
224,192,73499,1,0,0:0:0:0:
160,192,73499,1,0,0:0:0:0:
96,192,73499,1,0,0:0:0:0:
352,192,73499,1,0,0:0:0:0:
480,192,73499,1,0,0:0:0:0:
416,192,73587,1,0,0:0:0:0:
480,192,73675,1,0,0:0:0:0:
352,192,73675,1,0,0:0:0:0:
288,192,73675,1,0,0:0:0:0:
224,192,73675,1,0,0:0:0:0:
160,192,73675,1,0,0:0:0:0:
96,192,73675,1,0,0:0:0:0:
416,192,73764,1,0,0:0:0:0:
480,192,73852,1,0,0:0:0:0:
160,192,73852,1,0,0:0:0:0:
288,192,73852,1,0,0:0:0:0:
352,192,73852,1,0,0:0:0:0:
96,192,73852,1,0,0:0:0:0:
224,192,73940,1,0,0:0:0:0:
160,192,74028,1,0,0:0:0:0:
96,192,74028,1,0,0:0:0:0:
352,192,74028,1,0,0:0:0:0:
480,192,74028,1,0,0:0:0:0:
416,192,74028,1,0,0:0:0:0:
288,192,74028,1,0,0:0:0:0:
224,192,74116,1,0,0:0:0:0:
288,192,74205,1,0,0:0:0:0:
480,192,74205,1,0,0:0:0:0:
416,192,74205,1,0,0:0:0:0:
160,192,74205,1,0,0:0:0:0:
96,192,74205,1,0,0:0:0:0:
352,192,74293,1,0,0:0:0:0:
224,192,74381,1,0,0:0:0:0:
160,192,74381,1,0,0:0:0:0:
96,192,74381,1,0,0:0:0:0:
288,192,74381,1,0,0:0:0:0:
480,192,74381,1,0,0:0:0:0:
416,192,74381,1,0,0:0:0:0:
352,192,74469,1,0,0:0:0:0:
416,192,74558,1,0,0:0:0:0:
224,192,74558,1,0,0:0:0:0:
480,192,74558,1,0,0:0:0:0:
288,192,74558,1,0,0:0:0:0:
160,192,74558,1,0,0:0:0:0:
96,192,74646,1,0,0:0:0:0:
224,192,74734,1,0,0:0:0:0:
416,192,74734,1,0,0:0:0:0:
352,192,74734,1,0,0:0:0:0:
288,192,74734,1,0,0:0:0:0:
160,192,74734,1,0,0:0:0:0:
480,192,74734,1,0,0:0:0:0:
96,192,74822,1,0,0:0:0:0:
224,192,74911,1,0,0:0:0:0:
160,192,74911,1,0,0:0:0:0:
352,192,74911,1,0,0:0:0:0:
416,192,74911,1,0,0:0:0:0:
480,192,74911,1,0,0:0:0:0:
288,192,74999,1,0,0:0:0:0:
416,192,75087,1,0,0:0:0:0:
352,192,75087,1,0,0:0:0:0:
224,192,75087,1,0,0:0:0:0:
160,192,75087,1,0,0:0:0:0:
96,192,75087,1,0,0:0:0:0:
480,192,75087,1,0,0:0:0:0:
288,192,75175,1,0,0:0:0:0:
224,192,75264,1,0,0:0:0:0:
160,192,75264,1,0,0:0:0:0:
96,192,75264,1,0,0:0:0:0:
352,192,75264,1,0,0:0:0:0:
480,192,75264,1,0,0:0:0:0:
416,192,75352,1,0,0:0:0:0:
480,192,75440,1,0,0:0:0:0:
352,192,75440,1,0,0:0:0:0:
288,192,75440,1,0,0:0:0:0:
160,192,75440,1,0,0:0:0:0:
96,192,75440,1,0,0:0:0:0:
224,192,75440,1,0,0:0:0:0:
416,192,75528,1,0,0:0:0:0:
160,192,75616,1,0,0:0:0:0:
288,192,75616,1,0,0:0:0:0:
480,192,75616,1,0,0:0:0:0:
224,192,75616,1,0,0:0:0:0:
96,192,75616,1,0,0:0:0:0:
352,192,75705,1,0,0:0:0:0:
416,192,75793,1,0,0:0:0:0:
480,192,75793,1,0,0:0:0:0:
288,192,75793,1,0,0:0:0:0:
224,192,75793,1,0,0:0:0:0:
160,192,75793,1,0,0:0:0:0:
96,192,75793,1,0,0:0:0:0:
352,192,75881,1,0,0:0:0:0:
416,192,75969,1,0,0:0:0:0:
480,192,75969,1,0,0:0:0:0:
96,192,75969,1,0,0:0:0:0:
288,192,75969,1,0,0:0:0:0:
224,192,75969,1,0,0:0:0:0:
160,192,76058,1,0,0:0:0:0:
96,192,76146,1,0,0:0:0:0:
288,192,76146,1,0,0:0:0:0:
352,192,76146,1,0,0:0:0:0:
224,192,76146,1,0,0:0:0:0:
416,192,76146,1,0,0:0:0:0:
480,192,76146,1,0,0:0:0:0:
160,192,76234,1,0,0:0:0:0:
96,192,76322,1,0,0:0:0:0:
416,192,76322,1,0,0:0:0:0:
480,192,76322,1,0,0:0:0:0:
224,192,76322,1,0,0:0:0:0:
352,192,76322,1,0,0:0:0:0:
288,192,76411,1,0,0:0:0:0:
224,192,76499,1,0,0:0:0:0:
160,192,76499,1,0,0:0:0:0:
96,192,76499,1,0,0:0:0:0:
416,192,76499,1,0,0:0:0:0:
480,192,76499,1,0,0:0:0:0:
352,192,76499,1,0,0:0:0:0:
288,192,76587,1,0,0:0:0:0:
224,192,76675,1,0,0:0:0:0:
96,192,76675,1,0,0:0:0:0:
416,192,76675,1,0,0:0:0:0:
352,192,76675,1,0,0:0:0:0:
160,192,76675,1,0,0:0:0:0:
480,192,76764,1,0,0:0:0:0:
224,192,76852,1,0,0:0:0:0:
160,192,76852,1,0,0:0:0:0:
96,192,76852,1,0,0:0:0:0:
352,192,76852,1,0,0:0:0:0:
416,192,76852,1,0,0:0:0:0:
288,192,76852,1,0,0:0:0:0:
480,192,76940,1,0,0:0:0:0:
416,192,77028,1,0,0:0:0:0:
288,192,77028,1,0,0:0:0:0:
160,192,77028,1,0,0:0:0:0:
96,192,77028,1,0,0:0:0:0:
224,192,77028,1,0,0:0:0:0:
352,192,77116,1,0,0:0:0:0:
416,192,77205,1,0,0:0:0:0:
480,192,77205,1,0,0:0:0:0:
288,192,77205,1,0,0:0:0:0:
224,192,77205,1,0,0:0:0:0:
160,192,77205,1,0,0:0:0:0:
96,192,77205,1,0,0:0:0:0:
352,192,77293,1,0,0:0:0:0:
416,192,77381,1,0,0:0:0:0:
224,192,77381,1,0,0:0:0:0:
96,192,77381,1,0,0:0:0:0:
480,192,77381,1,0,0:0:0:0:
288,192,77381,1,0,0:0:0:0:
160,192,77469,1,0,0:0:0:0:
96,192,77558,1,0,0:0:0:0:
480,192,77558,1,0,0:0:0:0:
416,192,77558,1,0,0:0:0:0:
352,192,77558,1,0,0:0:0:0:
224,192,77558,1,0,0:0:0:0:
288,192,77646,1,0,0:0:0:0:
160,192,77646,1,0,0:0:0:0:
96,192,77734,1,0,0:0:0:0:
352,192,77734,1,0,0:0:0:0:
224,192,77734,1,0,0:0:0:0:
480,192,77734,1,0,0:0:0:0:
416,192,77822,1,0,0:0:0:0:
288,192,77822,1,0,0:0:0:0:
352,192,77911,1,0,0:0:0:0:
480,192,77911,1,0,0:0:0:0:
160,192,77911,1,0,0:0:0:0:
96,192,77911,1,0,0:0:0:0:
224,192,77911,1,0,0:0:0:0:
288,192,77999,1,0,0:0:0:0:
416,192,77999,1,0,0:0:0:0:
352,192,78087,1,0,0:0:0:0:
480,192,78087,1,0,0:0:0:0:
224,192,78087,1,0,0:0:0:0:
96,192,78087,1,0,0:0:0:0:
160,192,78175,1,0,0:0:0:0:
288,192,78175,1,0,0:0:0:0:
32,192,78264,5,0,0:0:0:0:
96,192,78264,1,0,0:0:0:0:
224,192,78264,1,0,0:0:0:0:
352,192,78264,1,0,0:0:0:0:
480,192,78264,1,0,0:0:0:0:
416,192,78264,1,0,0:0:0:0:
288,192,78352,1,0,0:0:0:0:
160,192,78352,1,0,0:0:0:0:
96,192,78440,1,0,0:0:0:0:
224,192,78440,1,0,0:0:0:0:
352,192,78440,1,0,0:0:0:0:
416,192,78440,1,0,0:0:0:0:
480,192,78440,1,0,0:0:0:0:
288,192,78528,1,0,0:0:0:0:
224,192,78616,1,0,0:0:0:0:
352,192,78616,1,0,0:0:0:0:
480,192,78616,1,0,0:0:0:0:
96,192,78616,1,0,0:0:0:0:
160,192,78616,1,0,0:0:0:0:
416,192,78705,1,0,0:0:0:0:
288,192,78705,1,0,0:0:0:0:
352,192,78793,1,0,0:0:0:0:
480,192,78793,1,0,0:0:0:0:
224,192,78793,1,0,0:0:0:0:
160,192,78793,1,0,0:0:0:0:
96,192,78793,1,0,0:0:0:0:
288,192,78881,1,0,0:0:0:0:
416,192,78881,1,0,0:0:0:0:
480,192,78969,1,0,0:0:0:0:
224,192,78969,1,0,0:0:0:0:
352,192,78969,1,0,0:0:0:0:
160,192,79058,1,0,0:0:0:0:
96,192,79058,1,0,0:0:0:0:
288,192,79146,1,0,0:0:0:0:
352,192,79146,1,0,0:0:0:0:
416,192,79146,1,0,0:0:0:0:
480,192,79146,1,0,0:0:0:0:
224,192,79234,1,0,0:0:0:0:
160,192,79234,1,0,0:0:0:0:
96,192,79322,1,0,0:0:0:0:
352,192,79322,1,0,0:0:0:0:
480,192,79322,1,0,0:0:0:0:
416,192,79322,1,0,0:0:0:0:
288,192,79411,1,0,0:0:0:0:
224,192,79411,1,0,0:0:0:0:
160,192,79499,1,0,0:0:0:0:
96,192,79499,1,0,0:0:0:0:
352,192,79499,1,0,0:0:0:0:
416,192,79499,1,0,0:0:0:0:
480,192,79499,1,0,0:0:0:0:
32,192,79499,1,0,0:0:0:0:
160,192,79852,1,0,0:0:0:0:
96,192,79852,1,0,0:0:0:0:
32,192,79852,1,0,0:0:0:0:
416,192,79852,1,0,0:0:0:0:
352,192,79852,1,0,0:0:0:0:
480,192,79852,1,0,0:0:0:0:
160,192,80028,1,0,0:0:0:0:
96,192,80028,1,0,0:0:0:0:
32,192,80028,1,0,0:0:0:0:
352,192,80028,1,0,0:0:0:0:
416,192,80028,1,0,0:0:0:0:
480,192,80028,1,0,0:0:0:0:
352,192,80381,1,0,0:0:0:0:
416,192,80381,1,0,0:0:0:0:
224,192,80469,1,0,0:0:0:0:
160,192,80469,1,0,0:0:0:0:
352,192,80558,1,0,0:0:0:0:
416,192,80558,1,0,0:0:0:0:
224,192,80646,1,0,0:0:0:0:
160,192,80646,1,0,0:0:0:0:
224,192,80734,1,0,0:0:0:0:
160,192,80734,1,0,0:0:0:0:
416,192,80734,1,0,0:0:0:0:
352,192,80734,1,0,0:0:0:0:
480,192,80734,1,0,0:0:0:0:
288,192,81087,1,0,0:0:0:0:
32,192,81087,1,0,0:0:0:0:
416,192,81087,1,0,0:0:0:0:
480,192,81087,1,0,0:0:0:0:
96,192,81087,1,0,0:0:0:0:
160,192,81087,1,0,0:0:0:0:
352,192,81175,1,0,0:0:0:0:
224,192,81175,1,0,0:0:0:0:
288,192,81264,1,0,0:0:0:0:
416,192,81264,1,0,0:0:0:0:
480,192,81264,1,0,0:0:0:0:
96,192,81264,1,0,0:0:0:0:
160,192,81352,1,0,0:0:0:0:
224,192,81352,1,0,0:0:0:0:
96,192,81440,1,0,0:0:0:0:
352,192,81440,1,0,0:0:0:0:
480,192,81440,1,0,0:0:0:0:
288,192,81440,1,0,0:0:0:0:
416,192,81440,1,0,0:0:0:0:
224,192,81528,1,0,0:0:0:0:
160,192,81528,1,0,0:0:0:0:
96,192,81616,1,0,0:0:0:0:
416,192,81616,1,0,0:0:0:0:
480,192,81616,1,0,0:0:0:0:
288,192,81616,1,0,0:0:0:0:
352,192,81705,1,0,0:0:0:0:
224,192,81705,1,0,0:0:0:0:
288,192,81793,1,0,0:0:0:0:
160,192,81793,1,0,0:0:0:0:
96,192,81793,1,0,0:0:0:0:
480,192,81793,1,0,0:0:0:0:
416,192,81793,1,0,0:0:0:0:
352,192,81881,1,0,0:0:0:0:
224,192,81881,1,0,0:0:0:0:
288,192,81969,1,0,0:0:0:0:
480,192,81969,1,0,0:0:0:0:
160,192,81969,1,0,0:0:0:0:
96,192,81969,1,0,0:0:0:0:
416,192,82058,1,0,0:0:0:0:
224,192,82058,1,0,0:0:0:0:
352,192,82146,1,0,0:0:0:0:
480,192,82146,1,0,0:0:0:0:
288,192,82146,1,0,0:0:0:0:
160,192,82146,1,0,0:0:0:0:
96,192,82146,1,0,0:0:0:0:
224,192,82234,1,0,0:0:0:0:
416,192,82234,1,0,0:0:0:0:
288,192,82322,1,0,0:0:0:0:
160,192,82322,1,0,0:0:0:0:
352,192,82322,1,0,0:0:0:0:
480,192,82322,1,0,0:0:0:0:
416,192,82411,1,0,0:0:0:0:
96,192,82411,1,0,0:0:0:0:
160,192,82499,1,0,0:0:0:0:
224,192,82499,1,0,0:0:0:0:
288,192,82499,1,0,0:0:0:0:
352,192,82499,1,0,0:0:0:0:
480,192,82499,1,0,0:0:0:0:
96,192,82587,1,0,0:0:0:0:
416,192,82587,1,0,0:0:0:0:
352,192,82675,1,0,0:0:0:0:
480,192,82675,1,0,0:0:0:0:
288,192,82675,1,0,0:0:0:0:
224,192,82675,1,0,0:0:0:0:
160,192,82764,1,0,0:0:0:0:
96,192,82764,1,0,0:0:0:0:
416,192,82852,1,0,0:0:0:0:
352,192,82852,1,0,0:0:0:0:
480,192,82852,1,0,0:0:0:0:
288,192,82852,1,0,0:0:0:0:
224,192,82940,1,0,0:0:0:0:
160,192,82940,1,0,0:0:0:0:
96,192,83028,1,0,0:0:0:0:
352,192,83028,1,0,0:0:0:0:
480,192,83028,1,0,0:0:0:0:
416,192,83028,1,0,0:0:0:0:
288,192,83116,1,0,0:0:0:0:
224,192,83116,1,0,0:0:0:0:
160,192,83205,1,0,0:0:0:0:
96,192,83205,1,0,0:0:0:0:
480,192,83205,1,0,0:0:0:0:
416,192,83205,1,0,0:0:0:0:
352,192,83293,1,0,0:0:0:0:
288,192,83293,1,0,0:0:0:0:
224,192,83381,1,0,0:0:0:0:
160,192,83381,1,0,0:0:0:0:
96,192,83381,1,0,0:0:0:0:
480,192,83381,1,0,0:0:0:0:
416,192,83469,1,0,0:0:0:0:
352,192,83469,1,0,0:0:0:0:
288,192,83558,1,0,0:0:0:0:
224,192,83558,1,0,0:0:0:0:
160,192,83558,1,0,0:0:0:0:
96,192,83558,1,0,0:0:0:0:
352,192,83646,1,0,0:0:0:0:
416,192,83646,1,0,0:0:0:0:
480,192,83646,1,0,0:0:0:0:
96,192,83734,1,0,0:0:0:0:
160,192,83734,1,0,0:0:0:0:
288,192,83734,1,0,0:0:0:0:
224,192,83734,1,0,0:0:0:0:
352,192,83822,1,0,0:0:0:0:
416,192,83822,1,0,0:0:0:0:
480,192,83822,1,0,0:0:0:0:
288,192,83911,1,0,0:0:0:0:
32,192,83911,1,0,0:0:0:0:
160,192,83911,1,0,0:0:0:0:
96,192,83911,1,0,0:0:0:0:
224,192,83911,1,0,0:0:0:0:
352,192,83999,1,0,0:0:0:0:
416,192,83999,1,0,0:0:0:0:
480,192,83999,1,0,0:0:0:0:
160,192,84087,1,0,0:0:0:0:
96,192,84087,1,0,0:0:0:0:
288,192,84131,1,0,0:0:0:0:
224,192,84131,1,0,0:0:0:0:
352,192,84175,1,0,0:0:0:0:
416,192,84175,1,0,0:0:0:0:
480,192,84175,1,0,0:0:0:0:
160,192,84264,1,0,0:0:0:0:
96,192,84264,1,0,0:0:0:0:
224,192,84264,1,0,0:0:0:0:
352,192,84352,1,0,0:0:0:0:
416,192,84352,1,0,0:0:0:0:
480,192,84352,1,0,0:0:0:0:
224,192,84440,1,0,0:0:0:0:
160,192,84440,1,0,0:0:0:0:
96,192,84440,1,0,0:0:0:0:
352,192,84528,1,0,0:0:0:0:
416,192,84528,1,0,0:0:0:0:
480,192,84528,1,0,0:0:0:0:
288,192,84616,1,0,0:0:0:0:
32,192,84616,1,0,0:0:0:0:
224,192,84616,1,0,0:0:0:0:
160,192,84616,1,0,0:0:0:0:
96,192,84616,1,0,0:0:0:0:
32,192,84793,1,0,0:0:0:0:
160,192,84793,1,0,0:0:0:0:
224,192,84793,1,0,0:0:0:0:
288,192,84793,1,0,0:0:0:0:
352,192,84793,1,0,0:0:0:0:
32,192,84969,1,0,0:0:0:0:
224,192,84969,1,0,0:0:0:0:
352,192,84969,1,0,0:0:0:0:
416,192,84969,1,0,0:0:0:0:
288,192,84969,1,0,0:0:0:0:
32,192,85146,1,0,0:0:0:0:
288,192,85146,1,0,0:0:0:0:
352,192,85146,1,0,0:0:0:0:
416,192,85146,1,0,0:0:0:0:
480,192,85146,1,0,0:0:0:0:
160,192,85146,1,0,0:0:0:0:
96,192,85146,1,0,0:0:0:0:
32,192,85499,1,0,0:0:0:0:
160,192,85499,1,0,0:0:0:0:
96,192,85499,1,0,0:0:0:0:
288,192,85499,1,0,0:0:0:0:
352,192,85499,1,0,0:0:0:0:
416,192,85499,1,0,0:0:0:0:
480,192,85499,1,0,0:0:0:0:
32,192,85675,1,0,0:0:0:0:
160,192,85675,1,0,0:0:0:0:
96,192,85675,1,0,0:0:0:0:
480,192,85675,1,0,0:0:0:0:
416,192,85675,1,0,0:0:0:0:
352,192,85675,1,0,0:0:0:0:
288,192,85675,1,0,0:0:0:0:
224,192,85675,1,0,0:0:0:0:
352,192,85852,1,0,0:0:0:0:
224,192,85940,1,0,0:0:0:0:
416,192,86028,1,0,0:0:0:0:
224,192,86116,1,0,0:0:0:0:
480,192,86205,1,0,0:0:0:0:
224,192,86293,1,0,0:0:0:0:
352,192,86293,1,0,0:0:0:0:
32,192,86381,1,0,0:0:0:0:
288,192,86381,1,0,0:0:0:0:
160,192,86381,1,0,0:0:0:0:
96,192,86381,1,0,0:0:0:0:
416,192,86381,1,0,0:0:0:0:
480,192,86381,1,0,0:0:0:0:
32,192,86734,1,0,0:0:0:0:
224,192,86734,1,0,0:0:0:0:
96,192,86734,1,0,0:0:0:0:
352,192,86734,1,0,0:0:0:0:
480,192,86734,1,0,0:0:0:0:
288,192,86822,1,0,0:0:0:0:
160,192,86822,1,0,0:0:0:0:
416,192,86822,1,0,0:0:0:0:
352,192,86911,1,0,0:0:0:0:
480,192,86911,1,0,0:0:0:0:
224,192,86911,1,0,0:0:0:0:
288,192,86999,1,0,0:0:0:0:
96,192,86999,1,0,0:0:0:0:
416,192,86999,1,0,0:0:0:0:
352,192,87087,1,0,0:0:0:0:
480,192,87087,1,0,0:0:0:0:
224,192,87087,1,0,0:0:0:0:
288,192,87175,1,0,0:0:0:0:
96,192,87175,1,0,0:0:0:0:
416,192,87175,1,0,0:0:0:0:
352,192,87264,1,0,0:0:0:0:
480,192,87264,1,0,0:0:0:0:
160,192,87264,1,0,0:0:0:0:
224,192,87352,1,0,0:0:0:0:
96,192,87352,1,0,0:0:0:0:
416,192,87352,1,0,0:0:0:0:
352,192,87440,1,0,0:0:0:0:
480,192,87440,1,0,0:0:0:0:
160,192,87440,1,0,0:0:0:0:
288,192,87528,1,0,0:0:0:0:
96,192,87528,1,0,0:0:0:0:
416,192,87528,1,0,0:0:0:0:
352,192,87616,1,0,0:0:0:0:
224,192,87616,1,0,0:0:0:0:
480,192,87616,1,0,0:0:0:0:
32,192,87616,1,0,0:0:0:0:
416,192,87705,1,0,0:0:0:0:
288,192,87705,1,0,0:0:0:0:
160,192,87705,1,0,0:0:0:0:
96,192,87793,1,0,0:0:0:0:
224,192,87793,1,0,0:0:0:0:
480,192,87793,1,0,0:0:0:0:
416,192,87881,1,0,0:0:0:0:
288,192,87881,1,0,0:0:0:0:
160,192,87881,1,0,0:0:0:0:
224,192,87969,1,0,0:0:0:0:
96,192,87969,1,0,0:0:0:0:
352,192,87969,1,0,0:0:0:0:
288,192,88058,1,0,0:0:0:0:
480,192,88058,1,0,0:0:0:0:
160,192,88058,1,0,0:0:0:0:
224,192,88146,1,0,0:0:0:0:
416,192,88146,1,0,0:0:0:0:
96,192,88146,1,0,0:0:0:0:
160,192,88234,1,0,0:0:0:0:
352,192,88234,1,0,0:0:0:0:
480,192,88234,1,0,0:0:0:0:
416,192,88322,1,0,0:0:0:0:
288,192,88322,1,0,0:0:0:0:
224,192,88322,1,0,0:0:0:0:
96,192,88411,1,0,0:0:0:0:
352,192,88411,1,0,0:0:0:0:
480,192,88411,1,0,0:0:0:0:
416,192,88499,1,0,0:0:0:0:
160,192,88499,1,0,0:0:0:0:
288,192,88499,1,0,0:0:0:0:
224,192,88587,1,0,0:0:0:0:
96,192,88587,1,0,0:0:0:0:
352,192,88587,1,0,0:0:0:0:
160,192,88675,1,0,0:0:0:0:
416,192,88675,1,0,0:0:0:0:
480,192,88675,1,0,0:0:0:0:
352,192,88764,1,0,0:0:0:0:
224,192,88764,1,0,0:0:0:0:
96,192,88764,1,0,0:0:0:0:
288,192,88852,1,0,0:0:0:0:
160,192,88852,1,0,0:0:0:0:
480,192,88852,1,0,0:0:0:0:
416,192,88940,1,0,0:0:0:0:
224,192,88940,1,0,0:0:0:0:
352,192,88940,1,0,0:0:0:0:
288,192,89028,1,0,0:0:0:0:
96,192,89028,1,0,0:0:0:0:
480,192,89028,1,0,0:0:0:0:
32,192,89028,1,0,0:0:0:0:
160,192,89116,1,0,0:0:0:0:
352,192,89116,1,0,0:0:0:0:
224,192,89116,1,0,0:0:0:0:
96,192,89205,1,0,0:0:0:0:
288,192,89205,1,0,0:0:0:0:
416,192,89205,1,0,0:0:0:0:
352,192,89293,1,0,0:0:0:0:
480,192,89293,1,0,0:0:0:0:
224,192,89293,1,0,0:0:0:0:
288,192,89381,1,0,0:0:0:0:
416,192,89381,1,0,0:0:0:0:
160,192,89381,1,0,0:0:0:0:
224,192,89469,1,0,0:0:0:0:
96,192,89469,1,0,0:0:0:0:
352,192,89469,1,0,0:0:0:0:
288,192,89558,1,0,0:0:0:0:
160,192,89558,1,0,0:0:0:0:
480,192,89558,1,0,0:0:0:0:
416,192,89558,1,0,0:0:0:0:
352,192,89646,1,0,0:0:0:0:
224,192,89646,1,0,0:0:0:0:
96,192,89646,1,0,0:0:0:0:
160,192,89734,1,0,0:0:0:0:
288,192,89734,1,0,0:0:0:0:
480,192,89734,1,0,0:0:0:0:
416,192,89822,1,0,0:0:0:0:
224,192,89822,1,0,0:0:0:0:
96,192,89822,1,0,0:0:0:0:
160,192,89911,1,0,0:0:0:0:
352,192,89911,1,0,0:0:0:0:
480,192,89911,1,0,0:0:0:0:
416,192,89999,1,0,0:0:0:0:
288,192,89999,1,0,0:0:0:0:
96,192,89999,1,0,0:0:0:0:
224,192,90087,1,0,0:0:0:0:
352,192,90087,1,0,0:0:0:0:
480,192,90087,1,0,0:0:0:0:
416,192,90175,1,0,0:0:0:0:
288,192,90175,1,0,0:0:0:0:
160,192,90175,1,0,0:0:0:0:
224,192,90264,1,0,0:0:0:0:
96,192,90264,1,0,0:0:0:0:
352,192,90264,1,0,0:0:0:0:
352,192,90352,1,0,0:0:0:0:
352,192,90440,1,0,0:0:0:0:
160,192,90440,1,0,0:0:0:0:
480,192,90440,1,0,0:0:0:0:
416,192,90528,1,0,0:0:0:0:
224,192,90528,1,0,0:0:0:0:
96,192,90528,1,0,0:0:0:0:
160,192,90616,1,0,0:0:0:0:
288,192,90616,1,0,0:0:0:0:
480,192,90616,1,0,0:0:0:0:
352,192,90705,1,0,0:0:0:0:
224,192,90705,1,0,0:0:0:0:
96,192,90705,1,0,0:0:0:0:
160,192,90793,1,0,0:0:0:0:
288,192,90793,1,0,0:0:0:0:
416,192,90793,1,0,0:0:0:0:
352,192,90881,1,0,0:0:0:0:
480,192,90881,1,0,0:0:0:0:
224,192,90881,1,0,0:0:0:0:
288,192,90969,1,0,0:0:0:0:
416,192,90969,1,0,0:0:0:0:
96,192,90969,1,0,0:0:0:0:
32,192,90969,1,0,0:0:0:0:
160,192,90969,1,0,0:0:0:0:
352,192,91028,1,0,0:0:0:0:
224,192,91087,1,0,0:0:0:0:
160,192,91146,1,0,0:0:0:0:
416,192,91146,1,0,0:0:0:0:
288,192,91205,5,0,0:0:0:0:
224,192,91264,1,0,0:0:0:0:
96,192,91322,1,0,0:0:0:0:
352,192,91322,1,0,0:0:0:0:
480,192,91322,1,0,0:0:0:0:
288,192,91381,1,0,0:0:0:0:
160,192,91440,1,0,0:0:0:0:
96,192,91499,1,0,0:0:0:0:
416,192,91499,1,0,0:0:0:0:
352,192,91558,1,0,0:0:0:0:
224,192,91616,1,0,0:0:0:0:
32,192,91675,5,0,0:0:0:0:
160,192,91675,1,0,0:0:0:0:
416,192,91675,1,0,0:0:0:0:
480,192,91675,1,0,0:0:0:0:
96,192,91675,1,0,0:0:0:0:
288,192,91734,1,0,0:0:0:0:
352,192,91793,1,0,0:0:0:0:
416,192,91852,1,0,0:0:0:0:
160,192,91852,1,0,0:0:0:0:
288,192,91911,1,0,0:0:0:0:
352,192,91969,1,0,0:0:0:0:
480,192,92028,1,0,0:0:0:0:
416,192,92028,1,0,0:0:0:0:
96,192,92028,1,0,0:0:0:0:
224,192,92087,1,0,0:0:0:0:
288,192,92146,1,0,0:0:0:0:
352,192,92205,1,0,0:0:0:0:
160,192,92205,1,0,0:0:0:0:
224,192,92264,1,0,0:0:0:0:
416,192,92322,1,0,0:0:0:0:
32,192,92381,5,0,0:0:0:0:
480,192,92381,1,0,0:0:0:0:
288,192,92381,1,0,0:0:0:0:
96,192,92381,1,0,0:0:0:0:
160,192,92440,1,0,0:0:0:0:
352,192,92440,1,0,0:0:0:0:
224,192,92499,1,0,0:0:0:0:
416,192,92499,1,0,0:0:0:0:
288,192,92558,1,0,0:0:0:0:
480,192,92558,1,0,0:0:0:0:
352,192,92616,1,0,0:0:0:0:
160,192,92616,1,0,0:0:0:0:
224,192,92675,1,0,0:0:0:0:
96,192,92675,1,0,0:0:0:0:
288,192,92734,1,0,0:0:0:0:
480,192,92734,1,0,0:0:0:0:
416,192,92793,1,0,0:0:0:0:
160,192,92793,1,0,0:0:0:0:
352,192,92852,1,0,0:0:0:0:
96,192,92852,1,0,0:0:0:0:
224,192,92911,1,0,0:0:0:0:
480,192,92911,1,0,0:0:0:0:
416,192,92969,1,0,0:0:0:0:
160,192,92969,1,0,0:0:0:0:
352,192,93028,1,0,0:0:0:0:
288,192,93028,1,0,0:0:0:0:
224,192,93087,1,0,0:0:0:0:
96,192,93087,1,0,0:0:0:0:
480,192,93146,1,0,0:0:0:0:
160,192,93146,1,0,0:0:0:0:
288,192,93205,1,0,0:0:0:0:
416,192,93205,1,0,0:0:0:0:
352,192,93264,1,0,0:0:0:0:
96,192,93264,1,0,0:0:0:0:
224,192,93322,1,0,0:0:0:0:
480,192,93322,1,0,0:0:0:0:
416,192,93381,1,0,0:0:0:0:
160,192,93381,1,0,0:0:0:0:
288,192,93440,1,0,0:0:0:0:
96,192,93440,1,0,0:0:0:0:
224,192,93499,1,0,0:0:0:0:
480,192,93499,1,0,0:0:0:0:
352,192,93558,1,0,0:0:0:0:
160,192,93558,1,0,0:0:0:0:
416,192,93616,1,0,0:0:0:0:
288,192,93616,1,0,0:0:0:0:
96,192,93675,1,0,0:0:0:0:
224,192,93675,1,0,0:0:0:0:
160,192,93734,1,0,0:0:0:0:
352,192,93734,1,0,0:0:0:0:
288,192,93793,1,0,0:0:0:0:
480,192,93793,1,0,0:0:0:0:
416,192,93852,1,0,0:0:0:0:
96,192,93852,1,0,0:0:0:0:
160,192,93911,1,0,0:0:0:0:
224,192,93911,1,0,0:0:0:0:
288,192,93969,1,0,0:0:0:0:
480,192,93969,1,0,0:0:0:0:
352,192,94028,1,0,0:0:0:0:
96,192,94028,1,0,0:0:0:0:
160,192,94087,1,0,0:0:0:0:
416,192,94087,1,0,0:0:0:0:
224,192,94146,1,0,0:0:0:0:
480,192,94146,1,0,0:0:0:0:
352,192,94205,1,0,0:0:0:0:
96,192,94205,1,0,0:0:0:0:
160,192,94264,1,0,0:0:0:0:
288,192,94264,1,0,0:0:0:0:
224,192,94322,1,0,0:0:0:0:
416,192,94322,1,0,0:0:0:0:
352,192,94381,1,0,0:0:0:0:
96,192,94381,1,0,0:0:0:0:
224,192,94440,1,0,0:0:0:0:
480,192,94440,1,0,0:0:0:0:
416,192,94499,1,0,0:0:0:0:
288,192,94499,1,0,0:0:0:0:
352,192,94558,1,0,0:0:0:0:
160,192,94558,1,0,0:0:0:0:
224,192,94616,1,0,0:0:0:0:
480,192,94616,1,0,0:0:0:0:
416,192,94675,1,0,0:0:0:0:
288,192,94675,1,0,0:0:0:0:
96,192,94734,1,0,0:0:0:0:
352,192,94734,1,0,0:0:0:0:
160,192,94793,1,0,0:0:0:0:
416,192,94793,1,0,0:0:0:0:
224,192,94852,1,0,0:0:0:0:
480,192,94852,1,0,0:0:0:0:
288,192,94911,1,0,0:0:0:0:
96,192,94911,1,0,0:0:0:0:
352,192,94969,1,0,0:0:0:0:
160,192,94969,1,0,0:0:0:0:
224,192,95028,1,0,0:0:0:0:
480,192,95028,1,0,0:0:0:0:
416,192,95087,1,0,0:0:0:0:
288,192,95087,1,0,0:0:0:0:
160,192,95146,1,0,0:0:0:0:
96,192,95205,1,0,0:0:0:0:
480,192,95205,1,0,0:0:0:0:
416,192,95234,1,0,0:0:0:0:
352,192,95264,1,0,0:0:0:0:
288,192,95293,1,0,0:0:0:0:
224,192,95322,1,0,0:0:0:0:
96,192,95352,1,0,0:0:0:0:
480,192,95381,1,0,0:0:0:0:
416,192,95411,1,0,0:0:0:0:
352,192,95440,1,0,0:0:0:0:
288,192,95469,1,0,0:0:0:0:
160,192,95499,1,0,0:0:0:0:
96,192,95528,1,0,0:0:0:0:
480,192,95558,1,0,0:0:0:0:
416,192,95587,1,0,0:0:0:0:
352,192,95616,1,0,0:0:0:0:
224,192,95646,1,0,0:0:0:0:
160,192,95675,1,0,0:0:0:0:
96,192,95705,1,0,0:0:0:0:
480,192,95734,1,0,0:0:0:0:
416,192,95764,1,0,0:0:0:0:
288,192,95793,1,0,0:0:0:0:
224,192,95822,1,0,0:0:0:0:
160,192,95852,1,0,0:0:0:0:
96,192,95881,1,0,0:0:0:0:
352,192,95911,1,0,0:0:0:0:
480,192,95911,1,0,0:0:0:0:
416,192,95911,1,0,0:0:0:0:
288,192,95999,1,0,0:0:0:0:
224,192,95999,1,0,0:0:0:0:
160,192,95999,1,0,0:0:0:0:
96,192,96087,1,0,0:0:0:0:
416,192,96087,1,0,0:0:0:0:
480,192,96087,1,0,0:0:0:0:
352,192,96175,1,0,0:0:0:0:
288,192,96175,1,0,0:0:0:0:
224,192,96175,1,0,0:0:0:0:
160,192,96264,1,0,0:0:0:0:
96,192,96264,1,0,0:0:0:0:
480,192,96264,1,0,0:0:0:0:
416,192,96352,1,0,0:0:0:0:
352,192,96352,1,0,0:0:0:0:
288,192,96352,1,0,0:0:0:0:
224,192,96440,1,0,0:0:0:0:
160,192,96440,1,0,0:0:0:0:
96,192,96440,1,0,0:0:0:0:
416,192,96528,1,0,0:0:0:0:
480,192,96528,1,0,0:0:0:0:
352,192,96528,1,0,0:0:0:0:
160,192,96616,1,0,0:0:0:0:
96,192,96616,1,0,0:0:0:0:
288,192,96661,1,0,0:0:0:0:
224,192,96705,1,0,0:0:0:0:
416,192,96705,1,0,0:0:0:0:
352,192,96749,1,0,0:0:0:0:
288,192,96793,1,0,0:0:0:0:
160,192,96793,1,0,0:0:0:0:
416,192,96881,1,0,0:0:0:0:
96,192,96881,1,0,0:0:0:0:
224,192,96969,1,0,0:0:0:0:
352,192,96969,1,0,0:0:0:0:
160,192,97014,1,0,0:0:0:0:
288,192,97058,1,0,0:0:0:0:
416,192,97058,1,0,0:0:0:0:
96,192,97102,1,0,0:0:0:0:
224,192,97146,1,0,0:0:0:0:
352,192,97146,1,0,0:0:0:0:
480,192,97234,1,0,0:0:0:0:
288,192,97234,1,0,0:0:0:0:
352,192,97322,1,0,0:0:0:0:
160,192,97322,1,0,0:0:0:0:
96,192,97366,1,0,0:0:0:0:
288,192,97411,1,0,0:0:0:0:
416,192,97411,1,0,0:0:0:0:
224,192,97455,1,0,0:0:0:0:
160,192,97499,1,0,0:0:0:0:
352,192,97499,1,0,0:0:0:0:
480,192,97499,1,0,0:0:0:0:
288,192,97587,1,0,0:0:0:0:
96,192,97587,1,0,0:0:0:0:
224,192,97675,1,0,0:0:0:0:
352,192,97675,1,0,0:0:0:0:
480,192,97675,1,0,0:0:0:0:
416,192,97675,1,0,0:0:0:0:
288,192,97764,1,0,0:0:0:0:
160,192,97764,1,0,0:0:0:0:
96,192,97764,1,0,0:0:0:0:
224,192,97852,1,0,0:0:0:0:
352,192,97852,1,0,0:0:0:0:
416,192,97852,1,0,0:0:0:0:
480,192,97852,1,0,0:0:0:0:
288,192,97940,1,0,0:0:0:0:
96,192,97940,1,0,0:0:0:0:
160,192,97940,1,0,0:0:0:0:
224,192,98028,1,0,0:0:0:0:
352,192,98028,1,0,0:0:0:0:
352,192,98116,1,0,0:0:0:0:
288,192,98205,1,0,0:0:0:0:
224,192,98205,1,0,0:0:0:0:
160,192,98205,1,0,0:0:0:0:
96,192,98205,1,0,0:0:0:0:
352,192,98381,1,0,0:0:0:0:
352,192,98469,1,0,0:0:0:0:
224,192,98558,1,0,0:0:0:0:
96,192,98602,1,0,0:0:0:0:
224,192,98646,1,0,0:0:0:0:
96,192,98690,1,0,0:0:0:0:
288,192,98734,1,0,0:0:0:0:
352,192,98734,1,0,0:0:0:0:
416,192,98734,1,0,0:0:0:0:
480,192,98734,1,0,0:0:0:0:
160,192,98734,1,0,0:0:0:0:
352,192,98911,1,0,0:0:0:0:
352,192,98999,1,0,0:0:0:0:
160,192,99087,1,0,0:0:0:0:
224,192,99131,1,0,0:0:0:0:
160,192,99175,1,0,0:0:0:0:
224,192,99219,1,0,0:0:0:0:
96,192,99264,1,0,0:0:0:0:
352,192,99264,1,0,0:0:0:0:
288,192,99264,1,0,0:0:0:0:
416,192,99264,1,0,0:0:0:0:
480,192,99264,1,0,0:0:0:0:
32,192,99264,1,0,0:0:0:0:
