osu file format v14

[General]
AudioFilename: audio.mp3
AudioLeadIn: 0
PreviewTime: -1
Countdown: 1
SampleSet: Normal
StackLeniency: 0.7
Mode: 2
LetterboxInBreaks: 0
WidescreenStoryboard: 1

[Editor]
DistanceSpacing: 0.8
BeatDivisor: 4
GridSize: 16
TimelineZoom: 2.1

[Metadata]
Title:microwave popcorn
TitleUnicode:microwave popcorn
Artist:Mr.T
ArtistUnicode:Mr.T
Creator:TheLonePiggy
Version:Empty Bucket
Source:
Tags:
BeatmapID:1677048
BeatmapSetID:536494

[Difficulty]
HPDrainRate:7
CircleSize:4
OverallDifficulty:7
ApproachRate:9.5
SliderMultiplier:1.30000000596046
SliderTickRate:2

[Events]
//Background and Video events
//Break Periods
//Storyboard Layer 0 (Background)
//Storyboard Layer 1 (Fail)
//Storyboard Layer 2 (Pass)
//Storyboard Layer 3 (Foreground)
//Storyboard Sound Samples

[TimingPoints]
-150,250,4,1,0,100,1,0
91,250,4,1,0,100,1,0
166,-133.333333333333,4,1,0,100,0,0
10818,-83.3333333333333,4,1,0,100,0,0
11068,-71.4285714285714,4,1,0,100,0,0
11318,-62.5,4,1,0,100,0,0
11568,-71.4285714285714,4,1,0,100,0,0
11818,-100,4,1,0,100,0,0
12318,-133.333333333333,4,1,0,100,0,0
14818,-66.6666666666667,4,1,0,100,0,0
15068,-200,4,1,0,100,0,0
15318,-66.6666666666667,4,1,0,100,0,0
15568,-200,4,1,0,100,0,0
15818,-66.6666666666667,4,1,0,100,0,0
16318,-80,4,1,0,100,0,0
16818,-100,4,1,0,100,0,0
30818,-125,4,1,0,100,0,0
31318,-83.3333333333333,4,1,0,100,0,0
31818,-62.5,4,1,0,100,0,0
32318,-50,4,1,0,100,0,0
32818,-66.6666666666667,4,1,0,100,0,0
40568,-90.9090909090909,4,1,0,100,0,0
40818,-76.9230769230769,4,1,0,100,0,0
41068,-66.6666666666667,4,1,0,100,0,0
41318,-76.9230769230769,4,1,0,100,0,0
41568,-90.9090909090909,4,1,0,100,0,0
41818,-111.111111111111,4,1,0,100,0,0
42568,-90.9090909090909,4,1,0,100,0,0
42818,-76.9230769230769,4,1,0,100,0,0
43068,-66.6666666666667,4,1,0,100,0,0
43318,-76.9230769230769,4,1,0,100,0,0
43568,-90.9090909090909,4,1,0,100,0,0
43818,-111.111111111111,4,1,0,100,0,0
44318,-100,4,1,0,100,0,0
44818,-66.6666666666667,4,1,0,100,0,0
46818,-100,4,1,0,100,0,0
47068,-80,4,1,0,100,0,0
47318,-66.6666666666667,4,1,0,100,0,0
47568,-57.1428571428571,4,1,0,100,0,0
47818,-50,4,1,0,100,0,0
48068,-100,4,1,0,100,0,0
48318,-66.6666666666667,4,1,0,100,0,0
48818,-50,4,1,0,100,0,0
54818,-66.6666666666667,4,1,0,100,0,0
55068,-62.5,4,1,0,100,0,0
55318,-58.8235294117647,4,1,0,100,0,0
55568,-55.5555555555556,4,1,0,100,0,0
55818,-52.6315789473684,4,1,0,100,0,0
56068,-50,4,1,0,100,0,0
62818,-100,4,1,0,100,0,0
63068,-76.9230769230769,4,1,0,100,0,0
63318,-62.5,4,1,0,100,0,0
63568,-52.6315789473684,4,1,0,100,0,0
63818,-100,4,1,0,100,0,0
64818,-133.333333333333,4,1,0,100,0,0
78818,-83.3333333333333,4,1,0,100,0,0
79318,-71.4285714285714,4,1,0,100,0,0
79818,-62.5,4,1,0,100,0,0
80818,-66.6666666666667,4,1,0,100,0,0
94818,-100,4,1,0,100,0,0
95068,-83.3333333333333,4,1,0,100,0,0
95318,-71.4285714285714,4,1,0,100,0,0
95568,-62.5,4,1,0,100,0,0
95818,-55.5555555555556,4,1,0,100,0,0
96068,-66.6666666666667,4,1,0,100,0,0
96318,-100,4,1,0,100,0,0
96568,-66.6666666666667,4,1,0,100,0,0
96818,-50,4,1,0,100,0,0
100818,-50,4,1,0,100,0,0
101068,-55.5555555555556,4,1,0,100,0,0
101318,-62.5,4,1,0,100,0,0
101568,-71.4285714285714,4,1,0,100,0,0
101818,-83.3333333333333,4,1,0,100,0,0
102318,-100,4,1,0,100,0,0
102818,-66.6666666666667,4,1,0,100,0,0
103068,-62.5,4,1,0,100,0,0
103318,-58.8235294117647,4,1,0,100,0,0
103568,-55.5555555555556,4,1,0,100,0,0
103818,-52.6315789473684,4,1,0,100,0,0
104068,-50,4,1,0,100,0,0
108818,-55.5555555555556,4,1,0,100,0,0
109068,-62.5,4,1,0,100,0,0
109318,-71.4285714285714,4,1,0,100,0,0
109568,-83.3333333333333,4,1,0,100,0,0
109818,-100,4,1,0,100,0,0
110318,-125,4,1,0,100,0,0
110818,-66.6666666666667,4,1,0,100,0,0
112568,-50,4,1,0,100,0,0
112818,-55.5555555555556,4,1,0,100,0,0
113068,-62.5,4,1,0,100,0,0
113318,-71.4285714285714,4,1,0,100,0,0
113568,-83.3333333333333,4,1,0,100,0,0
113818,-100,4,1,0,100,0,0
114318,-66.6666666666667,4,1,0,100,0,0
114818,-50,4,1,0,100,0,0
116818,-66.6666666666667,4,1,0,100,0,0
117818,-133.333333333333,4,1,0,100,0,0
118068,-200,4,1,0,100,0,0

[HitObjects]
32,128,778,5,0,0:0:0:0:
256,128,1091,5,0,0:0:0:0:
400,128,1403,5,0,0:0:0:0:
480,128,1528,5,0,0:0:0:0:
256,128,1841,5,0,0:0:0:0:
144,128,2091,5,0,0:0:0:0:
32,128,2341,5,0,0:0:0:0:
32,208,2466,5,0,0:0:0:0:
96,208,2528,5,0,0:0:0:0:
160,208,2591,5,0,0:0:0:0:
224,208,2653,5,0,0:0:0:0:
288,208,2716,5,0,0:0:0:0:
352,208,2778,5,0,0:0:0:0:
416,208,2841,5,0,0:0:0:0:
480,208,2903,5,0,0:0:0:0:
352,144,2966,5,0,0:0:0:0:
192,144,3091,5,0,0:0:0:0:
480,144,3591,5,0,0:0:0:0:
384,144,3778,5,0,0:0:0:0:
320,144,3841,5,0,0:0:0:0:
256,144,3903,5,0,0:0:0:0:
192,144,3966,5,0,0:0:0:0:
80,144,4153,5,0,0:0:0:0:
192,144,4403,5,0,0:0:0:0:
48,80,4591,5,0,0:0:0:0:
160,32,4778,5,0,0:0:0:0:
224,32,4841,5,0,0:0:0:0:
288,32,4903,5,0,0:0:0:0:
352,32,4966,5,0,0:0:0:0:
416,32,5028,5,0,0:0:0:0:
480,32,5091,5,0,0:0:0:0:
432,112,5278,5,0,0:0:0:0:
368,112,5341,5,0,0:0:0:0:
256,112,5528,5,0,0:0:0:0:
144,112,5841,5,0,0:0:0:0:
32,112,6091,5,0,0:0:0:0:
256,112,6341,5,0,0:0:0:0:
368,112,6591,5,0,0:0:0:0:
480,112,6841,5,0,0:0:0:0:
320,176,7091,5,0,0:0:0:0:
224,176,7216,5,0,0:0:0:0:
128,176,7341,5,0,0:0:0:0:
32,176,7466,5,0,0:0:0:0:
128,240,7591,5,0,0:0:0:0:
224,240,7716,5,0,0:0:0:0:
320,240,7841,5,0,0:0:0:0:
128,128,8341,5,0,0:0:0:0:
256,128,8591,5,0,0:0:0:0:
384,128,8841,5,0,0:0:0:0:
320,352,9091,5,0,0:0:0:0:
192,288,9216,5,0,0:0:0:0:
320,224,9341,5,0,0:0:0:0:
192,176,9466,5,0,0:0:0:0:
320,128,9591,5,0,0:0:0:0:
192,80,9716,5,0,0:0:0:0:
320,16,9841,5,0,0:0:0:0:
256,80,10091,5,0,0:0:0:0:
368,112,10341,5,0,0:0:0:0:
256,112,10466,5,0,0:0:0:0:
144,112,10591,5,0,0:0:0:0:
80,32,10841,6,0,L|176:32,1,77.9999979772566
64,128,11091,6,0,L|160:128,1,90.9999976401327
48,208,11341,6,0,L|176:208,1,104.000000476837
64,288,11591,6,0,L|160:288,1,90.9999976401327
32,32,11841,6,0,L|192:32,2,130.000000596046
96,112,12841,6,0,L|208:112,1,97.5000041663645
288,112,13216,5,0,0:0:0:0:
384,112,13341,5,0,0:0:0:0:
480,112,13466,5,0,0:0:0:0:
400,176,13591,5,0,0:0:0:0:
224,176,13841,5,0,0:0:0:0:
128,176,13966,5,0,0:0:0:0:
32,176,14091,5,0,0:0:0:0:
32,272,14216,5,0,0:0:0:0:
96,272,14341,5,0,0:0:0:0:
160,272,14403,5,0,0:0:0:0:
224,272,14466,5,0,0:0:0:0:
288,272,14528,5,0,0:0:0:0:
352,272,14591,5,0,0:0:0:0:
416,272,14653,5,0,0:0:0:0:
480,272,14716,5,0,0:0:0:0:
480,208,14841,6,0,L|368:208,1,97.5000041663645
448,208,15091,6,0,L|480:208,1,32.5000001490115
480,112,15341,6,0,L|368:112,1,97.5000041663645
448,112,15591,6,0,L|480:112,1,32.5000001490115
382,112,15841,6,0,L|270:112,1,97.5000041663645
80,128,16341,6,0,L|192:128,1,81.2500003725287
256,128,16841,5,0,0:0:0:0:
368,128,17028,5,0,0:0:0:0:
432,128,17091,5,0,0:0:0:0:
144,128,17278,5,0,0:0:0:0:
80,128,17341,5,0,0:0:0:0:
384,208,17528,5,0,0:0:0:0:
448,208,17591,5,0,0:0:0:0:
128,208,17778,5,0,0:0:0:0:
64,208,17841,5,0,0:0:0:0:
224,128,18028,5,0,0:0:0:0:
320,128,18278,5,0,0:0:0:0:
416,128,18528,5,0,0:0:0:0:
320,128,18778,5,0,0:0:0:0:
192,128,19091,5,0,0:0:0:0:
96,128,19341,5,0,0:0:0:0:
240,128,19591,5,0,0:0:0:0:
320,128,19716,5,0,0:0:0:0:
384,192,20091,5,0,0:0:0:0:
160,192,20341,5,0,0:0:0:0:
192,96,20591,5,0,0:0:0:0:
352,160,20841,5,0,0:0:0:0:
432,160,20966,5,0,0:0:0:0:
160,160,21091,5,0,0:0:0:0:
80,160,21216,5,0,0:0:0:0:
368,192,21341,5,0,0:0:0:0:
448,192,21466,5,0,0:0:0:0:
144,192,21591,5,0,0:0:0:0:
64,192,21716,5,0,0:0:0:0:
384,240,21841,5,0,0:0:0:0:
464,240,22028,5,0,0:0:0:0:
272,96,22278,5,0,0:0:0:0:
416,96,22528,5,0,0:0:0:0:
480,176,22778,5,0,0:0:0:0:
416,176,22841,5,0,0:0:0:0:
352,176,22903,5,0,0:0:0:0:
288,176,22966,5,0,0:0:0:0:
224,176,23028,5,0,0:0:0:0:
160,176,23091,5,0,0:0:0:0:
96,176,23153,5,0,0:0:0:0:
32,176,23216,5,0,0:0:0:0:
96,240,23278,5,0,0:0:0:0:
160,240,23341,5,0,0:0:0:0:
336,240,23591,5,0,0:0:0:0:
448,240,23716,5,0,0:0:0:0:
128,160,24091,5,0,0:0:0:0:
192,160,24341,5,0,0:0:0:0:
240,160,24591,5,0,0:0:0:0:
224,112,24778,5,0,0:0:0:0:
368,112,25029,5,0,0:0:0:0:
432,112,25091,5,0,0:0:0:0:
96,128,25279,5,0,0:0:0:0:
32,128,25341,5,0,0:0:0:0:
480,48,25528,5,0,0:0:0:0:
288,48,25778,5,0,0:0:0:0:
400,128,26028,5,0,0:0:0:0:
464,128,26090,5,0,0:0:0:0:
32,128,26340,5,0,0:0:0:0:
176,128,26591,5,0,0:0:0:0:
288,128,26841,5,0,0:0:0:0:
416,128,27028,5,0,0:0:0:0:
480,128,27091,5,0,0:0:0:0:
112,128,27278,5,0,0:0:0:0:
48,128,27341,5,0,0:0:0:0:
224,224,27528,5,0,0:0:0:0:
288,224,27591,5,0,0:0:0:0:
352,224,27653,5,0,0:0:0:0:
416,224,27716,5,0,0:0:0:0:
480,224,27778,5,0,0:0:0:0:
416,288,27841,5,0,0:0:0:0:
352,288,27903,5,0,0:0:0:0:
288,288,27966,5,0,0:0:0:0:
224,288,28028,5,0,0:0:0:0:
160,288,28091,5,0,0:0:0:0:
96,288,28153,5,0,0:0:0:0:
32,288,28216,5,0,0:0:0:0:
96,224,28278,5,0,0:0:0:0:
160,224,28341,5,0,0:0:0:0:
224,224,28403,5,0,0:0:0:0:
336,128,28778,5,0,0:0:0:0:
176,96,29028,5,0,0:0:0:0:
112,96,29091,5,0,0:0:0:0:
400,96,29278,5,0,0:0:0:0:
464,96,29341,5,0,0:0:0:0:
192,96,29591,5,0,0:0:0:0:
32,96,29779,5,0,0:0:0:0:
352,96,30028,5,0,0:0:0:0:
416,96,30091,5,0,0:0:0:0:
240,144,30341,5,0,0:0:0:0:
128,144,30591,5,0,0:0:0:0:
32,32,30841,6,0,L|144:32,1,104.000000476837
32,112,31341,6,0,L|192:112,1,155.999995954513
32,192,31841,6,0,L|240:192,1,208.000000953674
32,272,32341,6,0,L|304:272,1,260.000001192092
32,128,32841,5,0,0:0:0:0:
144,128,33091,5,0,0:0:0:0:
256,128,33341,5,0,0:0:0:0:
368,128,33591,5,0,0:0:0:0:
480,128,33841,5,0,0:0:0:0:
336,192,34216,5,0,0:0:0:0:
256,192,34278,5,0,0:0:0:0:
176,192,34341,5,0,0:0:0:0:
96,192,34403,5,0,0:0:0:0:
256,128,34841,5,0,0:0:0:0:
176,128,35091,5,0,0:0:0:0:
96,128,35341,5,0,0:0:0:0:
64,80,35591,5,0,0:0:0:0:
32,16,35841,5,0,0:0:0:0:
144,112,36091,5,0,0:0:0:0:
240,112,36341,5,0,0:0:0:0:
336,112,36591,5,0,0:0:0:0:
144,96,36841,5,0,0:0:0:0:
256,96,37091,5,0,0:0:0:0:
352,96,37341,5,0,0:0:0:0:
400,96,37591,5,0,0:0:0:0:
464,96,37841,5,0,0:0:0:0:
432,144,38091,5,0,0:0:0:0:
384,160,38341,5,0,0:0:0:0:
240,160,38591,5,0,0:0:0:0:
96,144,38841,5,0,0:0:0:0:
48,128,40591,5,0,0:0:0:0:
144,128,40716,5,0,0:0:0:0:
272,128,40841,6,0,L|480:128,1,168.999993038654
272,160,41341,5,0,0:0:0:0:
176,160,41591,5,0,0:0:0:0:
80,160,41841,5,0,0:0:0:0:
80,96,42591,5,0,0:0:0:0:
176,96,42716,5,0,0:0:0:0:
304,96,42841,6,0,L|480:96,1,168.999993038654
368,144,43341,5,0,0:0:0:0:
288,144,43591,5,0,0:0:0:0:
208,144,43841,5,0,0:0:0:0:
384,160,44591,5,0,0:0:0:0:
320,160,44653,5,0,0:0:0:0:
256,160,44716,5,0,0:0:0:0:
192,160,44778,5,0,0:0:0:0:
128,160,44841,5,0,0:0:0:0:
416,48,44966,5,0,0:0:0:0:
320,48,45091,5,0,0:0:0:0:
224,48,45216,5,0,0:0:0:0:
128,48,45341,5,0,0:0:0:0:
32,48,45466,5,0,0:0:0:0:
128,128,45591,5,0,0:0:0:0:
224,128,45716,5,0,0:0:0:0:
320,128,45841,5,0,0:0:0:0:
416,128,45966,5,0,0:0:0:0:
320,208,46091,5,0,0:0:0:0:
208,208,46341,5,0,0:0:0:0:
96,208,46591,5,0,0:0:0:0:
96,48,46841,6,0,L|192:48,1,65.000000298023
112,144,47091,6,0,L|192:144,1,77.9999979772566
128,240,47341,6,0,L|224:240,1,90.9999976401327
144,336,47591,6,0,L|272:336,1,113.750001606345
48,80,47841,6,0,L|176:80,1,116.999996965885
96,160,48091,6,0,L|192:160,1,65.000000298023
176,160,48341,5,0,0:0:0:0:
256,160,48591,5,0,0:0:0:0:
320,160,48716,5,0,0:0:0:0:
400,160,48841,5,0,0:0:0:0:
432,160,48903,5,0,0:0:0:0:
464,160,48966,5,0,0:0:0:0:
496,160,49091,6,0,L|352:160,1,130.000000596046
304,160,49341,6,0,L|160:160,1,130.000000596046
176,48,49591,6,0,L|320:48,1,130
352,48,49841,5,0,0:0:0:0:
416,48,49966,5,0,0:0:0:0:
480,48,50091,5,0,0:0:0:0:
480,112,50216,5,0,0:0:0:0:
416,112,50341,6,0,L|256:112,1,130.000000596046
224,112,50591,6,0,L|72:112,1,130
32,112,50841,5,0,0:0:0:0:
32,176,50966,5,0,0:0:0:0:
96,176,51091,5,0,0:0:0:0:
160,176,51216,5,0,0:0:0:0:
224,176,51341,6,0,L|368:176,1,130.000000596046
354,176,51591,6,0,L|178:176,1,130
160,176,51841,5,0,0:0:0:0:
96,176,51966,5,0,0:0:0:0:
32,176,52091,5,0,0:0:0:0:
96,240,52215,5,0,0:0:0:0:
160,240,52278,5,0,0:0:0:0:
224,240,52340,5,0,0:0:0:0:
64,64,52528,5,0,0:0:0:0:
128,64,52591,5,0,0:0:0:0:
192,64,52653,5,0,0:0:0:0:
256,64,52716,5,0,0:0:0:0:
320,64,52778,5,0,0:0:0:0:
384,64,52841,5,0,0:0:0:0:
464,64,52966,5,0,0:0:0:0:
384,144,53091,5,0,0:0:0:0:
272,144,53216,5,0,0:0:0:0:
160,144,53341,5,0,0:0:0:0:
48,144,53466,5,0,0:0:0:0:
160,208,53591,5,0,0:0:0:0:
272,208,53716,5,0,0:0:0:0:
384,208,53841,5,0,0:0:0:0:
272,272,53966,5,0,0:0:0:0:
160,272,54091,5,0,0:0:0:0:
96,272,54153,5,0,0:0:0:0:
32,272,54216,5,0,0:0:0:0:
160,352,54341,5,0,0:0:0:0:
448,48,54841,6,0,L|344:48,1,97.5000041663645
448,128,55091,6,0,L|336:128,1,104.000000476837
448,208,55341,6,0,L|336:208,1,110.500002614259
448,288,55591,6,0,L|328:288,1,116.999996965885
448,48,55841,6,0,L|320:48,1,123.499997268438
208,48,56091,5,0,0:0:0:0:
96,48,56216,5,0,0:0:0:0:
208,128,56341,5,0,0:0:0:0:
320,128,56466,5,0,0:0:0:0:
432,128,56591,5,0,0:0:0:0:
320,224,56716,5,0,0:0:0:0:
192,224,56841,5,0,0:0:0:0:
80,224,57028,6,0,L|0:224,1,65.000000298023
80,304,57341,5,0,0:0:0:0:
256,304,57591,5,0,0:0:0:0:
368,304,57716,5,0,0:0:0:0:
480,304,57841,5,0,0:0:0:0:
368,208,58028,6,0,L|288:208,1,65.000000298023
160,208,58341,5,0,0:0:0:0:
32,208,58591,5,0,0:0:0:0:
96,144,58778,5,0,0:0:0:0:
160,144,58841,5,0,0:0:0:0:
224,144,58903,5,0,0:0:0:0:
288,144,58966,5,0,0:0:0:0:
352,144,59091,6,0,L|496:144,1,130.000000596046
480,208,59341,6,0,L|336:208,1,130.000000596046
288,208,59591,6,0,L|144:208,1,130.000000596046
96,208,59841,5,0,0:0:0:0:
96,64,60591,5,0,0:0:0:0:
176,64,60716,6,0,L|320:64,1,130.000000596046
416,64,60966,5,0,0:0:0:0:
304,128,61091,5,0,0:0:0:0:
192,128,61216,5,0,0:0:0:0:
80,128,61341,5,0,0:0:0:0:
192,224,61466,5,0,0:0:0:0:
304,224,61591,5,0,0:0:0:0:
416,176,61716,5,0,0:0:0:0:
304,128,61841,5,0,0:0:0:0:
192,128,61966,5,0,0:0:0:0:
80,128,62091,5,0,0:0:0:0:
192,224,62216,5,0,0:0:0:0:
304,224,62341,5,0,0:0:0:0:
80,32,62841,6,0,L|160:32,1,65.000000298023
64,96,63091,6,0,L|176:96,1,84.499996519327
48,160,63341,6,0,L|160:160,1,104.000000476837
32,224,63591,6,0,L|160:224,1,123.499997268438
416,224,63841,5,0,0:0:0:0:
368,224,64091,5,0,0:0:0:0:
320,224,64341,5,0,0:0:0:0:
272,224,64591,5,0,0:0:0:0:
64,176,64841,5,0,0:0:0:0:
192,176,65028,5,0,0:0:0:0:
256,176,65090,5,0,0:0:0:0:
368,176,65341,5,0,0:0:0:0:
256,240,65591,5,0,0:0:0:0:
144,240,65778,5,0,0:0:0:0:
80,240,65841,5,0,0:0:0:0:
160,144,66091,5,0,0:0:0:0:
336,144,66341,5,0,0:0:0:0:
480,144,66591,5,0,0:0:0:0:
304,144,66841,6,0,L|192:144,1,97.5000041663645
96,144,67341,5,0,0:0:0:0:
64,144,67841,6,0,L|368:144,1,292.500012499093
480,192,68841,5,0,0:0:0:0:
304,192,69028,5,0,0:0:0:0:
240,192,69091,5,0,0:0:0:0:
80,192,69341,5,0,0:0:0:0:
192,128,69591,5,0,0:0:0:0:
320,128,69779,5,0,0:0:0:0:
384,128,69841,5,0,0:0:0:0:
432,192,70091,6,0,L|320:192,1,97.5000041663645
160,192,70591,5,0,0:0:0:0:
32,192,70841,6,0,L|240:192,1,195.000008332729
480,192,71841,6,0,L|272:192,1,195.000008332729
240,160,72841,5,0,0:0:0:0:
368,160,73028,5,0,0:0:0:0:
432,160,73091,5,0,0:0:0:0:
288,240,73341,5,0,0:0:0:0:
128,240,73591,5,0,0:0:0:0:
256,240,73778,5,0,0:0:0:0:
320,240,73841,5,0,0:0:0:0:
480,160,74091,5,0,0:0:0:0:
320,160,74341,5,0,0:0:0:0:
160,160,74591,5,0,0:0:0:0:
32,160,74841,6,0,L|240:160,1,195.000008332729
384,160,75591,5,0,0:0:0:0:
227,160,75841,5,0,0:0:0:0:
64,160,76091,5,0,0:0:0:0:
224,160,76341,5,0,0:0:0:0:
224,160,76591,5,0,0:0:0:0:
352,160,76778,5,0,0:0:0:0:
416,160,76841,5,0,0:0:0:0:
224,160,77028,5,0,0:0:0:0:
160,160,77091,5,0,0:0:0:0:
320,160,77341,5,0,0:0:0:0:
480,160,77591,5,0,0:0:0:0:
352,160,77778,5,0,0:0:0:0:
288,160,77841,5,0,0:0:0:0:
128,160,78091,5,0,0:0:0:0:
288,160,78341,5,0,0:0:0:0:
128,160,78591,5,0,0:0:0:0:
32,64,78841,6,0,L|224:64,1,155.999995954513
32,160,79341,6,0,L|240:160,1,181.999995280265
32,256,79841,6,0,L|256:256,1,208.000000953674
32,32,80341,6,0,L|448:32,1,416.000001907347
64,112,81028,5,0,0:0:0:0:
128,112,81091,5,0,0:0:0:0:
256,112,81341,5,0,0:0:0:0:
416,112,81591,5,0,0:0:0:0:
288,112,81778,5,0,0:0:0:0:
224,112,81841,5,0,0:0:0:0:
64,112,82091,5,0,0:0:0:0:
224,112,82341,5,0,0:0:0:0:
384,112,82591,5,0,0:0:0:0:
480,32,82841,6,0,L|80:32,3,390.000016665458
160,128,84841,5,0,0:0:0:0:
256,96,85028,5,0,0:0:0:0:
320,96,85091,5,0,0:0:0:0:
128,96,85341,5,0,0:0:0:0:
272,96,85591,5,0,0:0:0:0:
400,96,85778,5,0,0:0:0:0:
336,96,85841,5,0,0:0:0:0:
176,96,86091,5,0,0:0:0:0:
352,96,86341,5,0,0:0:0:0:
176,96,86591,5,0,0:0:0:0:
48,80,86841,6,0,L|448:80,2,390.000016665458
144,202,88091,5,0,0:0:0:0:
304,208,88341,5,0,0:0:0:0:
464,208,88591,5,0,0:0:0:0:
272,208,88841,5,0,0:0:0:0:
144,208,89028,5,0,0:0:0:0:
80,208,89091,5,0,0:0:0:0:
304,208,89341,5,0,0:0:0:0:
192,208,89591,5,0,0:0:0:0:
320,208,89778,5,0,0:0:0:0:
384,208,89841,5,0,0:0:0:0:
224,208,90091,5,0,0:0:0:0:
80,208,90341,5,0,0:0:0:0:
240,208,90591,5,0,0:0:0:0:
48,96,90841,6,0,L|464:96,2,390.000016665458
160,144,92341,6,0,L|384:144,1,195.000008332729
112,144,92841,5,0,0:0:0:0:
256,128,93028,5,0,0:0:0:0:
320,128,93091,5,0,0:0:0:0:
272,224,93341,5,0,0:0:0:0:
64,192,93591,5,0,0:0:0:0:
208,192,93778,5,0,0:0:0:0:
272,192,93841,5,0,0:0:0:0:
128,144,94091,5,0,0:0:0:0:
256,80,94341,5,0,0:0:0:0:
144,176,94591,5,0,0:0:0:0:
32,192,94841,6,0,L|128:192,1,65.000000298023
32,192,95091,6,0,L|112:192,1,77.9999979772566
32,192,95341,6,0,L|144:192,1,90.9999976401327
32,192,95591,6,0,L|144:192,1,104.000000476837
32,192,95841,6,0,L|160:192,1,116.999996965885
96,112,96091,5,0,0:0:0:0:
112,96,96153,5,0,0:0:0:0:
160,112,96216,5,0,0:0:0:0:
208,112,96278,5,0,0:0:0:0:
272,112,96341,6,0,L|336:112,1,32.5000001490115
256,160,96591,5,0,0:0:0:0:
320,160,96716,5,0,0:0:0:0:
400,160,96841,5,0,0:0:0:0:
432,160,96903,5,0,0:0:0:0:
464,160,96966,5,0,0:0:0:0:
496,160,97091,6,0,L|352:160,1,130.000000596046
304,160,97341,6,0,L|160:160,1,130.000000596046
176,48,97591,6,0,L|320:48,1,130
352,48,97841,5,0,0:0:0:0:
416,48,97966,5,0,0:0:0:0:
480,48,98091,5,0,0:0:0:0:
480,112,98216,5,0,0:0:0:0:
416,112,98341,6,0,L|256:112,1,130.000000596046
224,112,98591,6,0,L|72:112,1,130
32,112,98841,5,0,0:0:0:0:
32,176,98966,5,0,0:0:0:0:
96,176,99091,5,0,0:0:0:0:
160,176,99216,5,0,0:0:0:0:
224,176,99341,6,0,L|368:176,1,130.000000596046
354,176,99591,6,0,L|178:176,1,130
160,176,99841,5,0,0:0:0:0:
96,176,99966,5,0,0:0:0:0:
32,176,100091,5,0,0:0:0:0:
96,240,100215,5,0,0:0:0:0:
160,240,100278,5,0,0:0:0:0:
224,240,100340,5,0,0:0:0:0:
64,64,100528,5,0,0:0:0:0:
128,64,100591,5,0,0:0:0:0:
192,64,100653,5,0,0:0:0:0:
256,64,100716,5,0,0:0:0:0:
320,64,100778,5,0,0:0:0:0:
384,64,100841,5,0,0:0:0:0:
464,64,100966,5,0,0:0:0:0:
384,144,101091,5,0,0:0:0:0:
272,144,101216,5,0,0:0:0:0:
160,144,101341,5,0,0:0:0:0:
48,144,101466,5,0,0:0:0:0:
160,208,101591,5,0,0:0:0:0:
272,208,101716,5,0,0:0:0:0:
384,208,101841,5,0,0:0:0:0:
272,272,101966,5,0,0:0:0:0:
160,272,102091,5,0,0:0:0:0:
96,272,102153,5,0,0:0:0:0:
32,272,102216,5,0,0:0:0:0:
160,352,102341,5,0,0:0:0:0:
32,192,102841,6,0,L|144:192,1,97.5000041663645
48,192,103091,6,0,L|160:192,1,104.000000476837
64,192,103341,6,0,L|176:192,1,110.500002614259
80,192,103591,6,0,L|208:192,1,116.999996965885
320,192,103841,5,0,0:0:0:0:
208,48,104091,5,0,0:0:0:0:
96,48,104216,5,0,0:0:0:0:
208,128,104341,5,0,0:0:0:0:
320,128,104466,5,0,0:0:0:0:
432,128,104591,5,0,0:0:0:0:
320,224,104716,5,0,0:0:0:0:
192,224,104841,5,0,0:0:0:0:
176,96,105028,5,0,0:0:0:0:
208,96,105091,5,0,0:0:0:0:
80,304,105341,5,0,0:0:0:0:
256,304,105591,5,0,0:0:0:0:
368,304,105716,5,0,0:0:0:0:
480,304,105841,5,0,0:0:0:0:
384,208,106028,5,0,0:0:0:0:
304,208,106091,5,0,0:0:0:0:
160,208,106341,5,0,0:0:0:0:
32,208,106591,5,0,0:0:0:0:
96,144,106778,5,0,0:0:0:0:
160,144,106841,5,0,0:0:0:0:
224,144,106903,5,0,0:0:0:0:
288,144,106966,5,0,0:0:0:0:
352,144,107091,6,0,L|496:144,1,130.000000596046
480,208,107341,6,0,L|336:208,1,130.000000596046
288,208,107591,6,0,L|144:208,1,130.000000596046
96,208,107841,5,0,0:0:0:0:
224,112,108591,5,0,0:0:0:0:
384,112,108716,5,0,0:0:0:0:
32,192,108841,6,0,L|160:192,1,116.999996965885
149,192,109091,6,0,L|277:192,1,104.000000476837
256,272,109341,6,0,L|384:272,1,90.9999976401327
352,208,109591,6,0,L|464:208,1,77.9999979772566
432,144,109841,6,0,L|208:144,1,195.000000894069
80,144,110341,6,0,L|256:144,1,156.000000715255
80,160,110841,6,0,L|496:160,1,390.000016665458
258,144,111591,5,0,0:0:0:0:
63,144,111841,6,0,L|271:144,1,195.000008332729
416,144,112341,5,0,0:0:0:0:
176,144,112591,6,0,L|320:144,1,130.000000596046
128,208,112841,6,0,L|272:208,1,116.999996965885
80,256,113091,6,0,L|208:256,1,104.000000476837
32,304,113341,6,0,L|160:304,1,90.9999976401327
80,240,113591,6,0,L|192:240,1,77.9999979772566
128,192,113841,6,0,L|336:192,1,195.000000894069
64,192,114341,6,0,L|368:192,1,292.500012499093
144,128,114841,5,0,0:0:0:0:
272,128,114966,5,0,0:0:0:0:
384,128,115091,5,0,0:0:0:0:
272,128,115341,5,0,0:0:0:0:
144,128,115591,5,0,0:0:0:0:
272,128,115778,5,0,0:0:0:0:
336,128,115841,5,0,0:0:0:0:
464,128,116091,5,0,0:0:0:0:
307,128,116341,5,0,0:0:0:0:
176,128,116591,5,0,0:0:0:0:
32,128,116841,6,0,L|256:128,1,195.000008332729
192,256,117341,6,0,L|512:256,1,292.500012499093
352,96,117841,6,0,L|416:96,1,48.7500020831822
64,128,118091,5,0,0:0:0:0:
496,128,118341,5,0,0:0:0:0:
