osu file format v14

[General]
AudioFilename: audio.ogg
AudioLeadIn: 0
PreviewTime: 43827
Countdown: 0
SampleSet: Soft
StackLeniency: 0.7
Mode: 3
LetterboxInBreaks: 0
SpecialStyle: 0
WidescreenStoryboard: 1

[Editor]
Bookmarks: 12248,22353,43827,75406
DistanceSpacing: 1
BeatDivisor: 4
GridSize: 4
TimelineZoom: 1.999999

[Metadata]
Title:athletic meet of sound toy
TitleUnicode:athletic meet of sound toy
Artist:Mr.T
ArtistUnicode:Mr.T
Creator:[Seo-a]
Version:easy
Source:jubeat saucer fulfill
Tags:ArtZone DenYi electroshock chiptune Tomoyuki Uchida 内田智之 Video Game Instrumental
BeatmapID:3875037
BeatmapSetID:1855686

[Difficulty]
HPDrainRate:7
CircleSize:4
OverallDifficulty:7
ApproachRate:5
SliderMultiplier:1.4
SliderTickRate:1

[Events]
//Background and Video events
0,0,"athletic meet of sound toy.jpg",0,0
//Break Periods
//Storyboard Layer 0 (Background)
//Storyboard Layer 1 (Fail)
//Storyboard Layer 2 (Pass)
//Storyboard Layer 3 (Foreground)
//Storyboard Layer 4 (Overlay)
//Storyboard Sound Samples

[TimingPoints]
668,315.789473684211,4,2,1,50,1,0
43615,-100,4,2,1,50,0,1
65720,-100,4,2,1,50,0,0
86562,-100,4,2,1,50,0,1
104246,-100,4,2,1,50,0,0

[HitObjects]
192,192,668,128,0,1931:0:0:0:0:
320,192,1299,128,0,1931:0:0:0:0:
64,192,1931,1,0,0:0:0:0:
448,192,1931,1,0,0:0:0:0:
192,192,2246,1,0,0:0:0:0:
448,192,2562,1,0,0:0:0:0:
320,192,2878,1,0,0:0:0:0:
64,192,3194,1,0,0:0:0:0:
192,192,3510,1,0,0:0:0:0:
320,192,3825,1,0,0:0:0:0:
448,192,4141,1,0,0:0:0:0:
320,192,4457,1,0,0:0:0:0:
192,192,4773,1,0,0:0:0:0:
64,192,5089,1,0,0:0:0:0:
320,192,5404,1,0,0:0:0:0:
64,192,5720,1,0,0:0:0:0:
320,192,6036,1,0,0:0:0:0:
448,192,6352,1,0,0:0:0:0:
192,192,6668,1,0,0:0:0:0:
448,192,6983,1,0,0:0:0:0:
64,192,6983,1,0,0:0:0:0:
320,192,7299,1,0,0:0:0:0:
64,192,7615,1,0,0:0:0:0:
320,192,7931,1,0,0:0:0:0:
64,192,8246,1,0,0:0:0:0:
448,192,8246,1,0,0:0:0:0:
192,192,8562,1,0,0:0:0:0:
448,192,8878,1,0,0:0:0:0:
192,192,9194,1,0,0:0:0:0:
64,192,9510,1,0,0:0:0:0:
448,192,9510,1,0,0:0:0:0:
320,192,9825,1,0,0:0:0:0:
64,192,10141,1,0,0:0:0:0:
448,192,10141,1,0,0:0:0:0:
192,192,10457,1,0,0:0:0:0:
448,192,10773,128,0,11404:0:0:0:0:
320,192,11089,128,0,11404:0:0:0:0:
64,192,11404,1,0,0:0:0:0:
192,192,11562,1,0,0:0:0:0:
448,192,11720,1,0,0:0:0:0:
320,192,11878,1,0,0:0:0:0:
64,192,12036,1,0,0:0:0:0:
192,192,12036,1,0,0:0:0:0:
320,192,12352,1,0,0:0:0:0:
448,192,12668,1,0,0:0:0:0:
64,192,12983,1,0,0:0:0:0:
448,192,13299,1,0,0:0:0:0:
320,192,13457,1,0,0:0:0:0:
192,192,13615,1,0,0:0:0:0:
64,192,13773,1,0,0:0:0:0:
320,192,13931,1,0,0:0:0:0:
192,192,14246,1,0,0:0:0:0:
64,192,14562,128,0,14878:0:0:0:0:
320,192,14878,1,0,0:0:0:0:
448,192,15194,128,0,15510:0:0:0:0:
192,192,15510,1,0,0:0:0:0:
320,192,15825,128,0,16141:0:0:0:0:
64,192,16141,1,0,0:0:0:0:
192,192,16457,128,0,16773:0:0:0:0:
448,192,16773,1,0,0:0:0:0:
192,192,17089,1,0,0:0:0:0:
64,192,17089,1,0,0:0:0:0:
320,192,17404,1,0,0:0:0:0:
192,192,17720,1,0,0:0:0:0:
448,192,18036,1,0,0:0:0:0:
64,192,18352,1,0,0:0:0:0:
192,192,18510,1,0,0:0:0:0:
320,192,18668,1,0,0:0:0:0:
448,192,18825,1,0,0:0:0:0:
192,192,18983,1,0,0:0:0:0:
320,192,19299,1,0,0:0:0:0:
448,192,19615,128,0,19931:0:0:0:0:
192,192,19931,1,0,0:0:0:0:
64,192,20246,128,0,20562:0:0:0:0:
320,192,20562,1,0,0:0:0:0:
448,192,20878,128,0,21194:0:0:0:0:
64,192,21194,128,0,21510:0:0:0:0:
192,192,21510,1,0,0:0:0:0:
448,192,21668,1,0,0:0:0:0:
320,192,21825,1,0,0:0:0:0:
192,192,21983,1,0,0:0:0:0:
64,192,22141,1,0,0:0:0:0:
448,192,22141,1,0,0:0:0:0:
320,192,22457,1,0,0:0:0:0:
64,192,22773,1,0,0:0:0:0:
192,192,23089,1,0,0:0:0:0:
448,192,23404,1,0,0:0:0:0:
320,192,23562,1,0,0:0:0:0:
64,192,23720,1,0,0:0:0:0:
192,192,23878,1,0,0:0:0:0:
320,192,24036,1,0,0:0:0:0:
192,192,24352,1,0,0:0:0:0:
64,192,24668,128,0,24983:0:0:0:0:
320,192,24983,1,0,0:0:0:0:
448,192,25299,128,0,25615:0:0:0:0:
192,192,25615,1,0,0:0:0:0:
320,192,25931,128,0,26246:0:0:0:0:
64,192,26246,1,0,0:0:0:0:
192,192,26562,128,0,26878:0:0:0:0:
448,192,26878,1,0,0:0:0:0:
64,192,27194,1,0,0:0:0:0:
320,192,27194,1,0,0:0:0:0:
192,192,27510,1,0,0:0:0:0:
320,192,27825,1,0,0:0:0:0:
192,192,28141,1,0,0:0:0:0:
64,192,28457,1,0,0:0:0:0:
192,192,28615,1,0,0:0:0:0:
448,192,28773,1,0,0:0:0:0:
320,192,28931,1,0,0:0:0:0:
192,192,29089,1,0,0:0:0:0:
64,192,29404,1,0,0:0:0:0:
448,192,29720,128,0,30036:0:0:0:0:
192,192,30036,1,0,0:0:0:0:
64,192,30352,128,0,30668:0:0:0:0:
320,192,30668,1,0,0:0:0:0:
448,192,30983,128,0,31615:0:0:0:0:
64,192,31299,128,0,31615:0:0:0:0:
192,192,31615,1,0,0:0:0:0:
320,192,31931,1,0,0:0:0:0:
192,192,32089,1,0,0:0:0:0:
64,192,32246,128,0,32562:0:0:0:0:
448,192,32246,1,0,0:0:0:0:
320,192,32562,128,0,32878:0:0:0:0:
192,192,32878,128,0,33194:0:0:0:0:
448,192,33194,128,0,33510:0:0:0:0:
320,192,33510,128,0,33825:0:0:0:0:
64,192,33825,128,0,34141:0:0:0:0:
192,192,34141,128,0,34773:0:0:0:0:
64,192,34773,128,0,35089:0:0:0:0:
320,192,35089,128,0,35404:0:0:0:0:
192,192,35404,128,0,35720:0:0:0:0:
448,192,35720,128,0,36036:0:0:0:0:
320,192,36036,128,0,36825:0:0:0:0:
192,192,36825,1,0,0:0:0:0:
448,192,37141,1,0,0:0:0:0:
64,192,37299,128,0,37615:0:0:0:0:
320,192,37615,128,0,37931:0:0:0:0:
192,192,37931,128,0,38246:0:0:0:0:
448,192,38246,128,0,38562:0:0:0:0:
320,192,38562,128,0,38878:0:0:0:0:
64,192,38878,128,0,39194:0:0:0:0:
320,192,39194,128,0,39510:0:0:0:0:
64,192,39510,1,0,0:0:0:0:
192,192,39668,1,0,0:0:0:0:
320,192,39825,128,0,40299:0:0:0:0:
448,192,40299,1,0,0:0:0:0:
192,192,40457,128,0,40931:0:0:0:0:
64,192,40931,1,0,0:0:0:0:
448,192,41089,128,0,42352:0:0:0:0:
320,192,41404,1,0,0:0:0:0:
64,192,41720,1,0,0:0:0:0:
192,192,42036,1,0,0:0:0:0:
320,192,42352,1,0,0:0:0:0:
64,192,42668,128,0,42983:0:0:0:0:
320,192,42983,1,0,0:0:0:0:
192,192,43299,1,0,0:0:0:0:
448,192,43615,1,0,0:0:0:0:
64,192,43615,1,0,0:0:0:0:
192,192,43773,1,0,0:0:0:0:
320,192,43931,1,0,0:0:0:0:
448,192,44089,1,0,0:0:0:0:
64,192,44246,128,0,44562:0:0:0:0:
192,192,44562,1,0,0:0:0:0:
448,192,44878,1,0,0:0:0:0:
320,192,45036,1,0,0:0:0:0:
192,192,45194,1,0,0:0:0:0:
64,192,45352,1,0,0:0:0:0:
320,192,45510,128,0,45825:0:0:0:0:
192,192,45825,1,0,0:0:0:0:
64,192,46141,1,0,0:0:0:0:
192,192,46299,1,0,0:0:0:0:
320,192,46457,1,0,0:0:0:0:
448,192,46615,1,0,0:0:0:0:
64,192,46773,1,0,0:0:0:0:
320,192,47089,1,0,0:0:0:0:
448,192,47404,128,0,48036:0:0:0:0:
64,192,47720,1,0,0:0:0:0:
192,192,48036,1,0,0:0:0:0:
320,192,48352,1,0,0:0:0:0:
448,192,48668,1,0,0:0:0:0:
64,192,48668,1,0,0:0:0:0:
320,192,48825,1,0,0:0:0:0:
192,192,48983,1,0,0:0:0:0:
64,192,49141,1,0,0:0:0:0:
448,192,49299,128,0,49615:0:0:0:0:
192,192,49615,1,0,0:0:0:0:
64,192,49931,1,0,0:0:0:0:
192,192,50089,1,0,0:0:0:0:
320,192,50246,1,0,0:0:0:0:
448,192,50404,1,0,0:0:0:0:
192,192,50562,128,0,50878:0:0:0:0:
320,192,50878,1,0,0:0:0:0:
448,192,51194,1,0,0:0:0:0:
64,192,51194,1,0,0:0:0:0:
192,192,51510,1,0,0:0:0:0:
64,192,51825,1,0,0:0:0:0:
320,192,52141,1,0,0:0:0:0:
448,192,52457,128,0,52773:0:0:0:0:
320,192,52773,128,0,53089:0:0:0:0:
192,192,53089,128,0,53404:0:0:0:0:
64,192,53404,128,0,53720:0:0:0:0:
448,192,53720,1,0,0:0:0:0:
192,192,53720,1,0,0:0:0:0:
64,192,53878,1,0,0:0:0:0:
320,192,54036,1,0,0:0:0:0:
192,192,54194,1,0,0:0:0:0:
64,192,54352,128,0,54668:0:0:0:0:
448,192,54668,1,0,0:0:0:0:
320,192,54983,1,0,0:0:0:0:
448,192,55141,1,0,0:0:0:0:
64,192,55299,1,0,0:0:0:0:
192,192,55457,1,0,0:0:0:0:
320,192,55615,128,0,55931:0:0:0:0:
448,192,55931,1,0,0:0:0:0:
320,192,56246,1,0,0:0:0:0:
192,192,56404,1,0,0:0:0:0:
64,192,56562,1,0,0:0:0:0:
320,192,56720,1,0,0:0:0:0:
448,192,56878,1,0,0:0:0:0:
192,192,57194,1,0,0:0:0:0:
64,192,57510,128,0,58141:0:0:0:0:
448,192,57825,1,0,0:0:0:0:
320,192,58141,1,0,0:0:0:0:
192,192,58457,1,0,0:0:0:0:
448,192,58773,1,0,0:0:0:0:
64,192,58773,1,0,0:0:0:0:
320,192,58931,1,0,0:0:0:0:
192,192,59089,1,0,0:0:0:0:
64,192,59246,1,0,0:0:0:0:
448,192,59404,128,0,59720:0:0:0:0:
192,192,59720,1,0,0:0:0:0:
64,192,60036,1,0,0:0:0:0:
192,192,60194,1,0,0:0:0:0:
320,192,60352,1,0,0:0:0:0:
448,192,60510,1,0,0:0:0:0:
64,192,60668,128,0,60983:0:0:0:0:
320,192,60983,1,0,0:0:0:0:
448,192,61299,128,0,61773:0:0:0:0:
320,192,61773,1,0,0:0:0:0:
64,192,61931,128,0,62404:0:0:0:0:
192,192,62404,1,0,0:0:0:0:
320,192,62562,128,0,63036:0:0:0:0:
448,192,63036,1,0,0:0:0:0:
192,192,63194,128,0,63668:0:0:0:0:
320,192,63668,1,0,0:0:0:0:
64,192,63825,128,0,64141:0:0:0:0:
192,192,64141,128,0,64457:0:0:0:0:
320,192,64457,128,0,64773:0:0:0:0:
448,192,64773,128,0,65089:0:0:0:0:
320,192,65089,128,0,65404:0:0:0:0:
192,192,65404,128,0,65720:0:0:0:0:
64,192,65720,1,0,0:0:0:0:
320,192,66036,128,0,66352:0:0:0:0:
448,192,66352,1,0,0:0:0:0:
64,192,66352,1,0,0:0:0:0:
192,192,66668,1,0,0:0:0:0:
320,192,66983,1,0,0:0:0:0:
64,192,67299,1,0,0:0:0:0:
448,192,67615,1,0,0:0:0:0:
320,192,67773,1,0,0:0:0:0:
192,192,67931,1,0,0:0:0:0:
64,192,68089,1,0,0:0:0:0:
448,192,68246,1,0,0:0:0:0:
320,192,68562,1,0,0:0:0:0:
64,192,68878,128,0,69194:0:0:0:0:
192,192,69194,1,0,0:0:0:0:
448,192,69510,128,0,69825:0:0:0:0:
320,192,69825,1,0,0:0:0:0:
192,192,70141,128,0,70457:0:0:0:0:
64,192,70457,1,0,0:0:0:0:
320,192,70773,128,0,71089:0:0:0:0:
448,192,71089,1,0,0:0:0:0:
192,192,71404,1,0,0:0:0:0:
64,192,71404,1,0,0:0:0:0:
320,192,71720,1,0,0:0:0:0:
192,192,72036,1,0,0:0:0:0:
448,192,72352,1,0,0:0:0:0:
64,192,72668,1,0,0:0:0:0:
192,192,72825,1,0,0:0:0:0:
320,192,72983,1,0,0:0:0:0:
448,192,73141,1,0,0:0:0:0:
64,192,73299,1,0,0:0:0:0:
320,192,73615,1,0,0:0:0:0:
448,192,73931,128,0,74246:0:0:0:0:
192,192,74246,1,0,0:0:0:0:
64,192,74562,128,0,74878:0:0:0:0:
320,192,74878,1,0,0:0:0:0:
448,192,75194,128,0,75825:0:0:0:0:
64,192,75510,128,0,75825:0:0:0:0:
192,192,75825,1,0,0:0:0:0:
448,192,75983,1,0,0:0:0:0:
320,192,76141,1,0,0:0:0:0:
192,192,76299,1,0,0:0:0:0:
64,192,76457,1,0,0:0:0:0:
448,192,76457,128,0,76773:0:0:0:0:
192,192,76773,128,0,77089:0:0:0:0:
64,192,77089,128,0,77404:0:0:0:0:
448,192,77404,128,0,77720:0:0:0:0:
320,192,77720,128,0,78036:0:0:0:0:
64,192,78036,128,0,78352:0:0:0:0:
192,192,78352,128,0,78668:0:0:0:0:
448,192,78668,128,0,78983:0:0:0:0:
192,192,78983,128,0,79299:0:0:0:0:
320,192,79299,128,0,79615:0:0:0:0:
64,192,79615,128,0,79931:0:0:0:0:
320,192,79931,128,0,80246:0:0:0:0:
448,192,80246,128,0,80562:0:0:0:0:
192,192,80562,128,0,80878:0:0:0:0:
448,192,80878,1,0,0:0:0:0:
320,192,81036,1,0,0:0:0:0:
192,192,81194,1,0,0:0:0:0:
64,192,81352,1,0,0:0:0:0:
448,192,81510,128,0,81825:0:0:0:0:
192,192,81825,128,0,82141:0:0:0:0:
320,192,81825,1,0,0:0:0:0:
64,192,82141,128,0,82457:0:0:0:0:
320,192,82457,128,0,82773:0:0:0:0:
192,192,82457,1,0,0:0:0:0:
448,192,82773,128,0,83089:0:0:0:0:
64,192,83089,128,0,83404:0:0:0:0:
320,192,83089,1,0,0:0:0:0:
192,192,83404,128,0,83720:0:0:0:0:
448,192,83720,128,0,84036:0:0:0:0:
320,192,83720,1,0,0:0:0:0:
64,192,84036,128,0,84352:0:0:0:0:
448,192,84352,1,0,0:0:0:0:
192,192,84352,128,0,84668:0:0:0:0:
320,192,84668,128,0,84983:0:0:0:0:
448,192,84983,128,0,85299:0:0:0:0:
192,192,84983,1,0,0:0:0:0:
64,192,85299,128,0,85615:0:0:0:0:
192,192,85615,128,0,85931:0:0:0:0:
320,192,85931,128,0,86246:0:0:0:0:
448,192,86246,128,0,86562:0:0:0:0:
64,192,86562,128,0,86878:0:0:0:0:
320,192,86878,1,0,0:0:0:0:
448,192,87194,128,0,87510:0:0:0:0:
192,192,87510,1,0,0:0:0:0:
320,192,87825,128,0,88141:0:0:0:0:
64,192,88141,1,0,0:0:0:0:
192,192,88457,128,0,88773:0:0:0:0:
448,192,88773,1,0,0:0:0:0:
64,192,89089,128,0,89404:0:0:0:0:
320,192,89404,1,0,0:0:0:0:
192,192,89720,128,0,90036:0:0:0:0:
448,192,90036,1,0,0:0:0:0:
320,192,90352,128,0,90668:0:0:0:0:
64,192,90668,1,0,0:0:0:0:
192,192,90983,128,0,91299:0:0:0:0:
320,192,91299,1,0,0:0:0:0:
448,192,91615,128,0,91931:0:0:0:0:
64,192,91931,1,0,0:0:0:0:
192,192,92246,128,0,92562:0:0:0:0:
448,192,92562,1,0,0:0:0:0:
320,192,92878,128,0,93194:0:0:0:0:
64,192,93194,1,0,0:0:0:0:
192,192,93510,128,0,93825:0:0:0:0:
448,192,93825,1,0,0:0:0:0:
64,192,94141,128,0,94457:0:0:0:0:
320,192,94457,1,0,0:0:0:0:
192,192,94773,128,0,95089:0:0:0:0:
448,192,95089,1,0,0:0:0:0:
64,192,95404,128,0,95720:0:0:0:0:
320,192,95404,1,0,0:0:0:0:
192,192,95720,128,0,96036:0:0:0:0:
320,192,96036,128,0,96352:0:0:0:0:
448,192,96352,128,0,96668:0:0:0:0:
192,192,96668,1,0,0:0:0:0:
64,192,96668,1,0,0:0:0:0:
320,192,96983,1,0,0:0:0:0:
192,192,97299,1,0,0:0:0:0:
64,192,97615,1,0,0:0:0:0:
448,192,97615,1,0,0:0:0:0:
320,192,97931,1,0,0:0:0:0:
192,192,98246,1,0,0:0:0:0:
320,192,98562,1,0,0:0:0:0:
448,192,98878,1,0,0:0:0:0:
64,192,98878,1,0,0:0:0:0:
192,192,99194,1,0,0:0:0:0:
320,192,99510,1,0,0:0:0:0:
448,192,99825,1,0,0:0:0:0:
64,192,100141,1,0,0:0:0:0:
192,192,100141,1,0,0:0:0:0:
448,192,100457,1,0,0:0:0:0:
320,192,100773,1,0,0:0:0:0:
64,192,101089,1,0,0:0:0:0:
320,192,101404,1,0,0:0:0:0:
192,192,101404,1,0,0:0:0:0:
64,192,101720,1,0,0:0:0:0:
448,192,101720,1,0,0:0:0:0:
192,192,102036,1,0,0:0:0:0:
448,192,102352,1,0,0:0:0:0:
320,192,102668,1,0,0:0:0:0:
64,192,102668,1,0,0:0:0:0:
448,192,102983,1,0,0:0:0:0:
320,192,103299,1,0,0:0:0:0:
64,192,103615,1,0,0:0:0:0:
192,192,103931,1,0,0:0:0:0:
448,192,103931,1,0,0:0:0:0:
320,192,104246,1,0,0:0:0:0:
64,192,104246,128,0,104878:0:0:0:0:
448,192,104878,1,0,0:0:0:0:
192,192,104878,128,0,105510:0:0:0:0:
320,192,105510,128,0,106141:0:0:0:0:
64,192,105510,1,0,0:0:0:0:
64,192,105825,1,0,0:0:0:0:
448,192,106141,128,0,106773:0:0:0:0:
192,192,106141,1,0,0:0:0:0:
192,192,106457,1,0,0:0:0:0:
64,192,106773,128,0,107089:0:0:0:0:
320,192,106773,1,0,0:0:0:0:
192,192,107089,128,0,107404:0:0:0:0:
320,192,107404,128,0,107720:0:0:0:0:
448,192,107720,128,0,108036:0:0:0:0:
64,192,108036,128,0,109299:0:0:0:0:
320,192,108036,1,0,0:0:0:0:
